<?xml version="1.0" standalone="no"?>
<!DOCTYPE svg PUBLIC "-//W3C//DTD SVG 1.1//EN" "http://www.w3.org/Graphics/SVG/1.1/DTD/svg11.dtd" >
<svg xmlns="http://www.w3.org/2000/svg">
<metadata></metadata>
<defs>
<font id="geomanistregular" horiz-adv-x="569" >
<font-face units-per-em="2048" ascent="1536" descent="-512" />
<missing-glyph horiz-adv-x="395" />
<glyph unicode="&#x2e;&#x2e;&#x2e;" horiz-adv-x="1792" d="M18 209q0 101 72 170.5t184 69.5q114 0 186 -69t72 -171q0 -98 -72.5 -167t-185.5 -69q-112 0 -184 69t-72 167zM647 209q0 101 72 170.5t184 69.5q114 0 186 -69t72 -171q0 -98 -72.5 -167t-185.5 -69q-112 0 -184 69t-72 167zM1260 209q0 101 72 170.5t184 69.5 q114 0 186 -69t72 -171q0 -98 -72.5 -167t-185.5 -69q-112 0 -184 69t-72 167z" />
<glyph unicode=" "  horiz-adv-x="395" />
<glyph unicode="&#x09;" horiz-adv-x="395" />
<glyph unicode="&#xa0;" horiz-adv-x="395" />
<glyph unicode="!" horiz-adv-x="671" d="M78 209q0 101 72 170.5t184 69.5q114 0 186 -69t72 -171q0 -98 -72.5 -167t-185.5 -69q-112 0 -184 69t-72 167zM84 1434h504l-35 -957h-434z" />
<glyph unicode="&#x22;" horiz-adv-x="911" d="M51 1434h385l-16 -576h-350zM471 1434h389l-18 -576h-353z" />
<glyph unicode="#" horiz-adv-x="1396" d="M20 328l64 313h147l33 152h-147l63 313h150l69 328h400l-70 -328h88l70 328h399l-69 -328h157l-63 -313h-160l-33 -152h160l-64 -313h-161l-70 -328h-399l69 328h-88l-69 -328h-400l70 328h-146zM631 641h88l33 152h-88z" />
<glyph unicode="$" horiz-adv-x="1181" d="M23 346l370 201q40 -68 92 -110t99 -42q20 0 30.5 9.5t10.5 25.5q0 26 -31 50.5t-80 47t-108.5 49.5t-119.5 65t-109 85t-80 119t-31 158q0 172 104.5 289t284.5 153v125h305v-129q80 -20 148.5 -59.5t114 -86.5t74.5 -92t42 -86l-351 -205q-26 53 -68.5 92t-88.5 39 q-20 0 -31.5 -10.5t-11.5 -25.5q0 -27 31 -52.5t80.5 -50t109 -52t119.5 -66t109.5 -85t80.5 -115.5t31 -151q0 -174 -103 -291.5t-286 -154.5v-142h-305v138q-93 17 -170.5 58t-128 94t-82.5 104t-51 104z" />
<glyph unicode="%" horiz-adv-x="1830" d="M31 1092q0 156 113 262t288 106t288.5 -106t113.5 -262t-113.5 -262.5t-288.5 -106.5t-288 106.5t-113 262.5zM190 0l1055 1434h393l-1054 -1434h-394zM383 1092q0 -32 13 -52t36 -20t36 20t13 52q0 31 -13 51t-36 20t-36 -20t-13 -51zM993 342q0 156 113.5 262.5 t288.5 106.5t288 -106.5t113 -262.5t-113 -262.5t-288 -106.5t-288.5 106.5t-113.5 262.5zM1346 342q0 -32 13 -52t36 -20t36 20t13 52t-13 52t-36 20t-36 -20t-13 -52z" />
<glyph unicode="&#x26;" horiz-adv-x="1421" d="M16 442q0 115 61 215.5t177 176.5q-88 104 -88 233q0 174 128.5 283.5t340.5 109.5q228 0 355.5 -113.5t127.5 -287.5q0 -203 -221 -348l80 -78q18 34 18 65h389q0 -92 -32.5 -192.5t-87.5 -169.5l135 -131l-295 -289l-141 145q-65 -39 -164.5 -63.5t-208.5 -24.5 q-268 0 -421 131.5t-153 337.5zM479 453q0 -50 37.5 -79.5t85.5 -29.5q44 0 76 21q-24 22 -164 167q-35 -31 -35 -79zM590 1044q0 -56 55 -108q57 41 57 106q0 32 -15 51t-42 19q-24 0 -39.5 -19t-15.5 -49z" />
<glyph unicode="'" horiz-adv-x="487" d="M51 1434h385l-16 -576h-350z" />
<glyph unicode="(" horiz-adv-x="780" d="M41 90v1098q0 247 166 376.5t457 129.5v-359q-88 0 -125 -37t-37 -110v-1098q0 -73 37 -110t125 -37v-359q-291 0 -457 129.5t-166 376.5z" />
<glyph unicode=")" horiz-adv-x="780" d="M117 -57q88 0 125 37t37 110v1098q0 73 -37 110t-125 37v359q291 0 456.5 -129.5t165.5 -376.5v-1098q0 -247 -165.5 -376.5t-456.5 -129.5v359z" />
<glyph unicode="*" horiz-adv-x="917" d="M27 1118l143 244l137 -74v146h311v-146l136 76l135 -246l-150 -74l152 -69l-139 -250l-134 74v-144h-311v144l-135 -74l-143 248l161 74z" />
<glyph unicode="+" horiz-adv-x="1099" d="M20 469v332h330v352h400v-352h329v-332h-329v-354h-400v354h-330z" />
<glyph unicode="," horiz-adv-x="550" d="M18 209q0 101 72 170.5t184 69.5t185 -69.5t73 -189.5q0 -166 -84 -319.5t-235 -251.5l-182 205q46 28 90.5 74.5t64.5 87.5q-82 30 -125 90t-43 133z" />
<glyph unicode="-" horiz-adv-x="829" d="M70 459v352h688v-352h-688z" />
<glyph unicode="." horiz-adv-x="550" d="M18 209q0 101 72 170.5t184 69.5q114 0 186 -69t72 -171q0 -98 -72.5 -167t-185.5 -69q-112 0 -184 69t-72 167z" />
<glyph unicode="/" horiz-adv-x="997" d="M-12 -221l614 1757h410l-615 -1757h-409z" />
<glyph unicode="0" horiz-adv-x="1232" d="M45 717q0 373 140.5 558t430.5 185t431 -185t141 -558q0 -374 -141 -559t-431 -185t-430.5 185t-140.5 559zM547 717q0 -334 69 -334q70 0 70 334q0 338 -70 338q-69 0 -69 -338z" />
<glyph unicode="1" horiz-adv-x="827" d="M41 1331l332 103h393v-1434h-500v989l-123 -33z" />
<glyph unicode="2" horiz-adv-x="1187" d="M35 1022q14 68 40 128t71 118t104 99.5t145.5 67t190.5 25.5q160 0 284 -51t196.5 -155.5t72.5 -249.5q0 -75 -26 -144.5t-67.5 -121.5t-91.5 -98.5t-100.5 -82.5t-92 -66t-67.5 -56.5t-26 -47.5h483v-387h-1096v180q0 85 31.5 164t82.5 140t112 118t122 106t112 94.5 t82.5 94t31.5 94.5q0 30 -17.5 47t-44.5 17q-66 0 -94 -123z" />
<glyph unicode="3" horiz-adv-x="1159" d="M27 383l430 94q7 -44 33.5 -70t60.5 -26q38 0 65 24t27 64q0 38 -31.5 65t-83.5 27h-213v281l238 205h-463v387h979v-355l-203 -184q120 -43 193.5 -147.5t73.5 -272.5q0 -147 -72 -262t-199.5 -177.5t-288.5 -62.5q-106 0 -194.5 27t-146.5 68.5t-102 98t-67 109 t-36 107.5z" />
<glyph unicode="4" horiz-adv-x="1280" d="M23 291v295l532 848h559v-770h141v-373h-141v-291h-496v291h-595zM461 664h157v268z" />
<glyph unicode="5" horiz-adv-x="1165" d="M16 379l443 98q5 -49 32 -70.5t62 -21.5t62.5 25t27.5 73q0 44 -26.5 73.5t-69.5 29.5q-26 0 -48 -15t-32 -41l-410 58l33 846h965v-387h-539l-4 -113q58 20 133 20q135 0 249 -57.5t183.5 -166.5t69.5 -247q0 -143 -74 -260t-204 -183.5t-289 -66.5q-105 0 -195 26.5 t-151 68t-108 96.5t-72 108t-38 107z" />
<glyph unicode="6" horiz-adv-x="1204" d="M35 639q0 84 9 163t30.5 162.5t55.5 154.5t87 135t121 109t162 71t205 26q235 0 399 -102l-164 -363q-102 58 -188 58q-68 0 -110.5 -40.5t-53.5 -101.5q66 39 166 39q85 0 157.5 -26t130.5 -79t91.5 -143t33.5 -208q0 -226 -155 -373.5t-398 -147.5q-579 0 -579 666z M541 594q-7 -217 82 -217q30 0 48.5 32t18.5 76q0 55 -23.5 92t-62.5 37q-36 0 -63 -20z" />
<glyph unicode="7" horiz-adv-x="1118" d="M14 1053v381h1090v-285l-432 -1149h-533l408 1053h-533z" />
<glyph unicode="8" horiz-adv-x="1208" d="M33 453q0 93 38 175.5t103 135.5q-51 46 -82 115t-31 145q0 189 145.5 312.5t397.5 123.5t397.5 -123.5t145.5 -312.5q0 -76 -31 -145t-82 -115q65 -53 103.5 -135.5t38.5 -175.5q0 -220 -153.5 -350t-418.5 -130t-418 130t-153 350zM520 463q0 -52 23 -83.5t61 -31.5 t60 31t22 84q0 42 -21.5 77t-60.5 35q-41 0 -62.5 -35t-21.5 -77zM537 993q0 -44 17.5 -69t49.5 -25t49 24.5t17 69.5q0 41 -17 69t-49 28t-49.5 -28t-17.5 -69z" />
<glyph unicode="9" horiz-adv-x="1204" d="M35 940q0 226 155 373t398 147q579 0 579 -665q0 -120 -17.5 -229.5t-64.5 -220.5t-120 -191t-193 -130.5t-274 -50.5q-234 0 -400 103l164 362q100 -57 189 -57q68 0 110 40t53 101q-66 -39 -165 -39q-85 0 -157.5 26t-131 79.5t-92 143.5t-33.5 208zM512 948 q0 -55 23.5 -92t62.5 -37q36 0 64 21q7 217 -82 217q-30 0 -49 -32.5t-19 -76.5z" />
<glyph unicode=":" horiz-adv-x="546" d="M16 854q0 101 72 170.5t184 69.5q114 0 186 -69t72 -171q0 -98 -72.5 -167t-185.5 -69q-112 0 -184 69t-72 167zM18 209q0 101 72 170.5t184 69.5q114 0 186 -69t72 -171q0 -98 -72.5 -167t-185.5 -69q-112 0 -184 69t-72 167z" />
<glyph unicode=";" horiz-adv-x="546" d="M16 854q0 101 72 170.5t184 69.5q114 0 186 -69t72 -171q0 -98 -72.5 -167t-185.5 -69q-112 0 -184 69t-72 167zM18 209q0 101 72 170.5t184 69.5t185 -69.5t73 -189.5q0 -166 -84 -319.5t-235 -251.5l-182 205q46 28 90.5 74.5t64.5 87.5q-82 30 -125 90t-43 133z" />
<glyph unicode="&#x3c;" horiz-adv-x="1089" d="M72 498v274l944 418v-371l-473 -182l473 -182v-373z" />
<glyph unicode="=" horiz-adv-x="1099" d="M20 254v330h1059v-330h-1059zM20 668v329h1059v-329h-1059z" />
<glyph unicode="&#x3e;" horiz-adv-x="1089" d="M72 82v373l473 182l-473 182v371l944 -418v-274z" />
<glyph unicode="?" horiz-adv-x="1036" d="M14 1141q16 43 36.5 81t61.5 83.5t92.5 78t131.5 54.5t176 22q221 0 364.5 -113.5t143.5 -297.5q0 -63 -23.5 -119.5t-59 -95t-76.5 -77t-76.5 -69t-59 -68t-23.5 -75.5v-68h-452v92q0 58 22 112.5t55 93t71.5 76t71.5 65t55 57.5t22 55q0 28 -16.5 47t-47.5 19 q-37 0 -65 -31.5t-41 -79.5zM217 209q0 101 72 170.5t184 69.5q114 0 186 -69t72 -171q0 -98 -72.5 -167t-185.5 -69q-112 0 -184 69t-72 167z" />
<glyph unicode="@" horiz-adv-x="1916" d="M55 530q0 188 70.5 348t192 270.5t288.5 173t357 62.5q201 0 371 -59t284.5 -161t178 -238.5t63.5 -290.5q0 -228 -127 -369t-336 -141q-73 0 -140.5 33t-103.5 84q-32 -47 -108 -83t-166 -36q-176 0 -284 115t-108 292t96.5 291.5t256.5 114.5q49 0 101 -17.5t79 -44.5 v50h348v-449q0 -84 62 -84q42 0 72 57.5t30 174.5q0 225 -156.5 360t-412.5 135q-167 0 -300 -76t-206.5 -207.5t-73.5 -293.5q0 -172 77 -302t214 -199t313 -69q243 0 422 86l96 -233q-89 -56 -226 -88.5t-292 -32.5q-278 0 -490.5 105t-327 292.5t-114.5 429.5zM864 528 q0 -51 23.5 -84.5t58.5 -33.5t57.5 36t22.5 82t-22.5 82.5t-57.5 36.5t-58.5 -34t-23.5 -85z" />
<glyph unicode="A" horiz-adv-x="1523" d="M10 0l496 1434h512l495 -1434h-532l-63 219h-336l-64 -219h-508zM668 584h161l-79 295z" />
<glyph unicode="B" horiz-adv-x="1273" d="M61 0v1434h621q244 0 387 -111t143 -293q0 -178 -147 -280q81 -45 128.5 -128t47.5 -173q0 -214 -143.5 -331.5t-382.5 -117.5h-654zM561 385h90q41 0 69 28t28 68t-28 68.5t-69 28.5h-90v-193zM561 891h90q39 0 60.5 24t21.5 56t-21.5 56t-60.5 24h-90v-160z" />
<glyph unicode="C" horiz-adv-x="1312" d="M16 719q0 154 55.5 289.5t154.5 235.5t245 158t317 58q279 0 482 -141l-156 -410q-114 111 -268 111q-124 0 -205.5 -84.5t-81.5 -216.5q0 -137 82 -221t205 -84q153 0 278 112l154 -411q-201 -142 -490 -142q-167 0 -310 54.5t-244.5 151t-159.5 236t-58 304.5z" />
<glyph unicode="D" horiz-adv-x="1390" d="M61 0v1434h512q238 0 418.5 -84.5t281.5 -247t101 -383.5q0 -218 -99.5 -381.5t-281 -250.5t-420.5 -87h-512zM565 410h31q116 0 182 78t66 231q0 152 -66 228.5t-182 76.5h-31v-614z" />
<glyph unicode="E" horiz-adv-x="1017" d="M61 0v1434h895v-404h-376v-119h335v-379h-335v-129h376v-403h-895z" />
<glyph unicode="F" horiz-adv-x="987" d="M61 0v1434h889v-404h-370v-166h335v-383h-335v-481h-519z" />
<glyph unicode="G" horiz-adv-x="1529" d="M16 719q0 153 56 289t155.5 236t245 158t315.5 58q386 0 611 -233l-289 -312q-120 105 -264 105q-124 0 -205.5 -84.5t-81.5 -216.5q0 -140 79 -226.5t210 -86.5q112 0 176 38v56h-162v346h627v-637q-271 -236 -696 -236q-177 0 -324 57t-245.5 157t-153 236.5 t-54.5 295.5z" />
<glyph unicode="H" horiz-adv-x="1466" d="M61 0v1434h521v-516h303v516h520v-1434h-520v514h-303v-514h-521z" />
<glyph unicode="I" horiz-adv-x="643" d="M61 0v1434h521v-1434h-521z" />
<glyph unicode="J" horiz-adv-x="858" d="M23 25l51 391q62 -15 110 -15q92 0 92 78v955h521v-1035q0 -411 -484 -411q-147 0 -290 37z" />
<glyph unicode="K" horiz-adv-x="1431" d="M61 0v1434h521v-521l245 521h568l-355 -684l369 -750h-578l-249 590v-590h-521z" />
<glyph unicode="L" horiz-adv-x="1001" d="M61 0v1434h521v-1031h393v-403h-914z" />
<glyph unicode="M" horiz-adv-x="1875" d="M61 0v1434h652l225 -816l225 816h652v-1434h-506v690l-142 -581h-458l-142 581v-690h-506z" />
<glyph unicode="N" horiz-adv-x="1474" d="M61 0v1434h527l311 -674v674h514v-1434h-526l-312 674v-674h-514z" />
<glyph unicode="O" horiz-adv-x="1617" d="M16 719q0 155 56 290.5t156.5 235.5t251 157.5t329.5 57.5t329.5 -57.5t251 -157.5t156.5 -235.5t56 -290.5q0 -157 -56 -293.5t-156.5 -237t-250.5 -158t-330 -57.5t-330 57.5t-250.5 158t-156.5 237t-56 293.5zM559 719q0 -143 65.5 -230.5t184.5 -87.5q118 0 184 87.5 t66 230.5q0 139 -66.5 226t-183.5 87q-118 0 -184 -87t-66 -226z" />
<glyph unicode="P" horiz-adv-x="1206" d="M61 0v1434h603q244 0 386 -135.5t142 -352.5q0 -218 -144.5 -356.5t-377.5 -138.5h-109v-451h-500zM561 827h47q45 0 77 29.5t32 79.5q0 47 -29.5 77.5t-75.5 30.5h-51v-217z" />
<glyph unicode="Q" horiz-adv-x="1624" d="M16 719q0 155 56 290.5t156.5 235.5t251 157.5t329.5 57.5t329.5 -57.5t251 -157.5t156.5 -235.5t56 -290.5q0 -195 -84 -354l124 -105l-288 -330l-150 129q-177 -86 -395 -86q-180 0 -330 57.5t-250.5 158t-156.5 237t-56 293.5zM559 719q0 -143 65.5 -230.5 t184.5 -87.5q118 0 184 87.5t66 230.5q0 139 -66.5 226t-183.5 87q-118 0 -184 -87t-66 -226z" />
<glyph unicode="R" horiz-adv-x="1294" d="M61 0v1434h637q245 0 389 -132t144 -333q0 -118 -65 -216t-162 -153l327 -600h-563l-203 463v-463h-504zM565 844h62q47 0 74.5 30t27.5 70t-27.5 70t-74.5 30h-62v-200z" />
<glyph unicode="S" horiz-adv-x="1181" d="M23 346l370 201q40 -68 92 -110t99 -42q20 0 30.5 9.5t10.5 25.5q0 26 -31 50.5t-80 47t-108.5 49.5t-119.5 65t-109 85t-80 119t-31 158q0 206 148 331t390 125q94 0 179 -23.5t145.5 -60t108.5 -82.5t76 -89.5t40 -82.5l-365 -209q-26 53 -68.5 92t-88.5 39 q-20 0 -31.5 -10.5t-11.5 -25.5q0 -27 31 -52.5t80.5 -50t109 -52t119.5 -66t109.5 -85t80.5 -115.5t31 -151q0 -212 -151.5 -337.5t-407.5 -125.5q-98 0 -185 25t-147.5 63.5t-110 90t-78.5 99t-46 95.5z" />
<glyph unicode="T" horiz-adv-x="1142" d="M31 1030v404h1083v-404h-283v-1030h-520v1030h-280z" />
<glyph unicode="U" horiz-adv-x="1445" d="M61 563v871h521v-883q0 -72 37.5 -111t101.5 -39q66 0 104.5 39t38.5 111v883h520v-871q0 -266 -174 -428t-489 -162q-314 0 -487 162t-173 428z" />
<glyph unicode="V" horiz-adv-x="1593" d="M14 1434h564l227 -840l227 840h547l-520 -1434h-524z" />
<glyph unicode="W" horiz-adv-x="2166" d="M14 1434h555l133 -789l177 789h409l176 -789l133 789h555l-372 -1434h-523l-174 752l-174 -752h-522z" />
<glyph unicode="X" horiz-adv-x="1523" d="M12 0l453 719l-453 715h600l158 -351l158 351h583l-452 -715l452 -719h-565l-192 387l-185 -387h-557z" />
<glyph unicode="Y" horiz-adv-x="1449" d="M16 1434h576l143 -408l144 408h555l-449 -822v-612h-520v612z" />
<glyph unicode="Z" horiz-adv-x="1277" d="M27 0v268l538 766h-524v400h1204v-267l-545 -764h551v-403h-1224z" />
<glyph unicode="[" horiz-adv-x="700" d="M41 -416v2110h623v-359h-162v-1392h162v-359h-623z" />
<glyph unicode="\" horiz-adv-x="997" d="M-12 1536h409l615 -1757h-410z" />
<glyph unicode="]" horiz-adv-x="700" d="M37 -57h162v1392h-162v359h622v-2110h-622v359z" />
<glyph unicode="^" horiz-adv-x="1230" d="M41 643l385 791h377l385 -791h-432l-142 320l-141 -320h-432z" />
<glyph unicode="_" horiz-adv-x="1296" d="M12 -45h1272v-324h-1272v324z" />
<glyph unicode="`" horiz-adv-x="999" d="M186 1493h484l143 -319h-383z" />
<glyph unicode="a" horiz-adv-x="1138" d="M27 328q0 160 120 250t302 90q101 0 188 -37v37q0 36 -37 56.5t-104 20.5q-137 0 -271 -67l-151 299q228 141 504 141q114 0 203.5 -25t147.5 -67.5t95.5 -103.5t53.5 -129t16 -148v-645h-400l-20 72q-102 -99 -264 -99q-80 0 -147.5 21t-121 63t-84 111.5t-30.5 159.5z M475 360q0 -31 26.5 -49t65.5 -18q36 0 62 18t26 49q0 30 -26 49t-64 19t-64 -19t-26 -49z" />
<glyph unicode="b" horiz-adv-x="1310" d="M51 0v1479h467v-445q37 32 107 57t141 25q161 0 276.5 -73t173.5 -200.5t58 -295.5q0 -258 -133.5 -416t-374.5 -158q-82 0 -152 25t-116 65v-63h-447zM506 547q0 -89 39.5 -146t111.5 -57q69 0 109.5 54t40.5 149q0 89 -41 146t-109 57q-69 0 -110 -54t-41 -149z" />
<glyph unicode="c" horiz-adv-x="1021" d="M27 545q0 164 80.5 295.5t221.5 204.5t316 73q96 0 188 -27.5t158 -72.5l-104 -350q-87 75 -191 75q-92 0 -148 -57t-56 -141t57 -140.5t149 -56.5q121 0 193 80l106 -354q-67 -45 -156.5 -73t-185.5 -28q-175 0 -318.5 72.5t-226.5 204t-83 295.5z" />
<glyph unicode="d" horiz-adv-x="1300" d="M27 547q0 168 58 295.5t173.5 200.5t276.5 73q70 0 140 -25t107 -57v445h467v-1479h-446v63q-46 -40 -116 -65t-152 -25q-241 0 -374.5 158t-133.5 416zM494 547q0 -95 40 -149t109 -54q72 0 112 57t40 146q0 95 -41 149t-111 54q-68 0 -108.5 -57t-40.5 -146z" />
<glyph unicode="e" horiz-adv-x="1214" d="M29 559q0 115 42.5 217.5t117.5 178t184 119.5t235 44q274 0 429 -154.5t155 -408.5q0 -33 -1.5 -62t-2.5 -42l-2 -13h-694q12 -51 59.5 -82.5t112.5 -31.5q60 0 108.5 22t77.5 55l315 -172q-199 -256 -528 -256q-141 0 -257.5 47t-192.5 127.5t-117 186.5t-41 225z M508 672h223q-3 46 -34 76t-79 30q-45 0 -75 -30.5t-35 -75.5z" />
<glyph unicode="f" horiz-adv-x="770" d="M18 750v340h111q0 102 40 182t108.5 128t153.5 72.5t181 24.5q97 0 154 -14v-344q-50 8 -86 8q-40 0 -65 -17t-25 -40h155v-340h-151v-750h-467v750h-109z" />
<glyph unicode="g" horiz-adv-x="1302" d="M27 551q0 249 144.5 407t365.5 158q83 0 153 -23.5t115 -62.5v60h446v-938q0 -114 -32.5 -206t-89 -154.5t-135 -104.5t-167.5 -61t-190 -19q-118 0 -250.5 31.5t-218.5 74.5l125 318q48 -21 135.5 -43.5t175.5 -22.5q47 0 86 9.5t66.5 32t27.5 54.5v27q-96 -74 -247 -74 q-222 0 -366 145.5t-144 391.5zM494 551q0 -93 40.5 -146t112.5 -53q69 0 108.5 57t39.5 142q0 91 -40.5 145t-107.5 54q-70 0 -111.5 -56t-41.5 -143z" />
<glyph unicode="h" horiz-adv-x="1196" d="M51 0v1479h467v-482q39 46 108.5 82.5t149.5 36.5q179 0 274 -112.5t95 -307.5v-696h-467v643q0 46 -22 71t-58 25q-38 0 -59 -28.5t-21 -67.5v-643h-467z" />
<glyph unicode="i" d="M31 1346q0 100 69.5 165.5t184.5 65.5t184.5 -65.5t69.5 -165.5q0 -99 -69.5 -164.5t-184.5 -65.5t-184.5 65.5t-69.5 164.5zM51 0v1090h467v-1090h-467z" />
<glyph unicode="j" d="M-98 -49q30 -4 61 -4q40 0 64 20.5t24 59.5v1063h467v-1076q0 -215 -126 -311t-361 -96q-26 0 -69.5 5.5t-59.5 10.5v328zM31 1346q0 100 69.5 165.5t184.5 65.5t184.5 -65.5t69.5 -165.5q0 -99 -69.5 -164.5t-184.5 -65.5t-184.5 65.5t-69.5 164.5z" />
<glyph unicode="k" horiz-adv-x="1245" d="M51 0v1479h467v-762l178 373h512l-274 -500l293 -590h-535l-174 420v-420h-467z" />
<glyph unicode="l" d="M51 0v1479h467v-1479h-467z" />
<glyph unicode="m" horiz-adv-x="1759" d="M51 0v1090h447v-84q44 46 115.5 78t144.5 32q170 0 258 -110q123 110 284 110q129 0 223 -58.5t139.5 -152t45.5 -209.5v-696h-467v666q0 35 -18 54t-47 19q-27 0 -45.5 -19.5t-18.5 -53.5v-666h-461v666q0 35 -19 54t-48 19q-26 0 -46 -19.5t-20 -53.5v-666h-467z" />
<glyph unicode="n" horiz-adv-x="1187" d="M51 0v1090h447v-91q43 48 113 82.5t155 34.5q177 0 274 -113t97 -307v-696h-467v643q0 47 -20 71.5t-56 24.5q-37 0 -56.5 -28t-19.5 -68v-643h-467z" />
<glyph unicode="o" horiz-adv-x="1286" d="M27 547q0 248 171.5 409.5t444.5 161.5t445 -161.5t172 -409.5q0 -163 -77 -293.5t-218.5 -205.5t-321.5 -75q-135 0 -250.5 44t-195.5 120t-125 182t-45 228zM498 547q0 -92 38.5 -148.5t106.5 -56.5t106.5 56.5t38.5 148.5t-38.5 147.5t-106.5 55.5t-106.5 -55.5 t-38.5 -147.5z" />
<glyph unicode="p" horiz-adv-x="1300" d="M51 -375v1465h447v-64q46 40 116 65t152 25q241 0 374.5 -157.5t133.5 -415.5q0 -168 -58 -296t-173.5 -201t-276.5 -73q-71 0 -141 25t-107 57v-430h-467zM506 543q0 -95 41 -149t110 -54q68 0 109 57t41 146q0 95 -40.5 148.5t-109.5 53.5q-72 0 -111.5 -56.5 t-39.5 -145.5z" />
<glyph unicode="q" horiz-adv-x="1300" d="M27 543q0 258 133.5 415.5t374.5 157.5q82 0 152 -25t116 -65v64h446v-1465h-467v430q-37 -32 -107 -57t-140 -25q-161 0 -276.5 73t-173.5 201t-58 296zM494 543q0 -89 40.5 -146t108.5 -57q70 0 111 54t41 149q0 88 -40 145t-112 57q-69 0 -109 -53.5t-40 -148.5z" />
<glyph unicode="r" horiz-adv-x="817" d="M51 0v1090h457v-119q36 54 108.5 99.5t161.5 45.5v-422q-43 15 -82 15q-77 0 -127.5 -54t-50.5 -147v-508h-467z" />
<glyph unicode="s" horiz-adv-x="1003" d="M29 160l186 264q53 -38 137 -71.5t133 -33.5q23 0 34 7t11 16q0 14 -14.5 21.5t-54.5 19.5q-49 15 -75 23.5t-75 28.5t-77.5 38t-65.5 47.5t-57.5 62t-35 78t-14.5 97.5q0 160 133 260t334 100q261 0 437 -172l-222 -250q-39 35 -93 58.5t-97 23.5q-23 0 -34 -8t-11 -18 q0 -17 19.5 -26.5t84.5 -29.5q40 -12 67 -21t69 -26t70.5 -34.5t62 -45t53.5 -58t33.5 -73t13.5 -90.5q0 -180 -130.5 -277.5t-346.5 -97.5q-144 0 -269.5 56t-205.5 131z" />
<glyph unicode="t" horiz-adv-x="825" d="M45 750v340h111v227h454v-227h170v-340h-170v-322q0 -39 30.5 -55.5t72.5 -16.5l73 6v-358q-74 -20 -180 -20q-226 0 -344.5 107.5t-118.5 324.5v334h-98z" />
<glyph unicode="u" horiz-adv-x="1187" d="M51 377v713h467v-644q0 -47 20 -71.5t56 -24.5q37 0 56.5 28t19.5 68v644h467v-1090h-447v84q-36 -43 -106 -77t-146 -34q-186 0 -286.5 106t-100.5 298z" />
<glyph unicode="v" horiz-adv-x="1275" d="M14 1090h500l127 -553l127 553h487l-354 -1090h-520z" />
<glyph unicode="w" horiz-adv-x="1789" d="M16 1090h508l70 -537l94 537h414l94 -541l72 541h508l-291 -1090h-502l-90 401l-84 -401h-504z" />
<glyph unicode="x" horiz-adv-x="1228" d="M-4 0l358 553l-354 537h512l102 -244l103 244h512l-355 -537l359 -553h-492l-127 256l-127 -256h-491z" />
<glyph unicode="y" horiz-adv-x="1277" d="M14 1090h500l127 -515l137 515h486l-549 -1457h-441l148 422z" />
<glyph unicode="z" horiz-adv-x="999" d="M29 0v240l348 499h-342v351h923v-240l-354 -498h357v-352h-932z" />
<glyph unicode="{" horiz-adv-x="870" d="M41 442v396q71 0 109 33.5t38 132.5v184q0 164 83 279.5t227 171t336 55.5v-359q-183 0 -183 -147v-277q0 -101 -56.5 -172.5t-135.5 -99.5q79 -28 135.5 -99t56.5 -171v-281q0 -145 183 -145v-359q-192 0 -336 55.5t-227 171t-83 279.5v186q0 99 -38 132.5t-109 33.5z " />
<glyph unicode="|" horiz-adv-x="645" d="M98 -537v2302h447v-2302h-447z" />
<glyph unicode="}" horiz-adv-x="870" d="M37 -57q182 0 182 145v281q0 100 57 171t136 99q-79 28 -136 99.5t-57 172.5v277q0 72 -43 109.5t-139 37.5v359q293 0 469 -130.5t176 -375.5v-184q0 -99 38 -132.5t109 -33.5v-396q-71 0 -109 -33.5t-38 -132.5v-186q0 -245 -176 -375.5t-469 -130.5v359z" />
<glyph unicode="~" horiz-adv-x="1159" d="M25 393q0 206 99.5 328.5t270.5 122.5q62 0 156.5 -36t136.5 -36q30 0 50 19t20 55h377q0 -206 -100 -328.5t-271 -122.5q-62 0 -156.5 36t-136.5 36q-30 0 -50 -19t-20 -55h-376z" />
<glyph unicode="&#xa1;" horiz-adv-x="671" d="M78 920q0 97 72 166t184 69q113 0 185.5 -68.5t72.5 -166.5q0 -102 -72 -171t-186 -69q-112 0 -184 69.5t-72 170.5zM84 -305l35 956h434l35 -956h-504z" />
<glyph unicode="&#xa2;" horiz-adv-x="1021" d="M27 688q0 213 131 365t344 194v187h303v-193q107 -27 186 -80l-114 -354q-83 80 -187 80q-87 0 -142.5 -57.5t-55.5 -141.5q0 -83 56 -141t144 -58q119 0 191 80l114 -354q-84 -58 -192 -84v-131h-303v129q-212 45 -343.5 196.5t-131.5 362.5z" />
<glyph unicode="&#xa3;" horiz-adv-x="1230" d="M41 0v371h102v184h-94v315h94v134q0 204 140 330t387 126q91 0 168.5 -24t128.5 -59.5t91 -84t61 -89.5t34 -83l-395 -141q-27 90 -84 90q-27 0 -44.5 -20t-17.5 -56v-123h291v-315h-291v-184h578v-371h-1149z" />
<glyph unicode="&#xa5;" horiz-adv-x="1449" d="M16 1434h576l143 -408l144 408h555l-295 -539h112v-274h-266v-70h266v-275h-266v-276h-520v276h-264v275h264v70h-264v274h110z" />
<glyph unicode="&#xa7;" horiz-adv-x="1130" d="M33 -113l381 164q26 -60 61.5 -101.5t77.5 -41.5q19 0 32 11.5t13 33.5q0 45 -80 92l-235 141q-121 72 -181.5 156t-60.5 195q0 78 39.5 145t118.5 111q-68 57 -107 134t-39 163q0 184 135 297.5t363 113.5q96 0 182.5 -27t145.5 -67t106 -91t73 -95t38 -82l-381 -164 q-25 60 -61.5 101.5t-78.5 41.5q-19 0 -32 -11.5t-13 -33.5q0 -45 80 -92l236 -141q121 -72 181 -155.5t60 -195.5q0 -78 -39 -145t-118 -111q68 -57 106.5 -133.5t38.5 -162.5q0 -184 -134.5 -298t-362.5 -114q-96 0 -182.5 27t-145.5 67t-106 91t-73 95t-38 82zM475 545 q0 -25 27 -43l121 -60q34 6 34 39q0 26 -26 43l-121 60q-17 -3 -26 -14t-9 -25z" />
<glyph unicode="&#xa8;" horiz-adv-x="999" d="M84 1339q0 75 50.5 126t139.5 51t140 -51t51 -126q0 -76 -50.5 -125t-140.5 -49q-89 0 -139.5 49t-50.5 125zM532 1339q0 75 51 126t140 51t139.5 -51t50.5 -126q0 -76 -50.5 -125t-139.5 -49q-90 0 -140.5 49t-50.5 125z" />
<glyph unicode="&#xa9;" horiz-adv-x="1628" d="M45 715q0 158 58 296.5t159 238t245 157t308 57.5q217 0 392.5 -98t274.5 -269.5t99 -381.5q0 -155 -58.5 -292.5t-159.5 -236.5t-244.5 -157t-307.5 -58q-163 0 -306 58t-243.5 157t-158.5 236.5t-58 292.5zM313 723q0 -226 137.5 -370t360.5 -144q224 0 363 143.5 t139 368.5q0 220 -138.5 363t-359.5 143q-225 0 -363.5 -142.5t-138.5 -361.5zM430 721q0 167 110.5 280t278.5 113q201 0 316 -168l-213 -155q-36 61 -97 61q-44 0 -72 -36.5t-28 -96.5q0 -59 28.5 -95t71.5 -36q61 0 97 61l213 -157q-118 -166 -316 -166q-167 0 -278 114 t-111 281z" />
<glyph unicode="&#xaa;" horiz-adv-x="864" d="M35 879q0 117 89 181t226 64q72 0 137 -26v24q0 27 -24 44.5t-70 17.5q-108 0 -205 -51l-118 221q70 50 170 80t206 30q105 0 181 -27.5t118.5 -77t62 -110t19.5 -135.5v-479h-299l-12 53q-77 -74 -197 -74q-124 0 -204 67t-80 198zM373 903q0 -23 18.5 -35t46.5 -12 q24 0 42 12t18 35q0 22 -18.5 34.5t-43.5 12.5q-26 0 -44.5 -12.5t-18.5 -34.5z" />
<glyph unicode="&#xab;" horiz-adv-x="1210" d="M70 606l227 387h387l-225 -387l225 -387h-387zM526 606l228 387h387l-226 -387l226 -387h-387z" />
<glyph unicode="&#xad;" horiz-adv-x="829" d="M70 459v352h688v-352h-688z" />
<glyph unicode="&#xae;" horiz-adv-x="944" d="M27 1090q0 184 123.5 307t314.5 123q203 0 326.5 -121.5t123.5 -306.5q0 -184 -123.5 -308.5t-322.5 -124.5q-198 0 -320 122.5t-122 308.5zM160 1090q0 -134 85 -222t224 -88q144 0 227.5 87t83.5 225q0 137 -84.5 221t-230.5 84q-137 0 -221 -86t-84 -221zM287 874v443 h217q75 0 116.5 -41t41.5 -107q0 -98 -70 -127l82 -168h-150l-65 142h-29v-142h-143zM430 1126h47q16 0 26.5 10t10.5 27t-10.5 27t-26.5 10h-47v-74z" />
<glyph unicode="&#xaf;" horiz-adv-x="919" d="M123 1186v299h674v-299h-674z" />
<glyph unicode="&#xb0;" horiz-adv-x="833" d="M29 1083q0 152 108.5 256.5t278.5 104.5t278.5 -104.5t108.5 -256.5t-108.5 -256t-278.5 -104t-278.5 104t-108.5 256zM358 1083q0 -33 15 -55t43 -22t42.5 22t14.5 55t-14.5 55.5t-42.5 22.5t-43 -22.5t-15 -55.5z" />
<glyph unicode="&#xb2;" horiz-adv-x="788" d="M29 1186q9 32 23.5 64t45 69.5t69.5 65t100.5 46.5t135.5 19q95 0 172.5 -28t127 -89t49.5 -147q0 -48 -20 -91t-50.5 -72.5t-66 -56.5t-66 -45.5t-50.5 -36.5t-20 -32h281v-238h-719v103q0 62 37.5 120.5t90.5 102t106 81.5t90.5 72.5t37.5 61.5q0 15 -9.5 26t-28.5 11 q-48 0 -70 -82z" />
<glyph unicode="&#xb3;" horiz-adv-x="778" d="M29 860l247 47q19 -51 76 -51q25 0 41.5 13.5t16.5 35.5q0 19 -16.5 35t-49.5 16h-121v150l101 90h-254v238h647v-191l-146 -127q82 -24 129.5 -88t47.5 -143q0 -141 -101 -214t-258 -73q-88 0 -157 24.5t-109.5 65t-63.5 83.5t-30 89z" />
<glyph unicode="&#xb4;" horiz-adv-x="999" d="M186 1174l144 319h483l-244 -319h-383z" />
<glyph unicode="&#xb6;" horiz-adv-x="1216" d="M33 1040q0 170 121 282t307 112h319v-1526h-370v735q-167 12 -272 122.5t-105 274.5zM807 -92v1526h373v-1526h-373z" />
<glyph unicode="&#xb7;" horiz-adv-x="548" d="M18 639q0 101 72 170.5t184 69.5q114 0 186 -69t72 -171q0 -98 -72.5 -167t-185.5 -69q-112 0 -184 69t-72 167z" />
<glyph unicode="&#xb8;" horiz-adv-x="919" d="M207 -449l51 197q35 -14 74 -14q24 0 38.5 11t14.5 28t-16.5 28t-44.5 11q-16 0 -31 -3t-22 -5l-7 -3l41 262h268l-22 -131q72 -14 116 -64t44 -122q0 -108 -81 -173t-222 -65q-94 0 -201 43z" />
<glyph unicode="&#xb9;" horiz-adv-x="657" d="M61 1364l222 70h286v-820h-354v506l-78 -24z" />
<glyph unicode="&#xba;" horiz-adv-x="997" d="M35 1038q0 184 130.5 305t332.5 121q203 0 334 -121t131 -305q0 -183 -131 -303.5t-334 -120.5q-201 0 -332 121t-131 303zM383 1038q0 -66 32 -108.5t83 -42.5q52 0 84 42t32 109q0 68 -32 111t-84 43q-51 0 -83 -43t-32 -111z" />
<glyph unicode="&#xbb;" horiz-adv-x="1210" d="M70 219l225 387l-225 387h387l227 -387l-227 -387h-387zM526 219l226 387l-226 387h387l228 -387l-228 -387h-387z" />
<glyph unicode="&#xbc;" horiz-adv-x="1816" d="M31 1364l221 70h287v-820h-355v506l-78 -24zM283 -84l753 1602h408l-756 -1602h-405zM977 127v221l344 471h373v-454h88v-238h-88v-127h-344v127h-373zM1235 365h115v159z" />
<glyph unicode="&#xbd;" horiz-adv-x="1845" d="M31 1364l221 70h287v-820h-355v506l-78 -24zM262 -84l754 1602h407l-755 -1602h-406zM1051 571q9 32 23.5 64t45 69.5t69.5 65.5t100.5 47t135.5 19q147 0 248 -69t101 -196q0 -57 -28 -106t-68 -82t-80.5 -59t-68.5 -48t-28 -38h281v-238h-719v102q0 52 27 102.5t67 88 t87 75t87 65t67 56.5t27 52q0 15 -10 26t-29 11q-47 0 -69 -82z" />
<glyph unicode="&#xbe;" horiz-adv-x="1892" d="M29 860l247 47q19 -51 76 -51q25 0 41.5 13.5t16.5 35.5q0 19 -16.5 35t-49.5 16h-121v150l101 90h-254v238h647v-191l-146 -127q82 -24 129.5 -88t47.5 -143q0 -141 -101 -214t-258 -73q-88 0 -157 24.5t-109.5 65t-63.5 83.5t-30 89zM360 -84l754 1602h408l-756 -1602 h-406zM1055 127v221l344 471h373v-454h88v-238h-88v-127h-345v127h-372zM1313 365h114v159z" />
<glyph unicode="&#xbf;" horiz-adv-x="1036" d="M14 84q0 63 23.5 119.5t59 95t76.5 77t76.5 69t59 68t23.5 75.5v67h452v-92q0 -58 -22 -112.5t-55 -93t-71.5 -76t-71.5 -65t-55 -57.5t-22 -55q0 -28 16.5 -46.5t47.5 -18.5q37 0 65 31.5t41 79.5l363 -158q-16 -43 -36.5 -81t-61.5 -84t-92.5 -78.5t-131.5 -54.5 t-176 -22q-221 0 -364.5 114t-143.5 298zM303 924q0 98 72.5 166.5t185.5 68.5q112 0 184 -69t72 -166q0 -101 -72 -170.5t-184 -69.5q-114 0 -186 69t-72 171z" />
<glyph unicode="&#xc0;" horiz-adv-x="1523" d="M10 0l496 1434h512l495 -1434h-532l-63 219h-336l-64 -219h-508zM373 1837h483l143 -319h-383zM668 584h161l-79 295z" />
<glyph unicode="&#xc1;" horiz-adv-x="1523" d="M10 0l496 1434h512l495 -1434h-532l-63 219h-336l-64 -219h-508zM516 1518l143 319h484l-244 -319h-383zM668 584h161l-79 295z" />
<glyph unicode="&#xc2;" horiz-adv-x="1523" d="M10 0l496 1434h512l495 -1434h-532l-63 219h-336l-64 -219h-508zM322 1518l217 319h446l217 -319h-391l-49 79l-49 -79h-391zM668 584h161l-79 295z" />
<glyph unicode="&#xc3;" horiz-adv-x="1523" d="M10 0l496 1434h512l495 -1434h-532l-63 219h-336l-64 -219h-508zM326 1505q0 161 73 255.5t207 94.5q52 0 128 -29.5t102 -29.5q24 0 38.5 16.5t14.5 45.5h309q0 -161 -73 -256t-207 -95q-52 0 -128 30t-102 30q-24 0 -38.5 -16.5t-14.5 -45.5h-309zM668 584h161l-79 295 z" />
<glyph unicode="&#xc4;" horiz-adv-x="1523" d="M10 0l496 1434h512l495 -1434h-532l-63 219h-336l-64 -219h-508zM348 1683q0 75 51 126t140 51t139.5 -51t50.5 -126q0 -76 -50.5 -125t-139.5 -49q-90 0 -140.5 49t-50.5 125zM668 584h161l-79 295zM797 1683q0 75 50.5 126t139.5 51t140 -51t51 -126q0 -76 -50.5 -125 t-140.5 -49q-89 0 -139.5 49t-50.5 125z" />
<glyph unicode="&#xc5;" horiz-adv-x="1523" d="M10 0l496 1434h512l495 -1434h-532l-63 219h-336l-64 -219h-508zM504 1726q0 99 76 163.5t184 64.5q111 0 186.5 -63.5t75.5 -161.5q0 -100 -75.5 -164t-186.5 -64q-108 0 -184 63.5t-76 161.5zM668 584h161l-79 295zM698 1729q0 -31 19.5 -51.5t48.5 -20.5t48.5 20.5 t19.5 51.5q0 29 -19.5 49t-48.5 20t-48.5 -20t-19.5 -49z" />
<glyph unicode="&#xc6;" horiz-adv-x="1880" d="M-27 0l783 1434h1063v-404h-377v-119h336v-379h-336v-129h377v-403h-895v219h-328l-104 -219h-519zM768 584h156v321z" />
<glyph unicode="&#xc7;" horiz-adv-x="1312" d="M16 719q0 154 55.5 289.5t154.5 235.5t245 158t317 58q279 0 482 -141l-156 -410q-114 111 -268 111q-124 0 -205.5 -84.5t-81.5 -216.5q0 -137 82 -221t205 -84q153 0 278 112l154 -411q-92 -65 -200 -101.5t-253 -40.5l-6 -41q72 -14 116 -64t44 -122q0 -108 -81 -173 t-222 -65q-94 0 -201 43l51 197q35 -14 74 -14q24 0 38.5 11t14.5 28t-16.5 28t-44.5 11q-16 0 -31 -3t-22 -5l-7 -3l31 199q-249 62 -398 254t-149 465z" />
<glyph unicode="&#xc8;" horiz-adv-x="1017" d="M61 0v1434h895v-404h-376v-119h335v-379h-335v-129h376v-403h-895zM139 1837h484l143 -319h-383z" />
<glyph unicode="&#xc9;" horiz-adv-x="1017" d="M61 0v1434h895v-404h-376v-119h335v-379h-335v-129h376v-403h-895zM276 1487l144 319h483l-244 -319h-383z" />
<glyph unicode="&#xca;" horiz-adv-x="1017" d="M61 0v1434h895v-404h-376v-119h335v-379h-335v-129h376v-403h-895zM68 1518l217 319h446l217 -319h-391l-49 79l-49 -79h-391z" />
<glyph unicode="&#xcb;" horiz-adv-x="1017" d="M61 0v1434h895v-404h-376v-119h335v-379h-335v-129h376v-403h-895zM94 1683q0 75 51 126t140 51t139.5 -51t50.5 -126q0 -76 -50.5 -125t-139.5 -49q-90 0 -140.5 49t-50.5 125zM543 1683q0 75 50.5 126t139.5 51t140 -51t51 -126q0 -76 -50.5 -125t-140.5 -49 q-89 0 -139.5 49t-50.5 125z" />
<glyph unicode="&#xcc;" horiz-adv-x="643" d="M-39 1837h483l144 -319h-383zM61 0v1434h521v-1434h-521z" />
<glyph unicode="&#xcd;" horiz-adv-x="643" d="M61 0v1434h521v-1434h-521zM84 1518l143 319h484l-244 -319h-383z" />
<glyph unicode="&#xce;" horiz-adv-x="643" d="M-119 1518l217 319h447l217 -319h-391l-49 79l-50 -79h-391zM61 0v1434h521v-1434h-521z" />
<glyph unicode="&#xcf;" horiz-adv-x="643" d="M-86 1683q0 75 50.5 126t139.5 51t140 -51t51 -126q0 -76 -50.5 -125t-140.5 -49q-89 0 -139.5 49t-50.5 125zM61 0v1434h521v-1434h-521zM362 1683q0 75 51 126t140 51t139.5 -51t50.5 -126q0 -76 -50.5 -125t-139.5 -49q-90 0 -140.5 49t-50.5 125z" />
<glyph unicode="&#xd0;" horiz-adv-x="1478" d="M61 539v358h89v537h512q238 0 418.5 -84.5t281 -247t100.5 -383.5q0 -218 -99.5 -381.5t-280.5 -250.5t-420 -87h-512v539h-89zM653 410h31q116 0 182 78t66 231q0 152 -66 228.5t-182 76.5h-31v-127h125v-358h-125v-129z" />
<glyph unicode="&#xd1;" horiz-adv-x="1474" d="M61 0v1434h527l311 -674v674h514v-1434h-526l-312 674v-674h-514zM332 1483q0 161 73 255.5t207 94.5q52 0 128 -29.5t102 -29.5q24 0 38.5 16t14.5 45h309q0 -161 -73 -255.5t-207 -94.5q-52 0 -128 29.5t-102 29.5q-24 0 -38.5 -16t-14.5 -45h-309z" />
<glyph unicode="&#xd2;" horiz-adv-x="1617" d="M16 719q0 155 56 290.5t156.5 235.5t251 157.5t329.5 57.5t329.5 -57.5t251 -157.5t156.5 -235.5t56 -290.5q0 -157 -56 -293.5t-156.5 -237t-250.5 -158t-330 -57.5t-330 57.5t-250.5 158t-156.5 237t-56 293.5zM426 1837h483l144 -319h-383zM559 719 q0 -143 65.5 -230.5t184.5 -87.5q118 0 184 87.5t66 230.5q0 139 -66.5 226t-183.5 87q-118 0 -184 -87t-66 -226z" />
<glyph unicode="&#xd3;" horiz-adv-x="1617" d="M16 719q0 155 56 290.5t156.5 235.5t251 157.5t329.5 57.5t329.5 -57.5t251 -157.5t156.5 -235.5t56 -290.5q0 -157 -56 -293.5t-156.5 -237t-250.5 -158t-330 -57.5t-330 57.5t-250.5 158t-156.5 237t-56 293.5zM559 719q0 -143 65.5 -230.5t184.5 -87.5q118 0 184 87.5 t66 230.5q0 139 -66.5 226t-183.5 87q-118 0 -184 -87t-66 -226zM598 1518l143 319h484l-244 -319h-383z" />
<glyph unicode="&#xd4;" horiz-adv-x="1617" d="M16 719q0 155 56 290.5t156.5 235.5t251 157.5t329.5 57.5t329.5 -57.5t251 -157.5t156.5 -235.5t56 -290.5q0 -157 -56 -293.5t-156.5 -237t-250.5 -158t-330 -57.5t-330 57.5t-250.5 158t-156.5 237t-56 293.5zM381 1518l217 319h446l218 -319h-392l-49 79l-49 -79 h-391zM559 719q0 -143 65.5 -230.5t184.5 -87.5q118 0 184 87.5t66 230.5q0 139 -66.5 226t-183.5 87q-118 0 -184 -87t-66 -226z" />
<glyph unicode="&#xd5;" horiz-adv-x="1617" d="M16 719q0 155 56 290.5t156.5 235.5t251 157.5t329.5 57.5t329.5 -57.5t251 -157.5t156.5 -235.5t56 -290.5q0 -157 -56 -293.5t-156.5 -237t-250.5 -158t-330 -57.5t-330 57.5t-250.5 158t-156.5 237t-56 293.5zM371 1505q0 161 73 255.5t207 94.5q52 0 128 -29.5 t102 -29.5q24 0 38.5 16.5t14.5 45.5h309q0 -161 -73 -256t-207 -95q-52 0 -128 30t-102 30q-24 0 -38.5 -16.5t-14.5 -45.5h-309zM559 719q0 -143 65.5 -230.5t184.5 -87.5q118 0 184 87.5t66 230.5q0 139 -66.5 226t-183.5 87q-118 0 -184 -87t-66 -226z" />
<glyph unicode="&#xd6;" horiz-adv-x="1617" d="M16 719q0 155 56 290.5t156.5 235.5t251 157.5t329.5 57.5t329.5 -57.5t251 -157.5t156.5 -235.5t56 -290.5q0 -157 -56 -293.5t-156.5 -237t-250.5 -158t-330 -57.5t-330 57.5t-250.5 158t-156.5 237t-56 293.5zM395 1667q0 75 51 125.5t140 50.5t139.5 -50.5 t50.5 -125.5q0 -76 -50.5 -125t-139.5 -49q-90 0 -140.5 49t-50.5 125zM559 719q0 -143 65.5 -230.5t184.5 -87.5q118 0 184 87.5t66 230.5q0 139 -66.5 226t-183.5 87q-118 0 -184 -87t-66 -226zM844 1667q0 75 50.5 125.5t139.5 50.5t140 -50.5t51 -125.5 q0 -76 -50.5 -125t-140.5 -49q-89 0 -139.5 49t-50.5 125z" />
<glyph unicode="&#xd7;" horiz-adv-x="1110" d="M27 354l278 281l-278 280l258 252l270 -278l270 278l258 -252l-278 -280l278 -281l-258 -252l-270 279l-270 -279z" />
<glyph unicode="&#xd8;" horiz-adv-x="1617" d="M16 719q0 155 56 290.5t156.5 235.5t251 157.5t329.5 57.5q193 0 352 -67l99 118l239 -194l-84 -100q187 -202 187 -498q0 -157 -56 -293.5t-156.5 -237t-250.5 -158t-330 -57.5q-194 0 -358 68l-97 -119l-237 195l82 100q-89 98 -136 227t-47 275zM559 719q0 -42 2 -60 l301 367q-24 6 -53 6q-118 0 -184 -87t-66 -226zM752 408q31 -7 57 -7q118 0 184 87.5t66 230.5q0 21 -4 57z" />
<glyph unicode="&#xd9;" horiz-adv-x="1445" d="M61 563v871h521v-883q0 -72 37.5 -111t101.5 -39q66 0 104.5 39t38.5 111v883h520v-871q0 -266 -174 -428t-489 -162q-314 0 -487 162t-173 428zM340 1837h483l144 -319h-383z" />
<glyph unicode="&#xda;" horiz-adv-x="1445" d="M61 563v871h521v-883q0 -72 37.5 -111t101.5 -39q66 0 104.5 39t38.5 111v883h520v-871q0 -266 -174 -428t-489 -162q-314 0 -487 162t-173 428zM479 1518l144 319h483l-244 -319h-383z" />
<glyph unicode="&#xdb;" horiz-adv-x="1445" d="M61 563v871h521v-883q0 -72 37.5 -111t101.5 -39q66 0 104.5 39t38.5 111v883h520v-871q0 -266 -174 -428t-489 -162q-314 0 -487 162t-173 428zM285 1518l217 319h446l217 -319h-391l-49 79l-49 -79h-391z" />
<glyph unicode="&#xdc;" horiz-adv-x="1445" d="M61 563v871h521v-883q0 -72 37.5 -111t101.5 -39q66 0 104.5 39t38.5 111v883h520v-871q0 -266 -174 -428t-489 -162q-314 0 -487 162t-173 428zM317 1667q0 75 51 125.5t140 50.5t139.5 -50.5t50.5 -125.5q0 -76 -50.5 -125t-139.5 -49q-90 0 -140.5 49t-50.5 125z M766 1667q0 75 50.5 125.5t139.5 50.5t140 -50.5t51 -125.5q0 -76 -50.5 -125t-140.5 -49q-89 0 -139.5 49t-50.5 125z" />
<glyph unicode="&#xdd;" horiz-adv-x="1449" d="M16 1434h576l143 -408l144 408h555l-449 -822v-612h-520v612zM502 1487l143 319h483l-243 -319h-383z" />
<glyph unicode="&#xde;" horiz-adv-x="1206" d="M61 0v1434h521v-222h82q245 0 386.5 -135.5t141.5 -351.5q0 -218 -144 -355t-378 -137h-86v-233h-523zM584 625h34q37 0 65 29t28 73q0 40 -27 68t-61 28h-39v-198z" />
<glyph unicode="&#xdf;" horiz-adv-x="1218" d="M51 0v1104q0 106 41.5 184.5t113.5 122.5t158 65t187 21q252 0 398.5 -103t146.5 -278q0 -152 -117 -229q92 -58 152.5 -152.5t60.5 -222.5q0 -115 -37.5 -207.5t-112.5 -161t-195.5 -106t-279.5 -37.5v342q71 0 113.5 49.5t42.5 120.5q0 68 -43 119t-113 51v326 q92 0 92 75q0 29 -19.5 47.5t-53.5 18.5q-35 0 -51.5 -21t-16.5 -49v-1079h-467z" />
<glyph unicode="&#xe0;" horiz-adv-x="1138" d="M27 328q0 160 120 250t302 90q101 0 188 -37v37q0 36 -37 56.5t-104 20.5q-137 0 -271 -67l-151 299q228 141 504 141q114 0 203.5 -25t147.5 -67.5t95.5 -103.5t53.5 -129t16 -148v-645h-400l-20 72q-102 -99 -264 -99q-80 0 -147.5 21t-121 63t-84 111.5t-30.5 159.5z M193 1493h483l143 -319h-383zM475 360q0 -31 26.5 -49t65.5 -18q36 0 62 18t26 49q0 30 -26 49t-64 19t-64 -19t-26 -49z" />
<glyph unicode="&#xe1;" horiz-adv-x="1138" d="M27 328q0 160 120 250t302 90q101 0 188 -37v37q0 36 -37 56.5t-104 20.5q-137 0 -271 -67l-151 299q228 141 504 141q114 0 203.5 -25t147.5 -67.5t95.5 -103.5t53.5 -129t16 -148v-645h-400l-20 72q-102 -99 -264 -99q-80 0 -147.5 21t-121 63t-84 111.5t-30.5 159.5z M338 1174l143 319h484l-244 -319h-383zM475 360q0 -31 26.5 -49t65.5 -18q36 0 62 18t26 49q0 30 -26 49t-64 19t-64 -19t-26 -49z" />
<glyph unicode="&#xe2;" horiz-adv-x="1138" d="M27 328q0 160 120 250t302 90q101 0 188 -37v37q0 36 -37 56.5t-104 20.5q-137 0 -271 -67l-151 299q228 141 504 141q114 0 203.5 -25t147.5 -67.5t95.5 -103.5t53.5 -129t16 -148v-645h-400l-20 72q-102 -99 -264 -99q-80 0 -147.5 21t-121 63t-84 111.5t-30.5 159.5z M143 1174l217 319h447l217 -319h-391l-49 79l-49 -79h-392zM475 360q0 -31 26.5 -49t65.5 -18q36 0 62 18t26 49q0 30 -26 49t-64 19t-64 -19t-26 -49z" />
<glyph unicode="&#xe3;" horiz-adv-x="1138" d="M27 328q0 160 120 250t302 90q101 0 188 -37v37q0 36 -37 56.5t-104 20.5q-137 0 -271 -67l-151 299q228 141 504 141q114 0 203.5 -25t147.5 -67.5t95.5 -103.5t53.5 -129t16 -148v-645h-400l-20 72q-102 -99 -264 -99q-80 0 -147.5 21t-121 63t-84 111.5t-30.5 159.5z M135 1161q0 161 73.5 255.5t207.5 94.5q52 0 127.5 -29.5t101.5 -29.5q24 0 38.5 16t14.5 45h310q0 -161 -73.5 -255.5t-207.5 -94.5q-52 0 -127.5 30t-101.5 30q-24 0 -39 -16.5t-15 -45.5h-309zM475 360q0 -31 26.5 -49t65.5 -18q36 0 62 18t26 49q0 30 -26 49t-64 19 t-64 -19t-26 -49z" />
<glyph unicode="&#xe4;" horiz-adv-x="1138" d="M27 328q0 160 120 250t302 90q101 0 188 -37v37q0 36 -37 56.5t-104 20.5q-137 0 -271 -67l-151 299q228 141 504 141q114 0 203.5 -25t147.5 -67.5t95.5 -103.5t53.5 -129t16 -148v-645h-400l-20 72q-102 -99 -264 -99q-80 0 -147.5 21t-121 63t-84 111.5t-30.5 159.5z M164 1339q0 75 50.5 126t139.5 51t140 -51t51 -126q0 -76 -50.5 -125t-140.5 -49q-89 0 -139.5 49t-50.5 125zM475 360q0 -31 26.5 -49t65.5 -18q36 0 62 18t26 49q0 30 -26 49t-64 19t-64 -19t-26 -49zM612 1339q0 75 51 126t140 51t139.5 -51t50.5 -126q0 -76 -50.5 -125 t-139.5 -49q-90 0 -140.5 49t-50.5 125z" />
<glyph unicode="&#xe5;" horiz-adv-x="1138" d="M27 328q0 160 120 250t302 90q101 0 188 -37v37q0 36 -37 56.5t-104 20.5q-137 0 -271 -67l-151 299q228 141 504 141q114 0 203.5 -25t147.5 -67.5t95.5 -103.5t53.5 -129t16 -148v-645h-400l-20 72q-102 -99 -264 -99q-80 0 -147.5 21t-121 63t-84 111.5t-30.5 159.5z M334 1382q0 99 76 163.5t184 64.5q110 0 186 -64t76 -162q0 -100 -75.5 -163.5t-186.5 -63.5q-108 0 -184 63.5t-76 161.5zM475 360q0 -31 26.5 -49t65.5 -18q36 0 62 18t26 49q0 30 -26 49t-64 19t-64 -19t-26 -49zM528 1384q0 -31 19.5 -51t48.5 -20t48.5 20t19.5 51 q0 29 -19.5 49.5t-48.5 20.5t-48.5 -20.5t-19.5 -49.5z" />
<glyph unicode="&#xe6;" horiz-adv-x="1818" d="M27 328q0 107 58 185.5t153 116.5t213 38q103 0 186 -35v35q0 71 -129 71q-143 0 -277 -67l-157 299q95 66 230 106.5t274 40.5q209 0 329 -98q57 44 145 71t177 27q261 0 414 -155.5t153 -407.5q0 -33 -1.5 -62t-2.5 -42l-2 -13h-694q12 -50 60 -81t112 -31 q59 0 108 21.5t78 53.5l315 -172q-10 -20 -33.5 -48t-69 -65.5t-101 -68.5t-137 -52.5t-168.5 -21.5q-285 0 -445 181q-131 -181 -387 -181q-80 0 -150.5 21t-127.5 63t-90 111.5t-33 159.5zM479 360q0 -30 25.5 -46.5t62.5 -16.5q34 0 59 16.5t25 46.5q0 29 -25 46.5 t-61 17.5t-61 -17.5t-25 -46.5zM1112 676h223q-3 43 -34.5 70.5t-77.5 27.5q-43 0 -75 -28t-36 -70z" />
<glyph unicode="&#xe7;" horiz-adv-x="1021" d="M27 545q0 164 80.5 295.5t221.5 204.5t316 73q96 0 188 -27.5t158 -72.5l-114 -354q-82 79 -187 79q-88 0 -143 -57t-55 -141q0 -83 56 -141t144 -58q119 0 191 80l114 -354q-130 -88 -301 -99l-6 -41q72 -14 116 -64t44 -122q0 -108 -81 -173t-222 -65q-93 0 -201 43 l51 197q35 -14 74 -14q24 0 38.5 11t14.5 28t-16.5 28t-44.5 11q-16 0 -31 -3t-22 -5l-7 -3l31 203q-184 58 -295.5 203.5t-111.5 337.5z" />
<glyph unicode="&#xe8;" horiz-adv-x="1214" d="M29 559q0 115 42.5 217.5t117.5 178t184 119.5t235 44q274 0 429 -154.5t155 -408.5q0 -33 -1.5 -62t-2.5 -42l-2 -13h-694q12 -51 59.5 -82.5t112.5 -31.5q60 0 108.5 22t77.5 55l315 -172q-199 -256 -528 -256q-141 0 -257.5 47t-192.5 127.5t-117 186.5t-41 225z M248 1493h483l143 -319h-382zM508 672h223q-3 46 -34 76t-79 30q-45 0 -75 -30.5t-35 -75.5z" />
<glyph unicode="&#xe9;" horiz-adv-x="1214" d="M29 559q0 115 42.5 217.5t117.5 178t184 119.5t235 44q274 0 429 -154.5t155 -408.5q0 -33 -1.5 -62t-2.5 -42l-2 -13h-694q12 -51 59.5 -82.5t112.5 -31.5q60 0 108.5 22t77.5 55l315 -172q-199 -256 -528 -256q-141 0 -257.5 47t-192.5 127.5t-117 186.5t-41 225z M365 1174l143 319h483l-243 -319h-383zM508 672h223q-3 46 -34 76t-79 30q-45 0 -75 -30.5t-35 -75.5z" />
<glyph unicode="&#xea;" horiz-adv-x="1214" d="M29 559q0 115 42.5 217.5t117.5 178t184 119.5t235 44q274 0 429 -154.5t155 -408.5q0 -33 -1.5 -62t-2.5 -42l-2 -13h-694q12 -51 59.5 -82.5t112.5 -31.5q60 0 108.5 22t77.5 55l315 -172q-199 -256 -528 -256q-141 0 -257.5 47t-192.5 127.5t-117 186.5t-41 225z M180 1174l217 319h447l217 -319h-391l-49 79l-50 -79h-391zM508 672h223q-3 46 -34 76t-79 30q-45 0 -75 -30.5t-35 -75.5z" />
<glyph unicode="&#xeb;" horiz-adv-x="1214" d="M29 559q0 115 42.5 217.5t117.5 178t184 119.5t235 44q274 0 429 -154.5t155 -408.5q0 -33 -1.5 -62t-2.5 -42l-2 -13h-694q12 -51 59.5 -82.5t112.5 -31.5q60 0 108.5 22t77.5 55l315 -172q-199 -256 -528 -256q-141 0 -257.5 47t-192.5 127.5t-117 186.5t-41 225z M213 1339q0 75 50.5 126t139.5 51t140 -51t51 -126q0 -76 -50.5 -125t-140.5 -49q-89 0 -139.5 49t-50.5 125zM508 672h223q-3 46 -34 76t-79 30q-45 0 -75 -30.5t-35 -75.5zM662 1339q0 75 50.5 126t139.5 51t139.5 -51t50.5 -126q0 -76 -50.5 -125t-139.5 -49t-139.5 49 t-50.5 125z" />
<glyph unicode="&#xec;" d="M-102 1493h483l143 -319h-383zM51 0v1090h467v-1090h-467z" />
<glyph unicode="&#xed;" d="M29 1174l143 319h483l-243 -319h-383zM51 0v1090h467v-1090h-467z" />
<glyph unicode="&#xee;" d="M-156 1174l217 319h447l217 -319h-391l-49 79l-49 -79h-392zM51 0v1090h467v-1090h-467z" />
<glyph unicode="&#xef;" d="M-129 1339q0 75 50.5 126t139.5 51t140 -51t51 -126q0 -76 -50.5 -125t-140.5 -49q-89 0 -139.5 49t-50.5 125zM51 0v1090h467v-1090h-467zM319 1339q0 75 51 126t140 51t139.5 -51t50.5 -126q0 -76 -50.5 -125t-139.5 -49q-90 0 -140.5 49t-50.5 125z" />
<glyph unicode="&#xf0;" horiz-adv-x="1253" d="M27 516q0 112 41.5 204t114 152.5t166 96t200.5 43.5q-15 46 -35 71l-334 -112l-35 248l136 45q-45 42 -123 86l235 209q156 -56 307 -152l318 109l31 -256l-117 -41q289 -297 289 -641q0 -94 -21 -180t-68 -164.5t-115 -135.5t-169.5 -91t-224.5 -34q-136 0 -249 43 t-188.5 117t-117 173t-41.5 210zM494 512q0 -76 33 -124t98 -48q63 0 96 48t33 124q0 75 -33 122.5t-96 47.5q-64 0 -97.5 -47.5t-33.5 -122.5z" />
<glyph unicode="&#xf1;" horiz-adv-x="1183" d="M47 0v1090h447v-91q43 48 113 82.5t155 34.5q177 0 274 -113t97 -307v-696h-467v643q0 47 -20 71.5t-56 24.5q-37 0 -56.5 -28t-19.5 -68v-643h-467zM174 1161q0 161 73.5 255.5t207.5 94.5q52 0 127.5 -29.5t101.5 -29.5q24 0 38.5 16t14.5 45h310q0 -161 -73.5 -255.5 t-207.5 -94.5q-52 0 -127.5 30t-101.5 30q-24 0 -39 -16.5t-15 -45.5h-309z" />
<glyph unicode="&#xf2;" horiz-adv-x="1302" d="M27 547q0 248 171.5 409.5t444.5 161.5t445 -161.5t172 -409.5q0 -163 -77 -293.5t-218.5 -205.5t-321.5 -75q-135 0 -250.5 44t-195.5 120t-125 182t-45 228zM264 1493h484l143 -319h-383zM498 547q0 -92 38.5 -148.5t106.5 -56.5t106.5 56.5t38.5 148.5t-38.5 147.5 t-106.5 55.5t-106.5 -55.5t-38.5 -147.5z" />
<glyph unicode="&#xf3;" horiz-adv-x="1302" d="M27 547q0 248 171.5 409.5t444.5 161.5t445 -161.5t172 -409.5q0 -163 -77 -293.5t-218.5 -205.5t-321.5 -75q-135 0 -250.5 44t-195.5 120t-125 182t-45 228zM393 1174l144 319h483l-244 -319h-383zM498 547q0 -92 38.5 -148.5t106.5 -56.5t106.5 56.5t38.5 148.5 t-38.5 147.5t-106.5 55.5t-106.5 -55.5t-38.5 -147.5z" />
<glyph unicode="&#xf4;" horiz-adv-x="1302" d="M27 547q0 248 171.5 409.5t444.5 161.5t445 -161.5t172 -409.5q0 -163 -77 -293.5t-218.5 -205.5t-321.5 -75q-135 0 -250.5 44t-195.5 120t-125 182t-45 228zM217 1174l217 319h447l217 -319h-391l-50 79l-49 -79h-391zM498 547q0 -92 38.5 -148.5t106.5 -56.5 t106.5 56.5t38.5 148.5t-38.5 147.5t-106.5 55.5t-106.5 -55.5t-38.5 -147.5z" />
<glyph unicode="&#xf5;" horiz-adv-x="1302" d="M27 547q0 248 171.5 409.5t444.5 161.5t445 -161.5t172 -409.5q0 -163 -77 -293.5t-218.5 -205.5t-321.5 -75q-135 0 -250.5 44t-195.5 120t-125 182t-45 228zM215 1161q0 161 73.5 255.5t207.5 94.5q52 0 127.5 -29.5t101.5 -29.5q24 0 38.5 16t14.5 45h309 q0 -161 -73 -255.5t-207 -94.5q-52 0 -127.5 30t-101.5 30q-24 0 -39 -16.5t-15 -45.5h-309zM498 547q0 -92 38.5 -148.5t106.5 -56.5t106.5 56.5t38.5 148.5t-38.5 147.5t-106.5 55.5t-106.5 -55.5t-38.5 -147.5z" />
<glyph unicode="&#xf6;" horiz-adv-x="1302" d="M27 547q0 248 171.5 409.5t444.5 161.5t445 -161.5t172 -409.5q0 -163 -77 -293.5t-218.5 -205.5t-321.5 -75q-135 0 -250.5 44t-195.5 120t-125 182t-45 228zM242 1339q0 75 50.5 126t139.5 51t140 -51t51 -126q0 -76 -50.5 -125t-140.5 -49q-89 0 -139.5 49t-50.5 125z M498 547q0 -92 38.5 -148.5t106.5 -56.5t106.5 56.5t38.5 148.5t-38.5 147.5t-106.5 55.5t-106.5 -55.5t-38.5 -147.5zM690 1339q0 75 51 126t140 51t139.5 -51t50.5 -126q0 -76 -50.5 -125t-139.5 -49q-90 0 -140.5 49t-50.5 125z" />
<glyph unicode="&#xf7;" horiz-adv-x="1099" d="M20 469v332h1059v-332h-1059zM348 229q0 83 59 142t142 59t142 -59t59 -142t-59 -141.5t-142 -58.5t-142 58.5t-59 141.5zM348 1040q0 83 59 142t142 59t142 -59t59 -142t-59 -141.5t-142 -58.5t-142 58.5t-59 141.5z" />
<glyph unicode="&#xf8;" horiz-adv-x="1302" d="M27 547q0 247 175 409t449 162q188 0 340 -84l76 78l150 -143l-66 -68q125 -154 125 -354q0 -163 -79 -293.5t-222.5 -205.5t-323.5 -75q-189 0 -336 80l-96 -98l-149 143l86 86q-129 154 -129 363zM498 532l202 207q-26 11 -49 11q-69 0 -111 -56t-42 -147v-15zM606 348 q21 -6 45 -6q69 0 111.5 57.5t42.5 151.5z" />
<glyph unicode="&#xf9;" horiz-adv-x="1185" d="M51 377v713h467v-644q0 -47 20 -71.5t56 -24.5q37 0 56.5 28t19.5 68v644h467v-1090h-447v84q-36 -43 -106 -77t-146 -34q-186 0 -286.5 106t-100.5 298zM229 1493h484l143 -319h-383z" />
<glyph unicode="&#xfa;" horiz-adv-x="1185" d="M51 377v713h467v-644q0 -47 20 -71.5t56 -24.5q37 0 56.5 28t19.5 68v644h467v-1090h-447v84q-36 -43 -106 -77t-146 -34q-186 0 -286.5 106t-100.5 298zM344 1174l143 319h484l-244 -319h-383z" />
<glyph unicode="&#xfb;" horiz-adv-x="1185" d="M51 377v713h467v-644q0 -47 20 -71.5t56 -24.5q37 0 56.5 28t19.5 68v644h467v-1090h-447v84q-36 -43 -106 -77t-146 -34q-186 0 -286.5 106t-100.5 298zM156 1174l217 319h446l217 -319h-391l-49 79l-49 -79h-391z" />
<glyph unicode="&#xfc;" horiz-adv-x="1185" d="M51 377v713h467v-644q0 -47 20 -71.5t56 -24.5q37 0 56.5 28t19.5 68v644h467v-1090h-447v84q-36 -43 -106 -77t-146 -34q-186 0 -286.5 106t-100.5 298zM180 1339q0 75 51 126t140 51t139.5 -51t50.5 -126q0 -76 -50.5 -125t-139.5 -49q-90 0 -140.5 49t-50.5 125z M629 1339q0 75 50.5 126t139.5 51t140 -51t51 -126q0 -76 -50.5 -125t-140.5 -49q-89 0 -139.5 49t-50.5 125z" />
<glyph unicode="&#xfd;" horiz-adv-x="1277" d="M14 1090h500l127 -515l137 515h486l-549 -1457h-441l148 422zM420 1174l143 319h484l-244 -319h-383z" />
<glyph unicode="&#xfe;" horiz-adv-x="1300" d="M51 -375v1854h467v-437q103 74 248 74q241 0 374.5 -157.5t133.5 -415.5q0 -168 -58 -296t-173.5 -201t-276.5 -73q-71 0 -141 25t-107 57v-430h-467zM506 543q0 -95 41 -149t110 -54q68 0 109 57t41 146q0 95 -40.5 148.5t-109.5 53.5q-72 0 -111.5 -56.5t-39.5 -145.5z " />
<glyph unicode="&#xff;" horiz-adv-x="1277" d="M14 1090h500l127 -515l137 515h486l-549 -1457h-441l148 422zM231 1339q0 75 51 126t140 51t139.5 -51t50.5 -126q0 -76 -50.5 -125t-139.5 -49q-90 0 -140.5 49t-50.5 125zM680 1339q0 75 50.5 126t139.5 51t140 -51t51 -126q0 -76 -50.5 -125t-140.5 -49 q-89 0 -139.5 49t-50.5 125z" />
<glyph unicode="&#x100;" horiz-adv-x="1523" d="M10 0l496 1434h512l495 -1434h-532l-63 219h-336l-64 -219h-508zM426 1530v299h674v-299h-674zM668 584h161l-79 295z" />
<glyph unicode="&#x101;" horiz-adv-x="1138" d="M27 328q0 160 120 250t302 90q101 0 188 -37v37q0 36 -37 56.5t-104 20.5q-137 0 -271 -67l-151 299q228 141 504 141q114 0 203.5 -25t147.5 -67.5t95.5 -103.5t53.5 -129t16 -148v-645h-400l-20 72q-102 -99 -264 -99q-80 0 -147.5 21t-121 63t-84 111.5t-30.5 159.5z M260 1186v299h674v-299h-674zM475 360q0 -31 26.5 -49t65.5 -18q36 0 62 18t26 49q0 30 -26 49t-64 19t-64 -19t-26 -49z" />
<glyph unicode="&#x102;" horiz-adv-x="1523" d="M10 0l496 1434h512l495 -1434h-532l-63 219h-336l-64 -219h-508zM371 1851h346q0 -92 43 -92q45 0 45 92h348q0 -158 -104 -253t-289 -95q-183 0 -286 95t-103 253zM668 584h161l-79 295z" />
<glyph unicode="&#x103;" horiz-adv-x="1138" d="M27 328q0 160 120 250t302 90q101 0 188 -37v37q0 36 -37 56.5t-104 20.5q-137 0 -271 -67l-151 299q228 141 504 141q114 0 203.5 -25t147.5 -67.5t95.5 -103.5t53.5 -129t16 -148v-645h-400l-20 72q-102 -99 -264 -99q-80 0 -147.5 21t-121 63t-84 111.5t-30.5 159.5z M199 1507h346q0 -92 43 -92q45 0 45 92h348q0 -158 -104 -253t-289 -95q-183 0 -286 95t-103 253zM475 360q0 -31 26.5 -49t65.5 -18q36 0 62 18t26 49q0 30 -26 49t-64 19t-64 -19t-26 -49z" />
<glyph unicode="&#x104;" horiz-adv-x="1523" d="M10 0l496 1434h512l495 -1434q-33 -11 -58 -37.5t-25 -56.5q0 -29 24.5 -43.5t58.5 -14.5v-266q-101 -31 -180 -31q-291 0 -291 213q0 80 63 145.5t138 90.5h-262l-63 219h-336l-64 -219h-508zM668 584h161l-79 295z" />
<glyph unicode="&#x105;" horiz-adv-x="1138" d="M27 328q0 160 120 250t302 90q101 0 188 -37v37q0 36 -37 56.5t-104 20.5q-137 0 -271 -67l-151 299q228 141 504 141q114 0 203.5 -25t147.5 -67.5t95.5 -103.5t53.5 -129t16 -148v-645q-33 -11 -58.5 -37.5t-25.5 -56.5q0 -29 25 -43.5t59 -14.5v-266 q-101 -31 -181 -31q-290 0 -290 213q0 79 65 145t141 91h-135l-20 72q-102 -99 -264 -99q-80 0 -147.5 21t-121 63t-84 111.5t-30.5 159.5zM475 360q0 -31 26.5 -49t65.5 -18q36 0 62 18t26 49q0 30 -26 49t-64 19t-64 -19t-26 -49z" />
<glyph unicode="&#x106;" horiz-adv-x="1312" d="M16 719q0 154 55.5 289.5t154.5 235.5t245 158t317 58q279 0 482 -141l-156 -410q-114 111 -268 111q-124 0 -205.5 -84.5t-81.5 -216.5q0 -137 82 -221t205 -84q153 0 278 112l154 -411q-201 -142 -490 -142q-167 0 -310 54.5t-244.5 151t-159.5 236t-58 304.5z M543 1518l143 319h483l-243 -319h-383z" />
<glyph unicode="&#x107;" horiz-adv-x="1021" d="M27 545q0 164 80.5 295.5t221.5 204.5t316 73q96 0 188 -27.5t158 -72.5l-104 -350q-87 75 -191 75q-92 0 -148 -57t-56 -141t57 -140.5t149 -56.5q121 0 193 80l106 -354q-67 -45 -156.5 -73t-185.5 -28q-175 0 -318.5 72.5t-226.5 204t-83 295.5zM383 1174l143 319h484 l-244 -319h-383z" />
<glyph unicode="&#x108;" horiz-adv-x="1312" d="M16 719q0 154 55.5 289.5t154.5 235.5t245 158t317 58q279 0 482 -141l-156 -410q-114 111 -268 111q-124 0 -205.5 -84.5t-81.5 -216.5q0 -137 82 -221t205 -84q153 0 278 112l154 -411q-201 -142 -490 -142q-167 0 -310 54.5t-244.5 151t-159.5 236t-58 304.5z M383 1518l217 319h447l217 -319h-392l-49 79l-49 -79h-391z" />
<glyph unicode="&#x109;" horiz-adv-x="1021" d="M27 545q0 164 80.5 295.5t221.5 204.5t316 73q96 0 188 -27.5t158 -72.5l-104 -350q-87 75 -191 75q-92 0 -148 -57t-56 -141t57 -140.5t149 -56.5q121 0 193 80l106 -354q-67 -45 -156.5 -73t-185.5 -28q-175 0 -318.5 72.5t-226.5 204t-83 295.5zM184 1174l217 319h447 l217 -319h-391l-49 79l-50 -79h-391z" />
<glyph unicode="&#x10a;" horiz-adv-x="1312" d="M16 719q0 154 55.5 289.5t154.5 235.5t245 158t317 58q279 0 482 -141l-156 -410q-114 111 -268 111q-124 0 -205.5 -84.5t-81.5 -216.5q0 -137 82 -221t205 -84q153 0 278 112l154 -411q-201 -142 -490 -142q-167 0 -310 54.5t-244.5 151t-159.5 236t-58 304.5z M578 1714q0 93 61.5 150t167.5 57t167.5 -57t61.5 -150q0 -92 -62 -150.5t-167 -58.5t-167 58.5t-62 150.5z" />
<glyph unicode="&#x10b;" horiz-adv-x="1021" d="M27 545q0 164 80.5 295.5t221.5 204.5t316 73q96 0 188 -27.5t158 -72.5l-104 -350q-87 75 -191 75q-92 0 -148 -57t-56 -141t57 -140.5t149 -56.5q121 0 193 80l106 -354q-67 -45 -156.5 -73t-185.5 -28q-175 0 -318.5 72.5t-226.5 204t-83 295.5zM422 1370 q0 93 61.5 150t167.5 57t168 -57t62 -150q0 -92 -62 -150.5t-168 -58.5q-105 0 -167 58.5t-62 150.5z" />
<glyph unicode="&#x10c;" horiz-adv-x="1312" d="M16 719q0 154 55.5 289.5t154.5 235.5t245 158t317 58q279 0 482 -141l-156 -410q-114 111 -268 111q-124 0 -205.5 -84.5t-81.5 -216.5q0 -137 82 -221t205 -84q153 0 278 112l154 -411q-201 -142 -490 -142q-167 0 -310 54.5t-244.5 151t-159.5 236t-58 304.5z M377 1837h391l49 -80l49 80h391l-217 -319h-446z" />
<glyph unicode="&#x10d;" horiz-adv-x="1021" d="M27 545q0 164 80.5 295.5t221.5 204.5t316 73q96 0 188 -27.5t158 -72.5l-104 -350q-87 75 -191 75q-92 0 -148 -57t-56 -141t57 -140.5t149 -56.5q121 0 193 80l106 -354q-67 -45 -156.5 -73t-185.5 -28q-175 0 -318.5 72.5t-226.5 204t-83 295.5zM199 1493h391l49 -80 l49 80h391l-217 -319h-446z" />
<glyph unicode="&#x10e;" horiz-adv-x="1390" d="M61 0v1434h512q238 0 418.5 -84.5t281.5 -247t101 -383.5q0 -218 -99.5 -381.5t-281 -250.5t-420.5 -87h-512zM160 1837h391l49 -80l49 80h391l-217 -319h-446zM565 410h31q116 0 182 78t66 231q0 152 -66 228.5t-182 76.5h-31v-614z" />
<glyph unicode="&#x10f;" horiz-adv-x="1302" d="M27 547q0 168 58 295.5t173.5 200.5t276.5 73q70 0 140 -25t107 -57v445h467v-1479h-446v63q-46 -40 -116 -65t-152 -25q-241 0 -374.5 158t-133.5 416zM494 547q0 -95 40 -149t109 -54q72 0 112 57t40 146q0 95 -41 149t-111 54q-68 0 -108.5 -57t-40.5 -146zM1313 1122 l14 357h320l-103 -357h-231z" />
<glyph unicode="&#x110;" horiz-adv-x="1478" d="M61 539v358h89v537h512q238 0 418.5 -84.5t281 -247t100.5 -383.5q0 -218 -99.5 -381.5t-280.5 -250.5t-420 -87h-512v539h-89zM653 410h31q116 0 182 78t66 231q0 152 -66 228.5t-182 76.5h-31v-127h125v-358h-125v-129z" />
<glyph unicode="&#x111;" horiz-adv-x="1349" d="M27 547q0 168 58 295.5t173.5 200.5t276.5 73q70 0 140 -25t107 -57v127h-202v252h202v66h467v-66h74v-252h-74v-1161h-446v63q-46 -40 -116 -65t-152 -25q-241 0 -374.5 158t-133.5 416zM494 547q0 -95 40 -149t109 -54q72 0 112 57t40 146q0 95 -41 149t-111 54 q-68 0 -108.5 -57t-40.5 -146z" />
<glyph unicode="&#x112;" horiz-adv-x="1017" d="M61 0v1434h895v-404h-376v-119h335v-379h-335v-129h376v-403h-895zM172 1530v299h674v-299h-674z" />
<glyph unicode="&#x113;" horiz-adv-x="1214" d="M29 559q0 115 42.5 217.5t117.5 178t184 119.5t235 44q274 0 429 -154.5t155 -408.5q0 -33 -1.5 -62t-2.5 -42l-2 -13h-694q12 -51 59.5 -82.5t112.5 -31.5q60 0 108.5 22t77.5 55l315 -172q-199 -256 -528 -256q-141 0 -257.5 47t-192.5 127.5t-117 186.5t-41 225z M285 1186v299h673v-299h-673zM508 672h223q-3 46 -34 76t-79 30q-45 0 -75 -30.5t-35 -75.5z" />
<glyph unicode="&#x114;" horiz-adv-x="1017" d="M61 0v1434h895v-404h-376v-119h335v-379h-335v-129h376v-403h-895zM117 1851h346q0 -92 43 -92q45 0 45 92h348q0 -158 -104 -253t-289 -95q-183 0 -286 95t-103 253z" />
<glyph unicode="&#x115;" horiz-adv-x="1214" d="M29 559q0 115 42.5 217.5t117.5 178t184 119.5t235 44q274 0 429 -154.5t155 -408.5q0 -33 -1.5 -62t-2.5 -42l-2 -13h-694q12 -51 59.5 -82.5t112.5 -31.5q60 0 108.5 22t77.5 55l315 -172q-199 -256 -528 -256q-141 0 -257.5 47t-192.5 127.5t-117 186.5t-41 225z M236 1507h346q0 -92 43 -92q45 0 45 92h348q0 -158 -104 -253t-289 -95q-183 0 -286 95t-103 253zM508 672h223q-3 46 -34 76t-79 30q-45 0 -75 -30.5t-35 -75.5z" />
<glyph unicode="&#x116;" horiz-adv-x="1017" d="M61 0v1434h895v-404h-376v-119h335v-379h-335v-129h376v-403h-895zM279 1714q0 93 61.5 150t167.5 57t167.5 -57t61.5 -150q0 -92 -62 -150.5t-167 -58.5t-167 58.5t-62 150.5z" />
<glyph unicode="&#x117;" horiz-adv-x="1214" d="M29 559q0 115 42.5 217.5t117.5 178t184 119.5t235 44q274 0 429 -154.5t155 -408.5q0 -33 -1.5 -62t-2.5 -42l-2 -13h-694q12 -51 59.5 -82.5t112.5 -31.5q60 0 108.5 22t77.5 55l315 -172q-199 -256 -528 -256q-141 0 -257.5 47t-192.5 127.5t-117 186.5t-41 225z M406 1370q0 93 61.5 150t167.5 57t167.5 -57t61.5 -150q0 -92 -62 -150.5t-167 -58.5t-167 58.5t-62 150.5zM508 672h223q-3 46 -34 76t-79 30q-45 0 -75 -30.5t-35 -75.5z" />
<glyph unicode="&#x118;" horiz-adv-x="1017" d="M61 0v1434h895v-404h-376v-119h335v-379h-335v-129h376v-403q-34 -13 -59 -38.5t-25 -55.5q0 -29 25 -43.5t59 -14.5v-266q-101 -31 -180 -31q-291 0 -291 213q0 80 63 145.5t138 90.5h-625z" />
<glyph unicode="&#x119;" horiz-adv-x="1214" d="M29 559q0 115 42.5 217.5t117.5 178t184 119.5t235 44q274 0 429 -154.5t155 -408.5q0 -33 -1.5 -62t-2.5 -42l-2 -13h-694q12 -50 60 -81t112 -31q59 0 108 21.5t78 53.5l315 -172q-16 -33 -64.5 -82t-121.5 -90q-42 -28 -65 -55t-23 -65q0 -43 31.5 -66t72.5 -23v-266 q-101 -31 -180 -31q-291 0 -291 213q0 63 41.5 119t100.5 90h-11q-141 0 -260 47t-198.5 127t-123.5 186.5t-44 225.5zM508 676h223q-3 43 -35 70.5t-78 27.5q-43 0 -74.5 -27.5t-35.5 -70.5z" />
<glyph unicode="&#x11a;" horiz-adv-x="1017" d="M61 0v1434h895v-404h-376v-119h335v-379h-335v-129h376v-403h-895zM68 1837h391l49 -80l49 80h391l-217 -319h-446z" />
<glyph unicode="&#x11b;" horiz-adv-x="1214" d="M29 559q0 115 42.5 217.5t117.5 178t184 119.5t235 44q274 0 429 -154.5t155 -408.5q0 -33 -1.5 -62t-2.5 -42l-2 -13h-694q12 -51 59.5 -82.5t112.5 -31.5q60 0 108.5 22t77.5 55l315 -172q-199 -256 -528 -256q-141 0 -257.5 47t-192.5 127.5t-117 186.5t-41 225z M184 1493h391l50 -80l49 80h391l-217 -319h-447zM508 672h223q-3 46 -34 76t-79 30q-45 0 -75 -30.5t-35 -75.5z" />
<glyph unicode="&#x11c;" horiz-adv-x="1529" d="M16 719q0 153 56 289t155.5 236t245 158t315.5 58q386 0 611 -233l-289 -312q-120 105 -264 105q-124 0 -205.5 -84.5t-81.5 -216.5q0 -140 79 -226.5t210 -86.5q112 0 176 38v56h-162v346h627v-637q-271 -236 -696 -236q-177 0 -324 57t-245.5 157t-153 236.5 t-54.5 295.5zM385 1518l217 319h447l217 -319h-392l-49 79l-49 -79h-391z" />
<glyph unicode="&#x11d;" horiz-adv-x="1302" d="M27 551q0 249 144.5 407t365.5 158q83 0 153 -23.5t115 -62.5v60h446v-938q0 -114 -32.5 -206t-89 -154.5t-135 -104.5t-167.5 -61t-190 -19q-118 0 -250.5 31.5t-218.5 74.5l125 318q48 -21 135.5 -43.5t175.5 -22.5q47 0 86 9.5t66.5 32t27.5 54.5v27q-96 -74 -247 -74 q-222 0 -366 145.5t-144 391.5zM211 1174l217 319h446l218 -319h-392l-49 79l-49 -79h-391zM494 551q0 -93 40.5 -146t112.5 -53q69 0 108.5 57t39.5 142q0 91 -40.5 145t-107.5 54q-70 0 -111.5 -56t-41.5 -143z" />
<glyph unicode="&#x11e;" horiz-adv-x="1529" d="M16 719q0 153 56 289t155.5 236t245 158t315.5 58q386 0 611 -233l-289 -312q-120 105 -264 105q-124 0 -205.5 -84.5t-81.5 -216.5q0 -140 79 -226.5t210 -86.5q112 0 176 38v56h-162v346h627v-637q-271 -236 -696 -236q-177 0 -324 57t-245.5 157t-153 236.5 t-54.5 295.5zM436 1851h346q0 -92 43 -92q45 0 45 92h349q0 -158 -104.5 -253t-289.5 -95q-183 0 -286 95t-103 253z" />
<glyph unicode="&#x11f;" horiz-adv-x="1302" d="M27 551q0 249 144.5 407t365.5 158q83 0 153 -23.5t115 -62.5v60h446v-938q0 -114 -32.5 -206t-89 -154.5t-135 -104.5t-167.5 -61t-190 -19q-118 0 -250.5 31.5t-218.5 74.5l125 318q48 -21 135.5 -43.5t175.5 -22.5q47 0 86 9.5t66.5 32t27.5 54.5v27q-96 -74 -247 -74 q-222 0 -366 145.5t-144 391.5zM260 1507h346q0 -92 43 -92q45 0 45 92h348q0 -158 -104 -253t-289 -95q-183 0 -286 95t-103 253zM494 551q0 -93 40.5 -146t112.5 -53q69 0 108.5 57t39.5 142q0 91 -40.5 145t-107.5 54q-70 0 -111.5 -56t-41.5 -143z" />
<glyph unicode="&#x120;" horiz-adv-x="1529" d="M16 719q0 153 56 289t155.5 236t245 158t315.5 58q386 0 611 -233l-289 -312q-120 105 -264 105q-124 0 -205.5 -84.5t-81.5 -216.5q0 -140 79 -226.5t210 -86.5q112 0 176 38v56h-162v346h627v-637q-271 -236 -696 -236q-177 0 -324 57t-245.5 157t-153 236.5 t-54.5 295.5zM575 1714q0 93 62 150t168 57t167.5 -57t61.5 -150q0 -92 -62 -150.5t-167 -58.5q-106 0 -168 58.5t-62 150.5z" />
<glyph unicode="&#x121;" horiz-adv-x="1302" d="M27 551q0 249 144.5 407t365.5 158q83 0 153 -23.5t115 -62.5v60h446v-938q0 -114 -32.5 -206t-89 -154.5t-135 -104.5t-167.5 -61t-190 -19q-118 0 -250.5 31.5t-218.5 74.5l125 318q48 -21 135.5 -43.5t175.5 -22.5q47 0 86 9.5t66.5 32t27.5 54.5v27q-96 -74 -247 -74 q-222 0 -366 145.5t-144 391.5zM422 1370q0 93 61.5 150t167.5 57t168 -57t62 -150q0 -92 -62 -150.5t-168 -58.5q-105 0 -167 58.5t-62 150.5zM494 551q0 -93 40.5 -146t112.5 -53q69 0 108.5 57t39.5 142q0 91 -40.5 145t-107.5 54q-70 0 -111.5 -56t-41.5 -143z" />
<glyph unicode="&#x122;" horiz-adv-x="1529" d="M16 719q0 153 56 289t155.5 236t245 158t315.5 58q386 0 611 -233l-289 -312q-120 105 -264 105q-124 0 -205.5 -84.5t-81.5 -216.5q0 -140 79 -226.5t210 -86.5q112 0 176 38v56h-162v346h627v-637q-271 -236 -696 -236q-177 0 -324 57t-245.5 157t-153 236.5 t-54.5 295.5zM625 -262q0 85 58 142t146 57q90 0 149.5 -56t59.5 -160q0 -135 -67 -251t-178 -193l-136 150q97 70 115 127q-69 17 -108 68t-39 116z" />
<glyph unicode="&#x123;" horiz-adv-x="1302" d="M27 551q0 249 144.5 407t365.5 158q83 0 153 -23.5t115 -62.5v60h446v-938q0 -114 -32.5 -206t-89 -154.5t-135 -104.5t-167.5 -61t-190 -19q-118 0 -250.5 31.5t-218.5 74.5l125 318q48 -21 135.5 -43.5t175.5 -22.5q47 0 86 9.5t66.5 32t27.5 54.5v27q-96 -74 -247 -74 q-222 0 -366 145.5t-144 391.5zM442 1380q0 134 67.5 251t178.5 194l135 -150q-96 -69 -114 -127q69 -17 108 -68t39 -116q0 -85 -58.5 -142t-146.5 -57q-90 0 -149.5 55.5t-59.5 159.5zM494 551q0 -93 40.5 -146t112.5 -53q69 0 108.5 57t39.5 142q0 91 -40.5 145 t-107.5 54q-70 0 -111.5 -56t-41.5 -143z" />
<glyph unicode="&#x124;" horiz-adv-x="1466" d="M61 0v1434h521v-516h303v516h520v-1434h-520v514h-303v-514h-521zM297 1518l217 319h447l217 -319h-392l-49 79l-49 -79h-391z" />
<glyph unicode="&#x125;" horiz-adv-x="1196" d="M51 0v1479h467v-482q39 46 108.5 82.5t149.5 36.5q179 0 274 -112.5t95 -307.5v-696h-467v643q0 46 -22 71t-58 25q-38 0 -59 -28.5t-21 -67.5v-643h-467zM180 1518l217 319h447l217 -319h-391l-49 79l-50 -79h-391z" />
<glyph unicode="&#x126;" horiz-adv-x="1466" d="M61 0v1434h521v-516h303v516h520v-1434h-520v514h-303v-514h-521zM401 1530v299h674v-299h-674z" />
<glyph unicode="&#x127;" horiz-adv-x="1249" d="M35 1161v252h69v66h467v-66h246v-252h-246v-157q37 44 104 78t144 34q180 0 279.5 -113t99.5 -307v-696h-467v643q0 46 -22 71t-58 25q-38 0 -59 -28.5t-21 -67.5v-643h-467v1161h-69z" />
<glyph unicode="&#x128;" horiz-adv-x="643" d="M-115 1505q0 161 73.5 255.5t207.5 94.5q52 0 127.5 -29.5t101.5 -29.5q24 0 39 16.5t15 45.5h309q0 -161 -73.5 -256t-207.5 -95q-52 0 -127.5 30t-101.5 30q-24 0 -38.5 -16.5t-14.5 -45.5h-310zM61 0v1434h521v-1434h-521z" />
<glyph unicode="&#x129;" d="M-152 1161q0 161 73.5 255.5t207.5 94.5q52 0 127.5 -29.5t101.5 -29.5q24 0 39 16t15 45h309q0 -161 -73.5 -255.5t-207.5 -94.5q-52 0 -127.5 30t-101.5 30q-24 0 -38.5 -16.5t-14.5 -45.5h-310zM51 0v1090h467v-1090h-467z" />
<glyph unicode="&#x12a;" horiz-adv-x="643" d="M-14 1530v299h673v-299h-673zM61 0v1434h521v-1434h-521z" />
<glyph unicode="&#x12b;" d="M-51 1186v299h674v-299h-674zM51 0v1090h467v-1090h-467z" />
<glyph unicode="&#x12c;" horiz-adv-x="643" d="M-70 1851h346q0 -92 43 -92q46 0 46 92h348q0 -158 -104.5 -253t-289.5 -95q-183 0 -286 95t-103 253zM61 0v1434h521v-1434h-521z" />
<glyph unicode="&#x12d;" d="M-106 1507h346q0 -92 43 -92q45 0 45 92h348q0 -158 -104 -253t-289 -95q-183 0 -286 95t-103 253zM51 0v1090h467v-1090h-467z" />
<glyph unicode="&#x12e;" horiz-adv-x="643" d="M61 0v1434h521v-1434q-33 -12 -58.5 -38t-25.5 -56q0 -29 25 -43.5t59 -14.5v-266q-101 -31 -181 -31q-290 0 -290 213q0 80 62.5 145.5t137.5 90.5h-250z" />
<glyph unicode="&#x12f;" d="M31 1341q0 100 69.5 164t184.5 64t184.5 -64t69.5 -164q0 -98 -69.5 -161.5t-184.5 -63.5t-184.5 63.5t-69.5 161.5zM47 -236q0 80 63 145.5t138 90.5h-197v1090h467v-1090q-35 -13 -59.5 -38.5t-24.5 -55.5q0 -29 25 -43.5t59 -14.5v-266q-101 -31 -180 -31 q-291 0 -291 213z" />
<glyph unicode="&#x130;" horiz-adv-x="643" d="M61 0v1434h521v-1434h-521zM94 1714q0 93 62 150t168 57t167.5 -57t61.5 -150q0 -92 -62 -150.5t-167 -58.5q-106 0 -168 58.5t-62 150.5z" />
<glyph unicode="&#x131;" d="M51 0v1090h467v-1090h-467z" />
<glyph unicode="&#x132;" horiz-adv-x="1501" d="M61 0v1434h521v-1434h-521zM666 25l51 391q61 -15 110 -15q93 0 93 78v955h520v-1035q0 -411 -484 -411q-147 0 -290 37z" />
<glyph unicode="&#x133;" horiz-adv-x="1138" d="M31 1346q0 100 69.5 165.5t184.5 65.5t184.5 -65.5t69.5 -165.5q0 -99 -69.5 -164.5t-184.5 -65.5t-184.5 65.5t-69.5 164.5zM51 0v1090h467v-1090h-467zM471 -49q30 -4 61 -4q40 0 64.5 21t24.5 59v1063h466v-1076q0 -215 -126 -311t-361 -96q-26 0 -69.5 5.5 t-59.5 10.5v328zM600 1346q0 100 69.5 165.5t184.5 65.5t184.5 -65.5t69.5 -165.5q0 -99 -69.5 -164.5t-184.5 -65.5t-184.5 65.5t-69.5 164.5z" />
<glyph unicode="&#x134;" horiz-adv-x="858" d="M23 25l51 391q62 -15 110 -15q92 0 92 78v955h521v-1035q0 -411 -484 -411q-147 0 -290 37zM90 1518l217 319h447l217 -319h-391l-50 79l-49 -79h-391z" />
<glyph unicode="&#x135;" d="M-154 1174l217 319h447l217 -319h-391l-49 79l-49 -79h-392zM-121 -37q39 -6 84 -6q40 0 64 20.5t24 59.5v1053h467v-1076q0 -215 -126 -311t-361 -96q-28 0 -82.5 5.5t-69.5 10.5v340z" />
<glyph unicode="&#x136;" horiz-adv-x="1431" d="M61 0v1434h521v-521l245 521h568l-355 -684l369 -750h-578l-249 590v-590h-521zM481 -262q0 85 58.5 142t146.5 57q90 0 149.5 -56t59.5 -160q0 -134 -67.5 -250.5t-178.5 -193.5l-135 150q97 70 115 127q-69 17 -108.5 68t-39.5 116z" />
<glyph unicode="&#x137;" horiz-adv-x="1245" d="M51 0v1479h467v-762l178 373h512l-274 -500l293 -590h-535l-174 420v-420h-467zM360 -262q0 85 58.5 142t146.5 57q90 0 149.5 -56t59.5 -160q0 -134 -67.5 -250.5t-178.5 -193.5l-135 150q97 70 115 127q-69 17 -108.5 68t-39.5 116z" />
<glyph unicode="&#x138;" horiz-adv-x="1245" d="M51 0v1090h467v-381l178 381h512l-274 -508l293 -582h-535l-174 412v-412h-467z" />
<glyph unicode="&#x139;" horiz-adv-x="1001" d="M61 0v1434h521v-1031h393v-403h-914zM94 1518l144 319h483l-244 -319h-383z" />
<glyph unicode="&#x13a;" d="M49 1518l144 319h483l-244 -319h-383zM51 0v1479h467v-1479h-467z" />
<glyph unicode="&#x13b;" horiz-adv-x="1001" d="M61 0v1434h521v-1031h393v-403h-914zM281 -262q0 85 58 142t146 57q90 0 149.5 -56t59.5 -160q0 -135 -67 -251t-178 -193l-136 150q97 70 115 127q-69 17 -108 68t-39 116z" />
<glyph unicode="&#x13c;" d="M51 0v1479h467v-1479h-467zM82 -262q0 85 58.5 142t146.5 57q90 0 149.5 -56t59.5 -160q0 -134 -67.5 -250.5t-178.5 -193.5l-135 150q96 69 114 127q-69 17 -108 68t-39 116z" />
<glyph unicode="&#x13d;" horiz-adv-x="1001" d="M61 0v1434h521v-1031h393v-403h-914zM651 1077l15 357h319l-102 -357h-232z" />
<glyph unicode="&#x13e;" d="M51 0v1479h467v-1479h-467zM582 1122l14 357h319l-102 -357h-231z" />
<glyph unicode="&#x13f;" horiz-adv-x="1128" d="M61 0v1434h521v-1031h393v-403h-914zM635 754q0 101 72 170t184 69q114 0 186 -69t72 -170q0 -98 -72.5 -167t-185.5 -69q-112 0 -184 69t-72 167z" />
<glyph unicode="&#x140;" horiz-adv-x="1118" d="M51 0v1479h467v-1479h-467zM588 772q0 101 72 170.5t184 69.5q114 0 186 -69t72 -171q0 -98 -72.5 -166.5t-185.5 -68.5q-112 0 -184 69t-72 166z" />
<glyph unicode="&#x141;" horiz-adv-x="1077" d="M23 303v385l114 60v686h520v-414l172 90v-397l-172 -88v-222h394v-403h-914v360z" />
<glyph unicode="&#x142;" horiz-adv-x="710" d="M25 336v405l96 52v686h467v-430l96 51v-414l-96 -51v-635h-467v385z" />
<glyph unicode="&#x143;" horiz-adv-x="1474" d="M61 0v1434h527l311 -674v674h514v-1434h-526l-312 674v-674h-514zM459 1518l143 319h483l-243 -319h-383z" />
<glyph unicode="&#x144;" horiz-adv-x="1187" d="M51 0v1090h447v-91q43 48 113 82.5t155 34.5q177 0 274 -113t97 -307v-696h-467v643q0 47 -20 71.5t-56 24.5q-37 0 -56.5 -28t-19.5 -68v-643h-467zM281 1174l143 319h483l-243 -319h-383z" />
<glyph unicode="&#x145;" horiz-adv-x="1474" d="M61 0v1434h527l311 -674v674h514v-1434h-526l-312 674v-674h-514zM530 -262q0 85 58.5 142t146.5 57q90 0 149.5 -56t59.5 -160q0 -134 -67.5 -250.5t-178.5 -193.5l-135 150q97 70 115 127q-69 17 -108.5 68t-39.5 116z" />
<glyph unicode="&#x146;" horiz-adv-x="1187" d="M51 0v1090h447v-91q43 48 113 82.5t155 34.5q177 0 274 -113t97 -307v-696h-467v643q0 47 -20 71.5t-56 24.5q-37 0 -56.5 -28t-19.5 -68v-643h-467zM387 -262q0 85 58.5 142t146.5 57q90 0 149.5 -56t59.5 -160q0 -134 -67.5 -250.5t-178.5 -193.5l-135 150 q97 70 115 127q-69 17 -108.5 68t-39.5 116z" />
<glyph unicode="&#x147;" horiz-adv-x="1474" d="M61 0v1434h527l311 -674v674h514v-1434h-526l-312 674v-674h-514zM297 1837h391l49 -80l49 80h392l-217 -319h-447z" />
<glyph unicode="&#x148;" horiz-adv-x="1187" d="M51 0v1090h447v-91q43 48 113 82.5t155 34.5q177 0 274 -113t97 -307v-696h-467v643q0 47 -20 71.5t-56 24.5q-37 0 -56.5 -28t-19.5 -68v-643h-467zM154 1493h391l49 -80l49 80h391l-217 -319h-446z" />
<glyph unicode="&#x149;" horiz-adv-x="1368" d="M-172 1360q0 85 58.5 142t146.5 57q90 0 149.5 -56t59.5 -160q0 -134 -67.5 -250.5t-178.5 -193.5l-135 150q96 69 114 127q-69 17 -108 68t-39 116zM231 0v1090h447v-91q43 48 113 82.5t155 34.5q177 0 274 -113t97 -307v-696h-467v643q0 47 -20 71.5t-56 24.5 q-37 0 -56.5 -28t-19.5 -68v-643h-467z" />
<glyph unicode="&#x14a;" horiz-adv-x="1474" d="M61 0v1434h527l311 -641v641h514v-1438q0 -412 -483 -412q-148 0 -291 37l51 354q57 -14 111 -14q48 0 73 21t25 57l-324 635v-674h-514z" />
<glyph unicode="&#x14b;" horiz-adv-x="1187" d="M51 0v1090h447v-84q36 43 106 76.5t146 33.5q185 0 286 -113t101 -307v-682q0 -215 -126.5 -311t-361.5 -96q-28 0 -82 5.5t-69 10.5v322q39 -6 84 -6q40 0 64 20.5t24 58.5v625q0 47 -20 71.5t-56 24.5q-37 0 -56.5 -28t-19.5 -68v-643h-467z" />
<glyph unicode="&#x14c;" horiz-adv-x="1617" d="M16 719q0 155 56 290.5t156.5 235.5t251 157.5t329.5 57.5t329.5 -57.5t251 -157.5t156.5 -235.5t56 -290.5q0 -157 -56 -293.5t-156.5 -237t-250.5 -158t-330 -57.5t-330 57.5t-250.5 158t-156.5 237t-56 293.5zM469 1530v299h674v-299h-674zM559 719 q0 -143 65.5 -230.5t184.5 -87.5q118 0 184 87.5t66 230.5q0 139 -66.5 226t-183.5 87q-118 0 -184 -87t-66 -226z" />
<glyph unicode="&#x14d;" horiz-adv-x="1302" d="M27 547q0 248 171.5 409.5t444.5 161.5t445 -161.5t172 -409.5q0 -163 -77 -293.5t-218.5 -205.5t-321.5 -75q-135 0 -250.5 44t-195.5 120t-125 182t-45 228zM313 1186v299h674v-299h-674zM498 547q0 -92 38.5 -148.5t106.5 -56.5t106.5 56.5t38.5 148.5t-38.5 147.5 t-106.5 55.5t-106.5 -55.5t-38.5 -147.5z" />
<glyph unicode="&#x14e;" horiz-adv-x="1617" d="M16 719q0 155 56 290.5t156.5 235.5t251 157.5t329.5 57.5t329.5 -57.5t251 -157.5t156.5 -235.5t56 -290.5q0 -157 -56 -293.5t-156.5 -237t-250.5 -158t-330 -57.5t-330 57.5t-250.5 158t-156.5 237t-56 293.5zM430 1851h346q0 -92 43 -92q45 0 45 92h348 q0 -158 -104 -253t-289 -95q-183 0 -286 95t-103 253zM559 719q0 -143 65.5 -230.5t184.5 -87.5q118 0 184 87.5t66 230.5q0 139 -66.5 226t-183.5 87q-118 0 -184 -87t-66 -226z" />
<glyph unicode="&#x14f;" horiz-adv-x="1302" d="M27 547q0 248 171.5 409.5t444.5 161.5t445 -161.5t172 -409.5q0 -163 -77 -293.5t-218.5 -205.5t-321.5 -75q-135 0 -250.5 44t-195.5 120t-125 182t-45 228zM264 1507h346q0 -92 43 -92q45 0 45 92h349q0 -158 -104.5 -253t-289.5 -95q-183 0 -286 95t-103 253z M498 547q0 -92 38.5 -148.5t106.5 -56.5t106.5 56.5t38.5 148.5t-38.5 147.5t-106.5 55.5t-106.5 -55.5t-38.5 -147.5z" />
<glyph unicode="&#x150;" horiz-adv-x="1617" d="M16 719q0 155 56 290.5t156.5 235.5t251 157.5t329.5 57.5t329.5 -57.5t251 -157.5t156.5 -235.5t56 -290.5q0 -157 -56 -293.5t-156.5 -237t-250.5 -158t-330 -57.5t-330 57.5t-250.5 158t-156.5 237t-56 293.5zM387 1518l141 319h387l-178 -319h-350zM559 719 q0 -143 65.5 -230.5t184.5 -87.5q118 0 184 87.5t66 230.5q0 139 -66.5 226t-183.5 87q-118 0 -184 -87t-66 -226zM821 1518l142 319h387l-179 -319h-350z" />
<glyph unicode="&#x151;" horiz-adv-x="1302" d="M27 547q0 248 171.5 409.5t444.5 161.5t445 -161.5t172 -409.5q0 -163 -77 -293.5t-218.5 -205.5t-321.5 -75q-135 0 -250.5 44t-195.5 120t-125 182t-45 228zM221 1174l141 319h388l-179 -319h-350zM498 547q0 -92 38.5 -148.5t106.5 -56.5t106.5 56.5t38.5 148.5 t-38.5 147.5t-106.5 55.5t-106.5 -55.5t-38.5 -147.5zM655 1174l142 319h387l-178 -319h-351z" />
<glyph unicode="&#x152;" horiz-adv-x="2056" d="M16 719q0 155 56 290.5t156.5 235.5t251 157.5t329.5 57.5q112 0 229 -26h957v-404h-469q30 -72 41 -119h387v-379h-385q-14 -63 -43 -129h469v-403h-957q-122 -27 -229 -27q-180 0 -330 57.5t-250.5 158t-156.5 237t-56 293.5zM559 719q0 -143 65.5 -230.5t184.5 -87.5 q118 0 184 87.5t66 230.5q0 139 -66.5 226t-183.5 87q-118 0 -184 -87t-66 -226z" />
<glyph unicode="&#x153;" horiz-adv-x="1992" d="M27 547q0 247 175 409t449 162q219 0 381 -119q64 53 158.5 86t195.5 33q274 0 429 -154.5t155 -408.5q0 -33 -1.5 -62t-2.5 -42l-2 -13h-694q12 -50 60 -81t112 -31q59 0 108 21.5t78 53.5l316 -172q-10 -20 -33.5 -48t-69 -65.5t-101.5 -68.5t-137.5 -52.5 t-168.5 -21.5q-231 0 -392 127q-166 -127 -391 -127q-273 0 -448.5 163t-175.5 411zM498 547q0 -91 42 -148t111 -57t111.5 57t42.5 148t-42.5 147t-111.5 56t-111 -56t-42 -147zM1286 676h223q-3 43 -34.5 70.5t-77.5 27.5q-43 0 -75 -28t-36 -70z" />
<glyph unicode="&#x154;" horiz-adv-x="1294" d="M61 0v1434h637q245 0 389 -132t144 -333q0 -118 -65 -216t-162 -153l327 -600h-563l-203 463v-463h-504zM334 1518l143 319h484l-244 -319h-383zM565 844h62q47 0 74.5 30t27.5 70t-27.5 70t-74.5 30h-62v-200z" />
<glyph unicode="&#x155;" horiz-adv-x="817" d="M51 0v1090h457v-119q36 54 108.5 99.5t161.5 45.5v-422q-43 15 -82 15q-77 0 -127.5 -54t-50.5 -147v-508h-467zM141 1174l144 319h483l-244 -319h-383z" />
<glyph unicode="&#x156;" horiz-adv-x="1294" d="M61 0v1434h637q245 0 389 -132t144 -333q0 -118 -65 -216t-162 -153l327 -600h-563l-203 463v-463h-504zM436 -262q0 85 58.5 142t146.5 57q90 0 149.5 -56t59.5 -160q0 -134 -67.5 -250.5t-178.5 -193.5l-135 150q97 70 115 127q-69 17 -108.5 68t-39.5 116zM565 844h62 q47 0 74.5 30t27.5 70t-27.5 70t-74.5 30h-62v-200z" />
<glyph unicode="&#x157;" horiz-adv-x="817" d="M51 0v1090h457v-119q36 54 108.5 99.5t161.5 45.5v-422q-43 15 -82 15q-77 0 -127.5 -54t-50.5 -147v-508h-467zM115 -262q0 85 58 142t146 57q90 0 149.5 -56t59.5 -160q0 -135 -67 -251t-178 -193l-136 150q97 70 115 127q-69 17 -108 68t-39 116z" />
<glyph unicode="&#x158;" horiz-adv-x="1294" d="M61 0v1434h637q245 0 389 -132t144 -333q0 -118 -65 -216t-162 -153l327 -600h-563l-203 463v-463h-504zM113 1837h391l49 -80l49 80h391l-217 -319h-446zM565 844h62q47 0 74.5 30t27.5 70t-27.5 70t-74.5 30h-62v-200z" />
<glyph unicode="&#x159;" horiz-adv-x="817" d="M-31 1493h391l50 -80l49 80h391l-217 -319h-447zM51 0v1090h457v-119q36 54 108.5 99.5t161.5 45.5v-422q-43 15 -82 15q-77 0 -127.5 -54t-50.5 -147v-508h-467z" />
<glyph unicode="&#x15a;" horiz-adv-x="1181" d="M23 346l370 201q40 -68 92 -110t99 -42q20 0 30.5 9.5t10.5 25.5q0 26 -31 50.5t-80 47t-108.5 49.5t-119.5 65t-109 85t-80 119t-31 158q0 206 148 331t390 125q94 0 179 -23.5t145.5 -60t108.5 -82.5t76 -89.5t40 -82.5l-365 -209q-26 53 -68.5 92t-88.5 39 q-20 0 -31.5 -10.5t-11.5 -25.5q0 -27 31 -52.5t80.5 -50t109 -52t119.5 -66t109.5 -85t80.5 -115.5t31 -151q0 -212 -151.5 -337.5t-407.5 -125.5q-98 0 -185 25t-147.5 63.5t-110 90t-78.5 99t-46 95.5zM375 1518l143 319h483l-243 -319h-383z" />
<glyph unicode="&#x15b;" horiz-adv-x="1003" d="M29 160l186 264q53 -38 137 -71.5t133 -33.5q23 0 34 7t11 16q0 14 -14.5 21.5t-54.5 19.5q-49 15 -75 23.5t-75 28.5t-77.5 38t-65.5 47.5t-57.5 62t-35 78t-14.5 97.5q0 160 133 260t334 100q261 0 437 -172l-222 -250q-39 35 -93 58.5t-97 23.5q-23 0 -34 -8t-11 -18 q0 -17 19.5 -26.5t84.5 -29.5q40 -12 67 -21t69 -26t70.5 -34.5t62 -45t53.5 -58t33.5 -73t13.5 -90.5q0 -180 -130.5 -277.5t-346.5 -97.5q-144 0 -269.5 56t-205.5 131zM285 1174l143 319h483l-243 -319h-383z" />
<glyph unicode="&#x15c;" horiz-adv-x="1181" d="M23 346l370 201q40 -68 92 -110t99 -42q20 0 30.5 9.5t10.5 25.5q0 26 -31 50.5t-80 47t-108.5 49.5t-119.5 65t-109 85t-80 119t-31 158q0 206 148 331t390 125q94 0 179 -23.5t145.5 -60t108.5 -82.5t76 -89.5t40 -82.5l-365 -209q-26 53 -68.5 92t-88.5 39 q-20 0 -31.5 -10.5t-11.5 -25.5q0 -27 31 -52.5t80.5 -50t109 -52t119.5 -66t109.5 -85t80.5 -115.5t31 -151q0 -212 -151.5 -337.5t-407.5 -125.5q-98 0 -185 25t-147.5 63.5t-110 90t-78.5 99t-46 95.5zM170 1518l217 319h447l217 -319h-392l-49 79l-49 -79h-391z" />
<glyph unicode="&#x15d;" horiz-adv-x="1003" d="M29 160l186 264q53 -38 137 -71.5t133 -33.5q23 0 34 7t11 16q0 14 -14.5 21.5t-54.5 19.5q-49 15 -75 23.5t-75 28.5t-77.5 38t-65.5 47.5t-57.5 62t-35 78t-14.5 97.5q0 160 133 260t334 100q261 0 437 -172l-222 -250q-39 35 -93 58.5t-97 23.5q-23 0 -34 -8t-11 -18 q0 -17 19.5 -26.5t84.5 -29.5q40 -12 67 -21t69 -26t70.5 -34.5t62 -45t53.5 -58t33.5 -73t13.5 -90.5q0 -180 -130.5 -277.5t-346.5 -97.5q-144 0 -269.5 56t-205.5 131zM88 1174l217 319h447l217 -319h-391l-50 79l-49 -79h-391z" />
<glyph unicode="&#x15e;" horiz-adv-x="1181" d="M23 346l370 201q40 -68 92 -110t99 -42q20 0 30.5 9.5t10.5 25.5q0 26 -31 50.5t-80 47t-108.5 49.5t-119.5 65t-109 85t-80 119t-31 158q0 206 148 331t390 125q94 0 179 -23.5t145.5 -60t108.5 -82.5t76 -89.5t40 -82.5l-365 -209q-26 53 -68.5 92t-88.5 39 q-20 0 -31.5 -10.5t-11.5 -25.5q0 -27 31 -52.5t80.5 -50t109 -52t119.5 -66t109.5 -85t80.5 -115.5t31 -151q0 -190 -123 -311.5t-336 -144.5l-8 -48q72 -14 116 -64t44 -122q0 -108 -81 -173t-222 -65q-93 0 -201 43l51 197q35 -14 74 -14q24 0 38.5 11t14.5 28t-16.5 28 t-44.5 11q-16 0 -31 -3t-22 -5l-7 -3l29 193q-83 20 -154 60.5t-119 91t-79.5 100.5t-48.5 100z" />
<glyph unicode="&#x15f;" horiz-adv-x="1003" d="M29 160l186 264q53 -38 137 -71.5t133 -33.5q23 0 34 7t11 16q0 14 -14.5 21.5t-54.5 19.5q-49 15 -75 23.5t-75 28.5t-77.5 38t-65.5 47.5t-57.5 62t-35 78t-14.5 97.5q0 160 133 260t334 100q261 0 437 -172l-222 -250q-39 35 -93 58.5t-97 23.5q-23 0 -34 -8t-11 -18 q0 -17 19.5 -26.5t84.5 -29.5q40 -12 67 -21t69 -26t70.5 -34.5t62 -45t53.5 -58t33.5 -73t13.5 -90.5q0 -156 -99 -250t-268 -116l-8 -50q72 -14 116 -64t44 -122q0 -108 -81 -173t-222 -65q-93 0 -201 43l51 197q35 -14 74 -14q24 0 38.5 11t14.5 28t-16.5 28t-44.5 11 q-16 0 -31 -3t-22 -5l-7 -3l29 191q-97 23 -180.5 69t-138.5 99z" />
<glyph unicode="&#x160;" horiz-adv-x="1181" d="M23 346l370 201q40 -68 92 -110t99 -42q20 0 30.5 9.5t10.5 25.5q0 26 -31 50.5t-80 47t-108.5 49.5t-119.5 65t-109 85t-80 119t-31 158q0 206 148 331t390 125q94 0 179 -23.5t145.5 -60t108.5 -82.5t76 -89.5t40 -82.5l-365 -209q-26 53 -68.5 92t-88.5 39 q-20 0 -31.5 -10.5t-11.5 -25.5q0 -27 31 -52.5t80.5 -50t109 -52t119.5 -66t109.5 -85t80.5 -115.5t31 -151q0 -212 -151.5 -337.5t-407.5 -125.5q-98 0 -185 25t-147.5 63.5t-110 90t-78.5 99t-46 95.5zM172 1837h391l49 -80l50 80h391l-217 -319h-447z" />
<glyph unicode="&#x161;" horiz-adv-x="1003" d="M29 160l186 264q53 -38 137 -71.5t133 -33.5q23 0 34 7t11 16q0 14 -14.5 21.5t-54.5 19.5q-49 15 -75 23.5t-75 28.5t-77.5 38t-65.5 47.5t-57.5 62t-35 78t-14.5 97.5q0 160 133 260t334 100q261 0 437 -172l-222 -250q-39 35 -93 58.5t-97 23.5q-23 0 -34 -8t-11 -18 q0 -17 19.5 -26.5t84.5 -29.5q40 -12 67 -21t69 -26t70.5 -34.5t62 -45t53.5 -58t33.5 -73t13.5 -90.5q0 -180 -130.5 -277.5t-346.5 -97.5q-144 0 -269.5 56t-205.5 131zM94 1493h391l50 -80l49 80h391l-217 -319h-447z" />
<glyph unicode="&#x162;" horiz-adv-x="1142" d="M31 1030v404h1083v-404h-283v-1030h-153l-10 -68q72 -14 115.5 -64t43.5 -122q0 -108 -81 -173t-222 -65q-93 0 -200 43l51 197q35 -14 74 -14q24 0 38.5 11t14.5 28t-17 28t-45 11q-16 0 -30.5 -3t-21.5 -5l-7 -3l31 199h-101v1030h-280z" />
<glyph unicode="&#x163;" horiz-adv-x="788" d="M27 750v340h110v227h455v-227h170v-340h-170v-322q0 -39 30 -55.5t72 -16.5l74 6v-358q-72 -18 -176 -20l-8 -52q72 -14 115.5 -64t43.5 -122q0 -108 -81 -173t-222 -65q-92 0 -200 43l51 197q35 -14 74 -14q24 0 38.5 11t14.5 28t-17 28t-45 11q-16 0 -30.5 -3t-21.5 -5 l-7 -3l35 232q-207 97 -207 383v334h-98z" />
<glyph unicode="&#x164;" horiz-adv-x="1142" d="M31 1030v404h1083v-404h-283v-1030h-520v1030h-280zM135 1837h391l49 -80l50 80h391l-217 -319h-447z" />
<glyph unicode="&#x165;" horiz-adv-x="806" d="M27 750v340h110v227h455v-227h170v-340h-170v-322q0 -39 30 -55.5t72 -16.5l74 6v-358q-74 -20 -180 -20q-226 0 -344.5 107.5t-118.5 324.5v334h-98zM635 1122l14 357h320l-103 -357h-231z" />
<glyph unicode="&#x166;" horiz-adv-x="1142" d="M31 1030v404h1083v-404h-283v-168h158v-299h-158v-563h-520v563h-159v299h159v168h-280z" />
<glyph unicode="&#x167;" horiz-adv-x="788" d="M27 414v270h98v66h-98v340h110v227h455v-227h170v-340h-170v-66h119v-270h-119q5 -31 34.5 -44.5t67.5 -13.5l74 6v-358q-74 -20 -180 -20q-226 0 -344.5 106.5t-118.5 323.5h-98z" />
<glyph unicode="&#x168;" horiz-adv-x="1445" d="M61 563v871h521v-883q0 -72 37.5 -111t101.5 -39q66 0 104.5 39t38.5 111v883h520v-871q0 -266 -174 -428t-489 -162q-314 0 -487 162t-173 428zM287 1505q0 161 73 255.5t207 94.5q52 0 128 -29.5t102 -29.5q24 0 38.5 16.5t14.5 45.5h309q0 -161 -73 -256t-207 -95 q-52 0 -128 30t-102 30q-24 0 -38.5 -16.5t-14.5 -45.5h-309z" />
<glyph unicode="&#x169;" horiz-adv-x="1185" d="M51 377v713h467v-644q0 -47 20 -71.5t56 -24.5q37 0 56.5 28t19.5 68v644h467v-1090h-447v84q-36 -43 -106 -77t-146 -34q-186 0 -286.5 106t-100.5 298zM156 1161q0 161 73 255.5t207 94.5q52 0 128 -29.5t102 -29.5q24 0 38.5 16t14.5 45h309q0 -161 -73 -255.5 t-207 -94.5q-52 0 -128 30t-102 30q-24 0 -38.5 -16.5t-14.5 -45.5h-309z" />
<glyph unicode="&#x16a;" horiz-adv-x="1445" d="M61 563v871h521v-883q0 -72 37.5 -111t101.5 -39q66 0 104.5 39t38.5 111v883h520v-871q0 -266 -174 -428t-489 -162q-314 0 -487 162t-173 428zM385 1530v299h674v-299h-674z" />
<glyph unicode="&#x16b;" horiz-adv-x="1185" d="M51 377v713h467v-644q0 -47 20 -71.5t56 -24.5q37 0 56.5 28t19.5 68v644h467v-1090h-447v84q-36 -43 -106 -77t-146 -34q-186 0 -286.5 106t-100.5 298zM256 1186v299h674v-299h-674z" />
<glyph unicode="&#x16c;" horiz-adv-x="1445" d="M61 563v871h521v-883q0 -72 37.5 -111t101.5 -39q66 0 104.5 39t38.5 111v883h520v-871q0 -266 -174 -428t-489 -162q-314 0 -487 162t-173 428zM332 1851h346q0 -92 43 -92q45 0 45 92h348q0 -158 -104 -253t-289 -95q-183 0 -286 95t-103 253z" />
<glyph unicode="&#x16d;" horiz-adv-x="1185" d="M51 377v713h467v-644q0 -47 20 -71.5t56 -24.5q37 0 56.5 28t19.5 68v644h467v-1090h-447v84q-36 -43 -106 -77t-146 -34q-186 0 -286.5 106t-100.5 298zM201 1507h346q0 -92 43 -92q45 0 45 92h348q0 -158 -104 -253t-289 -95q-183 0 -286 95t-103 253z" />
<glyph unicode="&#x16e;" horiz-adv-x="1445" d="M61 563v871h521v-883q0 -72 37.5 -111t101.5 -39q66 0 104.5 39t38.5 111v883h520v-871q0 -266 -174 -428t-489 -162q-314 0 -487 162t-173 428zM461 1726q0 99 76 163.5t184 64.5q111 0 186.5 -63.5t75.5 -161.5q0 -100 -75.5 -164t-186.5 -64q-108 0 -184 63.5 t-76 161.5zM655 1729q0 -31 19.5 -51.5t48.5 -20.5t48.5 20.5t19.5 51.5q0 29 -19.5 49t-48.5 20t-48.5 -20t-19.5 -49z" />
<glyph unicode="&#x16f;" horiz-adv-x="1185" d="M51 377v713h467v-644q0 -47 20 -71.5t56 -24.5q37 0 56.5 28t19.5 68v644h467v-1090h-447v84q-36 -43 -106 -77t-146 -34q-186 0 -286.5 106t-100.5 298zM336 1382q0 99 76 163.5t184 64.5q110 0 186 -64t76 -162q0 -100 -75.5 -163.5t-186.5 -63.5q-108 0 -184 63.5 t-76 161.5zM530 1384q0 -31 19.5 -51t48.5 -20t48.5 20t19.5 51q0 29 -19.5 49.5t-48.5 20.5t-48.5 -20.5t-19.5 -49.5z" />
<glyph unicode="&#x170;" horiz-adv-x="1445" d="M61 563v871h521v-883q0 -72 37.5 -111t101.5 -39q66 0 104.5 39t38.5 111v883h520v-871q0 -266 -174 -428t-489 -162q-314 0 -487 162t-173 428zM301 1518l141 319h387l-178 -319h-350zM735 1518l142 319h387l-179 -319h-350z" />
<glyph unicode="&#x171;" horiz-adv-x="1185" d="M51 377v713h467v-644q0 -47 20 -71.5t56 -24.5q37 0 56.5 28t19.5 68v644h467v-1090h-447v84q-36 -43 -106 -77t-146 -34q-186 0 -286.5 106t-100.5 298zM162 1174l141 319h387l-178 -319h-350zM596 1174l141 319h387l-178 -319h-350z" />
<glyph unicode="&#x172;" horiz-adv-x="1445" d="M61 563v871h521v-883q0 -72 37.5 -111t101.5 -39q66 0 104.5 39t38.5 111v883h520v-871q0 -164 -67.5 -291t-198.5 -204q-56 -34 -76 -63t-20 -68q0 -41 34.5 -65t67.5 -24v-266q-101 -31 -192 -31q-291 0 -291 213q0 64 40 120t99 91q-39 -2 -59 -2q-314 0 -487 162 t-173 428z" />
<glyph unicode="&#x173;" horiz-adv-x="1185" d="M49 393v697h467v-644q0 -47 20 -71.5t56 -24.5q37 0 56.5 28t19.5 68v644h467v-1090q-32 -13 -58 -37.5t-26 -56.5q0 -29 25 -43.5t59 -14.5v-266q-101 -31 -181 -31q-290 0 -290 213q0 80 62.5 145.5t137.5 90.5h-176v84q-36 -43 -106 -77t-146 -34q-185 0 -286 113 t-101 307z" />
<glyph unicode="&#x174;" horiz-adv-x="2166" d="M14 1434h555l133 -789l177 789h409l176 -789l133 789h555l-372 -1434h-523l-174 752l-174 -752h-522zM643 1518l217 319h447l217 -319h-391l-50 79l-49 -79h-391z" />
<glyph unicode="&#x175;" horiz-adv-x="1789" d="M16 1090h508l70 -537l94 537h414l94 -541l72 541h508l-291 -1090h-502l-90 401l-84 -401h-504zM457 1174l217 319h446l217 -319h-391l-49 79l-49 -79h-391z" />
<glyph unicode="&#x176;" horiz-adv-x="1449" d="M16 1434h576l143 -408l144 408h555l-449 -822v-612h-520v612zM285 1518l217 319h446l217 -319h-391l-49 79l-49 -79h-391z" />
<glyph unicode="&#x177;" horiz-adv-x="1277" d="M14 1090h500l127 -515l137 515h486l-549 -1457h-441l148 422zM205 1174l217 319h446l217 -319h-391l-49 79l-49 -79h-391z" />
<glyph unicode="&#x178;" horiz-adv-x="1449" d="M16 1434h576l143 -408l144 408h555l-449 -822v-612h-520v612zM311 1659q0 75 51 125.5t140 50.5t139.5 -50.5t50.5 -125.5q0 -76 -50.5 -125t-139.5 -49q-90 0 -140.5 49t-50.5 125zM760 1659q0 75 50.5 125.5t139.5 50.5t140 -50.5t51 -125.5q0 -76 -50.5 -125 t-140.5 -49q-89 0 -139.5 49t-50.5 125z" />
<glyph unicode="&#x179;" horiz-adv-x="1277" d="M27 0v268l538 766h-524v400h1204v-267l-545 -764h551v-403h-1224zM379 1518l143 319h484l-244 -319h-383z" />
<glyph unicode="&#x17a;" horiz-adv-x="999" d="M29 0v240l348 499h-342v351h923v-240l-354 -498h357v-352h-932zM262 1174l144 319h483l-244 -319h-383z" />
<glyph unicode="&#x17b;" horiz-adv-x="1277" d="M27 0v268l538 766h-524v400h1204v-267l-545 -764h551v-403h-1224zM422 1714q0 93 61.5 150t167.5 57t168 -57t62 -150q0 -92 -62 -150.5t-168 -58.5q-105 0 -167 58.5t-62 150.5z" />
<glyph unicode="&#x17c;" horiz-adv-x="999" d="M29 0v240l348 499h-342v351h923v-240l-354 -498h357v-352h-932zM270 1370q0 93 62 150t168 57t167.5 -57t61.5 -150q0 -92 -62 -150.5t-167 -58.5q-106 0 -168 58.5t-62 150.5z" />
<glyph unicode="&#x17d;" horiz-adv-x="1277" d="M27 0v268l538 766h-524v400h1204v-267l-545 -764h551v-403h-1224zM217 1837h391l49 -80l50 80h391l-217 -319h-447z" />
<glyph unicode="&#x17e;" horiz-adv-x="999" d="M29 0v240l348 499h-342v351h923v-240l-354 -498h357v-352h-932zM59 1493h392l49 -80l49 80h391l-217 -319h-447z" />
<glyph unicode="&#x192;" horiz-adv-x="1034" d="M-80 -360l43 340q53 -11 86 -11q36 0 62 18.5t30 53.5l74 549h-100v336h143l23 155q56 383 499 383q99 0 181 -16l-43 -344q-45 10 -82 10q-88 0 -97 -72l-14 -116h133v-336h-182l-76 -588q-51 -383 -500 -383q-73 0 -180 21z" />
<glyph unicode="&#x1fa;" horiz-adv-x="1523" d="M10 0l498 1436q-6 24 -6 51q0 99 76 163t184 64q111 0 186.5 -63.5t75.5 -161.5q0 -33 -8 -57l497 -1432h-532l-63 219h-336l-64 -219h-508zM535 1753l127 309h483l-227 -309h-383zM668 584h161l-79 295zM696 1489q0 -31 19.5 -51.5t48.5 -20.5t48 20.5t19 51.5 q0 30 -19 50t-48 20t-48.5 -20.5t-19.5 -49.5z" />
<glyph unicode="&#x1fb;" horiz-adv-x="1138" d="M27 328q0 160 120 250t302 90q101 0 188 -37v37q0 36 -37 56.5t-104 20.5q-137 0 -271 -67l-151 299q228 141 504 141q114 0 203.5 -25t147.5 -67.5t95.5 -103.5t53.5 -129t16 -148v-645h-400l-20 72q-102 -99 -264 -99q-80 0 -147.5 21t-121 63t-84 111.5t-30.5 159.5z M338 1376q0 99 76 163.5t184 64.5q110 0 186 -64t76 -162q0 -100 -75.5 -163.5t-186.5 -63.5q-108 0 -184 63.5t-76 161.5zM375 1632l141 301h483l-241 -301h-383zM475 360q0 -31 26.5 -49t65.5 -18q36 0 62 18t26 49q0 30 -26 49t-64 19t-64 -19t-26 -49zM532 1378 q0 -31 19.5 -51t48.5 -20t48.5 20t19.5 51q0 29 -19.5 49.5t-48.5 20.5t-48.5 -20.5t-19.5 -49.5z" />
<glyph unicode="&#x1fc;" horiz-adv-x="1880" d="M-27 0l783 1434h1063v-404h-377v-119h336v-379h-336v-129h377v-403h-895v219h-328l-104 -219h-519zM768 584h156v321zM895 1487l143 319h484l-244 -319h-383z" />
<glyph unicode="&#x1fd;" horiz-adv-x="1818" d="M27 328q0 107 58 185.5t153 116.5t213 38q103 0 186 -35v35q0 71 -129 71q-143 0 -277 -67l-157 299q95 66 230 106.5t274 40.5q209 0 329 -98q57 44 145 71t177 27q261 0 414 -155.5t153 -407.5q0 -33 -1.5 -62t-2.5 -42l-2 -13h-694q12 -50 60 -81t112 -31 q59 0 108 21.5t78 53.5l315 -172q-10 -20 -33.5 -48t-69 -65.5t-101 -68.5t-137 -52.5t-168.5 -21.5q-285 0 -445 181q-131 -181 -387 -181q-80 0 -150.5 21t-127.5 63t-90 111.5t-33 159.5zM479 360q0 -30 25.5 -46.5t62.5 -16.5q34 0 59 16.5t25 46.5q0 29 -25 46.5 t-61 17.5t-61 -17.5t-25 -46.5zM664 1174l143 319h483l-243 -319h-383zM1112 676h223q-3 43 -34.5 70.5t-77.5 27.5q-43 0 -75 -28t-36 -70z" />
<glyph unicode="&#x1fe;" horiz-adv-x="1617" d="M16 719q0 155 56 290.5t156.5 235.5t251 157.5t329.5 57.5q193 0 352 -67l99 118l239 -194l-84 -100q187 -202 187 -498q0 -157 -56 -293.5t-156.5 -237t-250.5 -158t-330 -57.5q-194 0 -358 68l-97 -119l-237 195l82 100q-89 98 -136 227t-47 275zM559 719q0 -42 2 -60 l301 367q-24 6 -53 6q-118 0 -184 -87t-66 -226zM598 1518l143 319h484l-244 -319h-383zM752 408q31 -7 57 -7q118 0 184 87.5t66 230.5q0 21 -4 57z" />
<glyph unicode="&#x1ff;" horiz-adv-x="1234" d="M27 547q0 247 175 409t449 162q188 0 340 -84l76 78l150 -143l-66 -68q125 -154 125 -354q0 -163 -79 -293.5t-222.5 -205.5t-323.5 -75q-189 0 -336 80l-96 -98l-149 143l86 86q-129 154 -129 363zM393 1174l144 319h483l-244 -319h-383zM498 532l202 207q-26 11 -49 11 q-69 0 -111 -56t-42 -147v-15zM606 348q21 -6 45 -6q69 0 111.5 57.5t42.5 151.5z" />
<glyph unicode="&#x218;" horiz-adv-x="1181" d="M23 346l370 201q40 -68 92 -110t99 -42q20 0 30.5 9.5t10.5 25.5q0 26 -31 50.5t-80 47t-108.5 49.5t-119.5 65t-109 85t-80 119t-31 158q0 206 148 331t390 125q94 0 179 -23.5t145.5 -60t108.5 -82.5t76 -89.5t40 -82.5l-365 -209q-26 53 -68.5 92t-88.5 39 q-20 0 -31.5 -10.5t-11.5 -25.5q0 -27 31 -52.5t80.5 -50t109 -52t119.5 -66t109.5 -85t80.5 -115.5t31 -151q0 -212 -151.5 -337.5t-407.5 -125.5q-98 0 -185 25t-147.5 63.5t-110 90t-78.5 99t-46 95.5zM393 -262q0 85 58.5 142t146.5 57q90 0 149.5 -56t59.5 -160 q0 -134 -67.5 -250.5t-178.5 -193.5l-135 150q97 70 115 127q-69 17 -108.5 68t-39.5 116z" />
<glyph unicode="&#x219;" horiz-adv-x="1003" d="M29 160l186 264q53 -38 137 -71.5t133 -33.5q23 0 34 7t11 16q0 14 -14.5 21.5t-54.5 19.5q-49 15 -75 23.5t-75 28.5t-77.5 38t-65.5 47.5t-57.5 62t-35 78t-14.5 97.5q0 160 133 260t334 100q261 0 437 -172l-222 -250q-39 35 -93 58.5t-97 23.5q-23 0 -34 -8t-11 -18 q0 -17 19.5 -26.5t84.5 -29.5q40 -12 67 -21t69 -26t70.5 -34.5t62 -45t53.5 -58t33.5 -73t13.5 -90.5q0 -180 -130.5 -277.5t-346.5 -97.5q-144 0 -269.5 56t-205.5 131zM295 -262q0 85 58.5 142t146.5 57q90 0 149.5 -56t59.5 -160q0 -134 -67.5 -250.5t-178.5 -193.5 l-135 150q96 69 114 127q-69 17 -108 68t-39 116z" />
<glyph unicode="&#x21a;" horiz-adv-x="1142" d="M31 1030v404h1083v-404h-283v-1030h-520v1030h-280zM360 -262q0 85 58.5 142t146.5 57q90 0 149.5 -56t59.5 -160q0 -134 -67.5 -250.5t-178.5 -193.5l-135 150q97 70 115 127q-69 17 -108.5 68t-39.5 116z" />
<glyph unicode="&#x21b;" horiz-adv-x="825" d="M45 750v340h111v227h454v-227h170v-340h-170v-322q0 -39 30.5 -55.5t72.5 -16.5l73 6v-358q-74 -20 -180 -20q-226 0 -344.5 107.5t-118.5 324.5v334h-98zM283 -262q0 85 58 142t146 57q90 0 149.5 -56t59.5 -160q0 -135 -67 -251t-178 -193l-136 150q97 70 115 127 q-69 17 -108 68t-39 116z" />
<glyph unicode="&#x237;" d="M-121 -37q39 -6 84 -6q40 0 64 20.5t24 59.5v1053h467v-1076q0 -215 -126 -311t-361 -96q-28 0 -82.5 5.5t-69.5 10.5v340z" />
<glyph unicode="&#x2c6;" horiz-adv-x="921" d="M20 1174l218 319h446l217 -319h-391l-49 79l-49 -79h-392z" />
<glyph unicode="&#x2c7;" horiz-adv-x="921" d="M20 1493h392l49 -80l49 80h391l-217 -319h-446z" />
<glyph unicode="&#x2d8;" horiz-adv-x="917" d="M68 1507h346q0 -92 43 -92q45 0 45 92h348q0 -158 -104 -253t-289 -95q-183 0 -286 95t-103 253z" />
<glyph unicode="&#x2d9;" horiz-adv-x="917" d="M229 1370q0 93 62 150t168 57t167.5 -57t61.5 -150q0 -92 -62 -150.5t-167 -58.5q-106 0 -168 58.5t-62 150.5z" />
<glyph unicode="&#x2da;" horiz-adv-x="917" d="M197 1382q0 99 76 163.5t184 64.5q110 0 186 -64t76 -162q0 -100 -75.5 -163.5t-186.5 -63.5q-108 0 -184 63.5t-76 161.5zM391 1384q0 -31 19.5 -51t48.5 -20t48 20t19 51q0 30 -19 50t-48 20t-48.5 -20.5t-19.5 -49.5z" />
<glyph unicode="&#x2db;" horiz-adv-x="921" d="M225 -236q0 80 63 145.5t138 90.5h264q-30 -12 -54 -38t-24 -56q0 -29 25 -43.5t59 -14.5v-266q-101 -31 -180 -31q-291 0 -291 213z" />
<glyph unicode="&#x2dc;" horiz-adv-x="919" d="M23 1161q0 161 73 255.5t207 94.5q52 0 127.5 -29.5t101.5 -29.5q24 0 39 16t15 45h309q0 -161 -73.5 -255.5t-207.5 -94.5q-52 0 -127.5 30t-101.5 30q-24 0 -38.5 -16.5t-14.5 -45.5h-309z" />
<glyph unicode="&#x2dd;" horiz-adv-x="1042" d="M39 1174l141 319h387l-178 -319h-350zM473 1174l141 319h387l-178 -319h-350z" />
<glyph unicode="&#x1e80;" horiz-adv-x="2166" d="M14 1434h555l133 -789l177 789h409l176 -789l133 789h555l-372 -1434h-523l-174 752l-174 -752h-522zM631 1837h483l143 -319h-383z" />
<glyph unicode="&#x1e81;" horiz-adv-x="1789" d="M16 1090h508l70 -537l94 537h414l94 -541l72 541h508l-291 -1090h-502l-90 401l-84 -401h-504zM483 1493h484l143 -319h-383z" />
<glyph unicode="&#x1e82;" horiz-adv-x="2166" d="M14 1434h555l133 -789l177 789h409l176 -789l133 789h555l-372 -1434h-523l-174 752l-174 -752h-522zM872 1518l144 319h483l-244 -319h-383z" />
<glyph unicode="&#x1e83;" horiz-adv-x="1789" d="M16 1090h508l70 -537l94 537h414l94 -541l72 541h508l-291 -1090h-502l-90 401l-84 -401h-504zM662 1174l143 319h483l-244 -319h-382z" />
<glyph unicode="&#x1e84;" horiz-adv-x="2166" d="M14 1434h555l133 -789l177 789h409l176 -789l133 789h555l-372 -1434h-523l-174 752l-174 -752h-522zM668 1665q0 75 50.5 125.5t139.5 50.5t140 -50.5t51 -125.5q0 -76 -50.5 -125t-140.5 -49q-89 0 -139.5 49t-50.5 125zM1116 1665q0 75 51 125.5t140 50.5t139.5 -50.5 t50.5 -125.5q0 -76 -50.5 -125t-139.5 -49q-90 0 -140.5 49t-50.5 125z" />
<glyph unicode="&#x1e85;" horiz-adv-x="1789" d="M16 1090h508l70 -537l94 537h414l94 -541l72 541h508l-291 -1090h-502l-90 401l-84 -401h-504zM479 1339q0 75 51 126t140 51t139.5 -51t50.5 -126q0 -76 -50.5 -125t-139.5 -49q-90 0 -140.5 49t-50.5 125zM928 1339q0 75 50.5 126t139.5 51t140 -51t51 -126 q0 -76 -50.5 -125t-140.5 -49q-89 0 -139.5 49t-50.5 125z" />
<glyph unicode="&#x1ef2;" horiz-adv-x="1449" d="M16 1434h576l143 -408l144 408h555l-449 -822v-612h-520v612zM313 1837h484l143 -319h-383z" />
<glyph unicode="&#x1ef3;" horiz-adv-x="1275" d="M14 1090h500l127 -515l137 515h486l-549 -1457h-441l148 422zM231 1493h484l143 -319h-383z" />
<glyph unicode="&#x2000;" horiz-adv-x="1031" />
<glyph unicode="&#x2001;" horiz-adv-x="2062" />
<glyph unicode="&#x2002;" horiz-adv-x="1031" />
<glyph unicode="&#x2003;" horiz-adv-x="2062" />
<glyph unicode="&#x2004;" horiz-adv-x="687" />
<glyph unicode="&#x2005;" horiz-adv-x="515" />
<glyph unicode="&#x2006;" horiz-adv-x="343" />
<glyph unicode="&#x2007;" horiz-adv-x="343" />
<glyph unicode="&#x2008;" horiz-adv-x="257" />
<glyph unicode="&#x2009;" horiz-adv-x="412" />
<glyph unicode="&#x200a;" horiz-adv-x="114" />
<glyph unicode="&#x2010;" horiz-adv-x="829" d="M70 459v352h688v-352h-688z" />
<glyph unicode="&#x2011;" horiz-adv-x="829" d="M70 459v352h688v-352h-688z" />
<glyph unicode="&#x2012;" horiz-adv-x="829" d="M70 459v352h688v-352h-688z" />
<glyph unicode="&#x2013;" horiz-adv-x="1443" d="M80 467v342h1284v-342h-1284z" />
<glyph unicode="&#x2014;" horiz-adv-x="2017" d="M92 467v342h1831v-342h-1831z" />
<glyph unicode="&#x2018;" horiz-adv-x="694" d="M90 961q0 166 84.5 319.5t235.5 251.5l182 -205q-46 -28 -91 -74.5t-65 -87.5q82 -30 125 -90t43 -133q0 -101 -72 -170.5t-184 -69.5t-185 69.5t-73 189.5z" />
<glyph unicode="&#x2019;" horiz-adv-x="694" d="M90 1292q0 101 72 170.5t184 69.5t185 -69t73 -189q0 -166 -84 -320t-235 -252l-183 205q46 28 91 74.5t65 87.5q-82 30 -125 90t-43 133z" />
<glyph unicode="&#x201a;" horiz-adv-x="550" d="M18 209q0 101 72 170.5t184 69.5t185 -69.5t73 -189.5q0 -166 -84 -319.5t-235 -251.5l-182 205q46 28 90.5 74.5t64.5 87.5q-82 30 -125 90t-43 133z" />
<glyph unicode="&#x201c;" horiz-adv-x="1269" d="M90 961q0 166 84.5 319.5t235.5 251.5l182 -205q-46 -28 -91 -74.5t-65 -87.5q82 -30 125 -90t43 -133q0 -101 -72 -170.5t-184 -69.5t-185 69.5t-73 189.5zM666 961q0 166 84 319.5t235 251.5l182 -205q-46 -28 -90.5 -74.5t-64.5 -87.5q82 -30 125 -90t43 -133 q0 -101 -72 -170.5t-184 -69.5t-185 69.5t-73 189.5z" />
<glyph unicode="&#x201d;" horiz-adv-x="1269" d="M90 1292q0 101 72 170.5t184 69.5t185 -69t73 -189q0 -166 -84 -320t-235 -252l-183 205q46 28 91 74.5t65 87.5q-82 30 -125 90t-43 133zM666 1292q0 101 72 170.5t184 69.5t185 -69t73 -189q0 -166 -84.5 -320t-235.5 -252l-182 205q46 28 91 74.5t65 87.5 q-82 30 -125 90t-43 133z" />
<glyph unicode="&#x201e;" horiz-adv-x="1269" d="M90 209q0 101 72 170.5t184 69.5t185 -69.5t73 -189.5q0 -166 -84 -319.5t-235 -251.5l-183 205q46 28 91 74.5t65 87.5q-82 30 -125 90t-43 133zM666 209q0 101 72 170.5t184 69.5t185 -69.5t73 -189.5q0 -166 -84.5 -319.5t-235.5 -251.5l-182 205q46 28 91 74.5 t65 87.5q-82 30 -125 90t-43 133z" />
<glyph unicode="&#x2020;" horiz-adv-x="976" d="M16 752v362h242v320h461v-320h239v-362h-239v-752h-461v752h-242z" />
<glyph unicode="&#x2021;" horiz-adv-x="974" d="M16 307v359h242v98h-242v362h242v308h461v-308h239v-362h-239v-98h239v-359h-239v-307h-461v307h-242z" />
<glyph unicode="&#x2022;" horiz-adv-x="831" d="M63 635q0 148 101 250t252 102t251.5 -102t100.5 -250t-100.5 -250t-251.5 -102t-252 102t-101 250z" />
<glyph unicode="&#x202f;" horiz-adv-x="412" />
<glyph unicode="&#x2030;" horiz-adv-x="2686" d="M31 1092q0 156 113 262t288 106t288.5 -106t113.5 -262t-113.5 -262.5t-288.5 -106.5t-288 106.5t-113 262.5zM190 0l1055 1434h393l-1054 -1434h-394zM383 1092q0 -32 13 -52t36 -20t36 20t13 52q0 31 -13 51t-36 20t-36 -20t-13 -51zM993 342q0 156 113.5 262.5 t288.5 106.5t288 -106.5t113 -262.5t-113 -262.5t-288 -106.5t-288.5 106.5t-113.5 262.5zM1346 342q0 -32 13 -52t36 -20t36 20t13 52t-13 52t-36 20t-36 -20t-13 -52zM1849 342q0 156 113.5 262.5t288.5 106.5t288 -106.5t113 -262.5t-113 -262.5t-288 -106.5 t-288.5 106.5t-113.5 262.5zM2202 342q0 -32 13 -52t36 -20t36 20t13 52t-13 52t-36 20t-36 -20t-13 -52z" />
<glyph unicode="&#x2039;" horiz-adv-x="753" d="M70 606l227 387h387l-225 -387l225 -387h-387z" />
<glyph unicode="&#x203a;" horiz-adv-x="753" d="M70 219l225 387l-225 387h387l227 -387l-227 -387h-387z" />
<glyph unicode="&#x2044;" horiz-adv-x="1130" d="M-14 -84l753 1602h408l-756 -1602h-405z" />
<glyph unicode="&#x205f;" horiz-adv-x="515" />
<glyph unicode="&#x20ac;" horiz-adv-x="1409" d="M41 440v246h94v55h-94v260h152q81 196 270 328.5t430 132.5q247 0 416 -102l-168 -340q-99 55 -215 55q-120 0 -211 -74h329l-28 -260h-389q-2 -10 -2 -28l2 -27h383l-23 -246h-260q64 -71 209 -71q59 0 120 18t103 47l160 -334q-61 -54 -165.5 -90.5t-233.5 -36.5 q-267 0 -463 127.5t-267 339.5h-149z" />
<glyph unicode="&#x2116;" horiz-adv-x="2318" d="M61 0v1434h527l311 -674v674h514v-1434h-526l-312 674v-674h-514zM1470 1079q0 160 113.5 270.5t290.5 110.5t290 -110.5t113 -270.5t-113 -270.5t-290 -110.5t-290.5 110.5t-113.5 270.5zM1495 324v335h760v-335h-760zM1827 1079q0 -32 12.5 -57t34.5 -25t34.5 25 t12.5 57t-12.5 57t-34.5 25t-34.5 -25t-12.5 -57z" />
<glyph unicode="&#x2122;" horiz-adv-x="1714" d="M72 1206v228h608v-228h-172v-512h-264v512h-172zM739 694v740h336l111 -365l114 365h340v-740h-254v338l-79 -258h-234l-80 258v-338h-254z" />
<glyph unicode="&#x2212;" horiz-adv-x="1099" d="M20 469v332h1059v-332h-1059z" />
<glyph unicode="&#x25fc;" horiz-adv-x="1085" d="M0 0v1085h1085v-1085h-1085z" />
<glyph unicode="&#xf6c3;" horiz-adv-x="727" d="M156 -262q0 85 58 142t146 57q90 0 149.5 -56t59.5 -160q0 -135 -67 -251t-178 -193l-136 150q97 70 115 127q-69 17 -108 68t-39 116z" />
<glyph horiz-adv-x="829" d="M70 545v352h688v-352h-688z" />
<glyph horiz-adv-x="1443" d="M68 555v342h1284v-342h-1284z" />
<glyph horiz-adv-x="1966" d="M68 555v342h1830v-342h-1830z" />
<glyph horiz-adv-x="1210" d="M70 713l227 387h387l-225 -387l225 -387h-387zM526 713l228 387h387l-226 -387l226 -387h-387z" />
<glyph horiz-adv-x="1210" d="M70 326l225 387l-225 387h387l227 -387l-227 -387h-387zM526 326l226 387l-226 387h387l228 -387l-228 -387h-387z" />
<glyph horiz-adv-x="753" d="M70 713l227 387h387l-225 -387l225 -387h-387z" />
<glyph horiz-adv-x="753" d="M70 326l225 387l-225 387h387l227 -387l-227 -387h-387z" />
<glyph horiz-adv-x="780" d="M41 166v1098q0 247 166 376t457 129v-358q-88 0 -125 -37t-37 -110v-1098q0 -73 37 -110.5t125 -37.5v-358q-291 0 -457 129.5t-166 376.5z" />
<glyph horiz-adv-x="780" d="M117 18q88 0 125 37.5t37 110.5v1098q0 73 -37 110t-125 37v358q291 0 456.5 -129t165.5 -376v-1098q0 -247 -165.5 -376.5t-456.5 -129.5v358z" />
<glyph horiz-adv-x="700" d="M41 -340v2109h623v-358h-162v-1393h162v-358h-623z" />
<glyph horiz-adv-x="700" d="M41 18h162v1393h-162v358h623v-2109h-623v358z" />
<glyph horiz-adv-x="870" d="M41 518v395q71 0 109 33.5t38 132.5v185q0 164 83 279t227 170.5t336 55.5v-358q-183 0 -183 -147v-277q0 -101 -56.5 -172.5t-135.5 -99.5q78 -28 135 -99.5t57 -171.5v-280q0 -146 183 -146v-358q-192 0 -336 55.5t-227 171t-83 279.5v186q0 99 -38 132.5t-109 33.5z " />
<glyph horiz-adv-x="643" d="M98 -428v2302h447v-2302h-447z" />
<glyph horiz-adv-x="952" d="M119 18q182 0 182 146v280q0 100 57 171.5t136 99.5q-79 28 -136 99.5t-57 172.5v277q0 72 -43 109.5t-139 37.5v358q192 0 335.5 -55.5t226.5 -170.5t83 -279v-185q0 -99 38 -132.5t109 -33.5v-395q-71 0 -109 -33.5t-38 -132.5v-186q0 -245 -176 -375.5t-469 -130.5 v358z" />
<glyph horiz-adv-x="997" d="M-12 -168l614 1757h410l-615 -1757h-409z" />
<glyph horiz-adv-x="997" d="M-12 1589h409l615 -1757h-410z" />
<glyph horiz-adv-x="671" d="M78 1225q0 97 72 166t184 69q113 0 185.5 -68.5t72.5 -166.5q0 -102 -72 -171t-186 -69q-112 0 -184 69.5t-72 170.5zM84 0l35 956h434l35 -956h-504z" />
<glyph horiz-adv-x="1036" d="M14 385q0 63 23.5 119.5t59 95t76.5 77t76.5 69t59 68t23.5 75.5v67h452v-92q0 -58 -22 -112t-55 -92.5t-71.5 -76.5t-71.5 -65.5t-55 -57t-22 -54.5q0 -28 16.5 -47t47.5 -19q37 0 65 31.5t41 79.5l363 -158q-16 -43 -36.5 -81t-61.5 -84t-92.5 -78.5t-131.5 -54.5 t-176 -22q-221 0 -364.5 114t-143.5 298zM303 1225q0 98 72.5 166.5t185.5 68.5q112 0 184 -69t72 -166q0 -101 -72 -170.5t-184 -69.5q-114 0 -186 69t-72 171z" />
<glyph d="M27 705q0 101 72 170t184 69q114 0 186 -69t72 -170q0 -98 -72.5 -167t-185.5 -69q-112 0 -184 69t-72 167z" />
<glyph horiz-adv-x="831" d="M63 725q0 148 101 250t252 102t251.5 -102t100.5 -250t-100.5 -250t-251.5 -102t-252 102t-101 250z" />
<glyph horiz-adv-x="1298" d="M78 717q0 373 140.5 558t430.5 185t431 -185t141 -558q0 -374 -141 -559t-431 -185t-430.5 185t-140.5 559zM580 717q0 -334 69 -334q70 0 70 334q0 338 -70 338q-69 0 -69 -338z" />
<glyph horiz-adv-x="1298" d="M106 1294l453 140h377v-1047h254v-387h-1047v387h320v621l-256 -72z" />
<glyph horiz-adv-x="1298" d="M88 1022q14 68 40 128t71 118t104 99.5t145.5 67t190.5 25.5q160 0 284 -51t196.5 -155.5t72.5 -249.5q0 -75 -26 -144.5t-67.5 -121.5t-92 -98.5t-100.5 -82.5t-91.5 -66t-67.5 -56.5t-26 -47.5h483v-387h-1095v180q0 85 31.5 164t82 140t111.5 118t122.5 106t112 94.5 t82 94t31.5 94.5q0 30 -17 47t-44 17q-67 0 -95 -123z" />
<glyph horiz-adv-x="1298" d="M96 383l430 94q7 -44 34 -70t61 -26q38 0 65 24t27 64q0 38 -31.5 65t-83.5 27h-213v281l238 205h-463v387h979v-355l-203 -184q120 -43 193 -147.5t73 -272.5q0 -223 -157 -362.5t-402 -139.5q-106 0 -194.5 27t-146.5 68.5t-102.5 98t-67.5 109t-36 107.5z" />
<glyph horiz-adv-x="1298" d="M33 291v295l532 848h559v-770h142v-373h-142v-291h-495v291h-596zM471 664h158v268z" />
<glyph horiz-adv-x="1298" d="M84 379l442 98q5 -49 32.5 -70.5t62.5 -21.5t62.5 25t27.5 73q0 44 -27 73.5t-70 29.5q-26 0 -47.5 -15t-31.5 -41l-410 58l33 846h964v-387h-538l-4 -113q58 20 133 20q135 0 249 -57.5t183 -166t69 -247.5q0 -143 -74 -260t-204 -183.5t-289 -66.5q-105 0 -195 26.5 t-151 68t-107.5 96.5t-71.5 108t-38 107z" />
<glyph horiz-adv-x="1298" d="M82 639q0 84 9 163t30.5 162.5t55.5 154.5t87 135t121 109t162 71t205 26q235 0 399 -102l-164 -363q-102 58 -188 58q-68 0 -110.5 -40.5t-53.5 -101.5q66 39 166 39q85 0 157.5 -26t130.5 -79t91.5 -143t33.5 -208q0 -226 -154.5 -373.5t-397.5 -147.5q-580 0 -580 666 zM588 594q-7 -217 82 -217q30 0 48.5 32t18.5 76q0 55 -23.5 92t-62.5 37q-36 0 -63 -20z" />
<glyph horiz-adv-x="1298" d="M94 1053v381h1108v-285l-450 -1149h-533l418 1053h-543z" />
<glyph horiz-adv-x="1298" d="M78 453q0 93 38 175.5t103 135.5q-51 46 -82 115t-31 145q0 189 145.5 312.5t397.5 123.5t397.5 -123.5t145.5 -312.5q0 -76 -31 -145t-82 -115q65 -53 103.5 -135.5t38.5 -175.5q0 -220 -153.5 -350t-418.5 -130t-418 130t-153 350zM565 463q0 -52 23 -83.5t61 -31.5 t60 31t22 84q0 42 -21.5 77t-60.5 35q-41 0 -62.5 -35t-21.5 -77zM582 993q0 -44 17.5 -69t49.5 -25t49 24.5t17 69.5q0 41 -17 69t-49 28t-49.5 -28t-17.5 -69z" />
<glyph horiz-adv-x="1298" d="M82 940q0 226 155 373t398 147q579 0 579 -665q0 -120 -17.5 -229.5t-64.5 -220.5t-120 -191t-193 -130.5t-274 -50.5q-234 0 -400 103l164 362q100 -57 189 -57q68 0 110.5 40t53.5 101q-66 -39 -166 -39q-85 0 -157.5 26t-131 79.5t-92 143.5t-33.5 208zM559 948 q0 -55 23.5 -92t62.5 -37q36 0 64 21q7 217 -82 217q-30 0 -49 -32.5t-19 -76.5z" />
</font>
</defs>
</svg>
