<?xml version="1.0" standalone="no"?>
<!DOCTYPE svg PUBLIC "-//W3C//DTD SVG 1.1//EN" "http://www.w3.org/Graphics/SVG/1.1/DTD/svg11.dtd" >
<svg xmlns="http://www.w3.org/2000/svg">
<metadata></metadata>
<defs>
<font id="geomanistregular" horiz-adv-x="505" >
<font-face units-per-em="2048" ascent="1536" descent="-512" />
<missing-glyph horiz-adv-x="507" />
<glyph unicode="&#x2e;&#x2e;&#x2e;" horiz-adv-x="1574" d="M76 145q0 73 50.5 125t123.5 52t123.5 -52t50.5 -125q0 -71 -50.5 -121.5t-123.5 -50.5t-123.5 50.5t-50.5 121.5zM612 145q0 73 50.5 125t123.5 52t124 -52t51 -125q0 -71 -51 -121.5t-124 -50.5t-123.5 50.5t-50.5 121.5zM1151 145q0 73 50.5 125t123.5 52t123.5 -52 t50.5 -125q0 -71 -50.5 -121.5t-123.5 -50.5t-123.5 50.5t-50.5 121.5z" />
<glyph unicode=" "  horiz-adv-x="507" />
<glyph unicode="&#x09;" horiz-adv-x="507" />
<glyph unicode="&#xa0;" horiz-adv-x="507" />
<glyph unicode="!" horiz-adv-x="598" d="M125 145q0 73 50.5 125t123.5 52t123.5 -52t50.5 -125q0 -71 -50.5 -121.5t-123.5 -50.5t-123.5 50.5t-50.5 121.5zM150 1434h299l-23 -1026h-254z" />
<glyph unicode="&#x22;" horiz-adv-x="757" d="M86 1434h229l-10 -488h-209zM440 1434h230l-13 -488h-206z" />
<glyph unicode="#" horiz-adv-x="1349" d="M53 365l43 213h201l55 274h-198l43 215h200l78 367h236l-76 -367h227l76 367h238l-76 -367h196l-43 -215h-198l-56 -274h197l-43 -213h-199l-75 -365h-238l76 365h-228l-75 -365h-238l76 365h-199zM535 578h227l55 274h-227z" />
<glyph unicode="$" horiz-adv-x="1067" d="M45 305l244 119q33 -79 95.5 -130.5t152.5 -51.5q80 0 125 39t45 108q0 39 -21 72t-57 58.5t-82.5 49t-97.5 48t-102.5 51.5t-98 63.5t-82.5 80.5t-57 106t-21 135q0 162 98.5 270t268.5 131v115h176v-117q63 -11 118 -38t92 -59.5t67 -72t46 -72t27 -63.5l-240 -109 q-14 31 -29 54t-39.5 48.5t-60.5 39.5t-80 14q-72 0 -113.5 -38.5t-41.5 -98.5q0 -48 34.5 -87t89 -68.5t121 -59t133 -67t121 -84t89 -119t34.5 -162.5q0 -166 -98 -281.5t-270 -144.5v-158h-176v151q-92 10 -167.5 46.5t-122.5 88t-75.5 98.5t-44.5 95z" />
<glyph unicode="%" horiz-adv-x="1646" d="M57 1118q0 143 100 242.5t249 99.5t248.5 -99.5t99.5 -242.5t-99.5 -242.5t-248.5 -99.5t-249 99.5t-100 242.5zM143 0l1086 1434h274l-1085 -1434h-275zM272 1118q0 -57 37 -97t97 -40t96.5 40t36.5 97t-36.5 97t-96.5 40t-97 -40t-37 -97zM891 311q0 143 99.5 242.5 t248.5 99.5t248.5 -99.5t99.5 -242.5t-99.5 -242.5t-248.5 -99.5t-248.5 99.5t-99.5 242.5zM1106 311q0 -57 36.5 -97t96.5 -40t96.5 40t36.5 97q0 58 -36.5 98t-96.5 40t-96.5 -40t-36.5 -98z" />
<glyph unicode="&#x26;" horiz-adv-x="1341" d="M55 412q0 130 61.5 226.5t178.5 174.5q-55 65 -87 130t-32 147q0 159 114 264.5t304 105.5q199 0 312.5 -105t113.5 -272q0 -225 -264 -385l213 -204q37 75 37 192h264q0 -231 -109 -397l144 -150l-191 -180l-139 147q-69 -60 -169.5 -96.5t-219.5 -36.5 q-247 0 -389 122.5t-142 316.5zM340 434q0 -97 73.5 -152t176.5 -55q62 0 115.5 22t85.5 54l-328 326q-57 -28 -90 -79.5t-33 -115.5zM436 1075q0 -63 39.5 -114.5t114.5 -112.5q176 104 176 227q0 69 -45.5 113.5t-122.5 44.5q-70 0 -116 -45t-46 -113z" />
<glyph unicode="'" horiz-adv-x="407" d="M88 1434h229l-10 -488h-209z" />
<glyph unicode="(" horiz-adv-x="679" d="M92 92v1112q0 434 457 434v-243q-176 0 -176 -174v-1143q0 -174 176 -174v-244q-457 0 -457 432z" />
<glyph unicode=")" horiz-adv-x="681" d="M131 -96q176 0 176 174v1143q0 174 -176 174v243q457 0 457 -434v-1112q0 -432 -457 -432v244z" />
<glyph unicode="*" horiz-adv-x="888" d="M74 965l178 100l-178 100l96 162l176 -100v207h193v-207l178 100l94 -162l-178 -100l180 -98l-96 -164l-178 102v-207h-193v207l-176 -102z" />
<glyph unicode="+" horiz-adv-x="1126" d="M74 524v228h370v393h238v-393h371v-228h-371v-395h-238v395h-370z" />
<glyph unicode="," horiz-adv-x="499" d="M76 145q0 72 50 124.5t122 52.5q77 0 128.5 -50.5t51.5 -138.5q0 -134 -64 -253.5t-163 -192.5l-111 123q41 27 80.5 74t46.5 91q-66 14 -103.5 62.5t-37.5 107.5z" />
<glyph unicode="-" horiz-adv-x="755" d="M92 496v254h570v-254h-570z" />
<glyph unicode="." horiz-adv-x="501" d="M76 145q0 73 50.5 125t123.5 52t123.5 -52t50.5 -125q0 -71 -50.5 -121.5t-123.5 -50.5t-123.5 50.5t-50.5 121.5z" />
<glyph unicode="/" horiz-adv-x="925" d="M31 -221l616 1757h248l-616 -1757h-248z" />
<glyph unicode="0" horiz-adv-x="1179" d="M94 717q0 375 116 559t378 184q263 0 379 -183.5t116 -559.5q0 -377 -115.5 -560.5t-379.5 -183.5q-262 0 -378 183.5t-116 560.5zM387 717q0 -82 3 -141.5t10.5 -116t21.5 -94t36.5 -66t54.5 -42t75 -13.5q52 0 88.5 21t59 57t35 98t16.5 130t4 167q0 82 -3 141 t-10.5 115.5t-22 94t-36.5 66.5t-54.5 42.5t-76.5 13.5q-43 0 -75 -13.5t-54 -42.5t-36.5 -66.5t-22 -94t-10.5 -115.5t-3 -141z" />
<glyph unicode="1" horiz-adv-x="698" d="M45 1337l270 97h236v-1434h-285v1149l-149 -51z" />
<glyph unicode="2" horiz-adv-x="1107" d="M80 1100q11 47 31 92.5t58.5 95.5t88 87t125 61t164.5 24q209 0 338 -117.5t129 -312.5q0 -78 -29.5 -152.5t-78 -134t-107 -115t-119.5 -104.5t-113.5 -93t-90.5 -90.5t-48 -88.5h602v-252h-944v102q0 83 35 165t90.5 150t123 133.5t135.5 125.5t123.5 116t90.5 114.5 t35 111.5q0 80 -49 128t-135 48q-153 0 -203 -168z" />
<glyph unicode="3" horiz-adv-x="1107" d="M72 326l247 77q24 -73 79.5 -119t142.5 -46q90 0 145 53.5t55 142.5q0 88 -60.5 141.5t-174.5 53.5h-158v223l297 328h-518v254h848v-254l-301 -316q69 -7 132.5 -38t115 -82t82 -128.5t30.5 -169.5q0 -208 -137.5 -340.5t-349.5 -132.5q-111 0 -199 33t-142.5 87.5 t-86.5 112t-47 120.5z" />
<glyph unicode="4" horiz-adv-x="1204" d="M55 334v207l588 893h336v-854h168v-246h-168v-334h-285v334h-639zM352 580h342v532z" />
<glyph unicode="5" horiz-adv-x="1107" d="M72 326l250 77q21 -76 78 -120.5t145 -44.5q93 0 152 64t59 163q0 93 -59 160t-169 67q-97 0 -170 -78l-239 41l31 779h808v-254h-552l-13 -293q88 49 205 49q186 0 317.5 -127t131.5 -322q0 -224 -137 -369t-351 -145q-88 0 -164.5 22.5t-129 58t-93.5 83t-64.5 94 t-35.5 95.5z" />
<glyph unicode="6" horiz-adv-x="1150" d="M82 625q0 140 17 258t59 227t107.5 184.5t168 120.5t234.5 45q186 0 336 -94l-113 -233q-87 57 -205 57q-69 0 -122.5 -22.5t-84.5 -56t-51.5 -79.5t-28.5 -86.5t-10 -83.5q107 92 256 92q190 0 306 -126t116 -349q0 -227 -132 -366.5t-349 -139.5q-115 0 -203 32 t-144.5 88t-92 140t-50 179t-14.5 213zM375 584q0 -51 2.5 -87.5t9.5 -79t21.5 -71t37.5 -53.5t59 -37t83 -12q93 0 143.5 59.5t50.5 167.5q0 101 -51.5 163t-148.5 62q-123 0 -207 -112z" />
<glyph unicode="7" horiz-adv-x="1044" d="M51 1180v254h946v-220l-469 -1214h-311l475 1180h-641z" />
<glyph unicode="8" horiz-adv-x="1155" d="M74 422q0 121 58.5 209t137.5 131q-63 40 -110 116t-47 175q0 179 127.5 293t337.5 114q209 0 336.5 -113.5t127.5 -293.5q0 -99 -47.5 -175t-111.5 -116q82 -44 140 -131.5t58 -208.5q0 -203 -139 -326t-367 -123q-229 0 -365 122t-136 327zM369 426q0 -83 55.5 -136.5 t153.5 -53.5q99 0 153.5 53.5t54.5 136.5q0 86 -57 139t-151 53q-95 0 -152 -53.5t-57 -138.5zM399 1036q0 -74 50 -120t129 -46q78 0 128 46.5t50 119.5q0 70 -47.5 117t-130.5 47q-85 0 -132 -46.5t-47 -117.5z" />
<glyph unicode="9" horiz-adv-x="1150" d="M82 954q0 227 132 366.5t349 139.5q143 0 243.5 -47.5t156.5 -138t80 -203.5t24 -262q0 -140 -17 -258.5t-59 -227t-107.5 -184.5t-168 -121t-234.5 -45q-185 0 -336 95l113 233q87 -57 205 -57q69 0 122.5 22.5t84.5 55.5t51.5 79.5t28.5 86.5t10 83q-107 -92 -256 -92 q-190 0 -306 126t-116 349zM367 963q0 -101 52 -163.5t148 -62.5q122 0 207 113q0 51 -2.5 87.5t-9.5 79t-21.5 71t-37.5 53.5t-59 37t-83 12q-93 0 -143.5 -59.5t-50.5 -167.5z" />
<glyph unicode=":" horiz-adv-x="499" d="M76 145q0 73 50.5 125t123.5 52t123.5 -52t50.5 -125q0 -71 -50.5 -121.5t-123.5 -50.5t-123.5 50.5t-50.5 121.5zM76 872q0 73 50.5 125t123.5 52t123.5 -52t50.5 -125q0 -71 -50.5 -121.5t-123.5 -50.5t-123.5 50.5t-50.5 121.5z" />
<glyph unicode=";" horiz-adv-x="499" d="M76 145q0 72 50 124.5t122 52.5q77 0 128.5 -50.5t51.5 -138.5q0 -134 -64 -253.5t-163 -192.5l-111 123q41 27 80.5 74t46.5 91q-66 14 -103.5 62.5t-37.5 107.5zM76 872q0 73 50.5 125t123.5 52t123.5 -52t50.5 -125q0 -71 -50.5 -121.5t-123.5 -50.5t-123.5 50.5 t-50.5 121.5z" />
<glyph unicode="&#x3c;" horiz-adv-x="1040" d="M92 537v204l856 387v-245l-573 -242l573 -244v-247z" />
<glyph unicode="=" horiz-adv-x="1126" d="M74 322v227h979v-227h-979zM74 711v225h979v-225h-979z" />
<glyph unicode="&#x3e;" horiz-adv-x="1040" d="M92 150v247l574 244l-574 242v245l856 -387v-204z" />
<glyph unicode="?" horiz-adv-x="987" d="M59 1174q17 48 46.5 93.5t77 91t122.5 73.5t166 28q199 0 328 -111.5t129 -285.5q0 -62 -19 -117t-49 -96t-66.5 -77.5t-73 -69t-66.5 -64.5t-49 -69.5t-19 -77.5v-84h-275v100q0 76 34 141.5t82 111.5t96 88.5t82 93t34 104.5q0 63 -46.5 108t-125.5 45 q-127 0 -182 -127zM274 145q0 73 51 125t124 52t123.5 -52t50.5 -125q0 -71 -50.5 -121.5t-123.5 -50.5t-124 50.5t-51 121.5z" />
<glyph unicode="@" horiz-adv-x="1853" d="M74 535q0 184 67 343t182.5 269.5t275.5 173.5t343 63q243 0 434.5 -98.5t296.5 -270.5t105 -386q0 -234 -103 -368t-276 -134q-85 0 -146 37.5t-90 101.5q-12 -19 -31 -39t-51.5 -44.5t-81 -40t-104.5 -15.5q-171 0 -278 112t-107 291q0 175 107 289.5t270 114.5 q133 0 215 -82v70h211v-486q0 -125 104 -125q70 0 112 80t42 227q0 273 -174.5 427.5t-458.5 154.5q-192 0 -341 -87.5t-228.5 -237t-79.5 -334.5q0 -293 182 -472.5t483 -179.5q211 0 387 103l95 -152q-198 -137 -482 -137q-255 0 -455.5 105.5t-312.5 295t-112 431.5z M737 530q0 -90 52.5 -148t132.5 -58t133 56t53 152q0 87 -51.5 145t-134.5 58q-79 0 -132 -57t-53 -148z" />
<glyph unicode="A" horiz-adv-x="1351" d="M16 0l508 1434h303l508 -1434h-291l-124 369h-488l-125 -369h-291zM510 608h334l-168 516z" />
<glyph unicode="B" horiz-adv-x="1171" d="M137 0v1434h455q214 0 342.5 -103t128.5 -276q0 -98 -47 -182.5t-125 -127.5q102 -43 160.5 -129t58.5 -196q0 -102 -39.5 -183t-107.5 -132t-156.5 -78t-188.5 -27h-481zM426 248h176q90 0 149.5 51t59.5 137q0 87 -59 136t-150 49h-176v-373zM426 854h164q76 0 127 47 t51 121q0 73 -50 117.5t-132 44.5h-160v-330z" />
<glyph unicode="C" horiz-adv-x="1306" d="M61 717q0 156 56.5 293.5t155 236.5t238 156t298.5 57q249 0 426 -131l-82 -254q-66 46 -156 80.5t-188 34.5q-194 0 -320.5 -135t-126.5 -338q0 -206 126 -339.5t321 -133.5q188 0 356 116l82 -251q-186 -136 -438 -136q-220 0 -391.5 98t-264 267t-92.5 379z" />
<glyph unicode="D" horiz-adv-x="1341" d="M137 0v1434h381q353 0 556.5 -190.5t203.5 -526.5q0 -341 -203 -529t-557 -188h-381zM426 250h102q209 0 329 120t120 347q0 222 -121 343.5t-328 121.5h-102v-932z" />
<glyph unicode="E" horiz-adv-x="985" d="M137 0v1434h737v-260h-448v-320h385v-256h-385v-340h467v-258h-756z" />
<glyph unicode="F" horiz-adv-x="962" d="M137 0v1434h733v-260h-444v-338h389v-258h-389v-578h-289z" />
<glyph unicode="G" horiz-adv-x="1529" d="M61 717q0 153 55.5 289.5t152.5 236.5t236.5 158.5t299.5 58.5q106 0 203 -24t166.5 -62.5t116.5 -75.5t79 -75l-182 -189q-21 23 -49 45.5t-74 50.5t-111 45t-137 17q-206 0 -330.5 -135.5t-124.5 -339.5q0 -215 128.5 -344t326.5 -129q131 0 218.5 37t125.5 75v176 h-272v244h543v-567q-64 -55 -122.5 -93.5t-134.5 -73t-168.5 -52t-201.5 -17.5q-121 0 -233 33.5t-204.5 98.5t-161.5 154t-107 207t-38 251z" />
<glyph unicode="H" horiz-adv-x="1447" d="M137 0v1434h289v-582h596v582h289v-1434h-289v592h-596v-592h-289z" />
<glyph unicode="I" horiz-adv-x="563" d="M137 0v1434h289v-1434h-289z" />
<glyph unicode="J" horiz-adv-x="765" d="M41 8l33 256q96 -12 119 -12q72 0 108.5 41t36.5 115v1026h289v-1078q0 -97 -30.5 -169.5t-86 -115t-125.5 -63t-156 -20.5q-93 0 -188 20z" />
<glyph unicode="K" horiz-adv-x="1259" d="M137 0v1434h289v-656l473 656h324l-516 -686l532 -748h-332l-481 696v-696h-289z" />
<glyph unicode="L" horiz-adv-x="931" d="M137 0v1434h289v-1174h467v-260h-756z" />
<glyph unicode="M" horiz-adv-x="1837" d="M135 0v1434h373l410 -977l411 977h373v-1434h-277v1024l-372 -903h-269l-372 903v-1024h-277z" />
<glyph unicode="N" horiz-adv-x="1460" d="M135 0v1434h293l612 -979v979h285v-1434h-287l-618 971v-971h-285z" />
<glyph unicode="O" horiz-adv-x="1613" d="M61 717q0 208 94 377t265 267.5t387 98.5t387 -98.5t264.5 -267.5t93.5 -377q0 -157 -55 -294t-152 -236.5t-236.5 -156.5t-301.5 -57q-216 0 -387 97.5t-265 267.5t-94 379zM362 717q0 -206 126 -339.5t319 -133.5t318.5 133.5t125.5 339.5q0 203 -125.5 338t-318.5 135 t-319 -135t-126 -338z" />
<glyph unicode="P" horiz-adv-x="1110" d="M137 0v1434h457q211 0 341 -122.5t130 -324.5q0 -198 -132.5 -325t-336.5 -127h-170v-535h-289zM426 784h129q95 0 154 56t59 147q0 88 -58.5 142.5t-150.5 54.5h-133v-400z" />
<glyph unicode="Q" horiz-adv-x="1615" d="M61 717q0 208 94 377t265 267.5t387 98.5t387 -98.5t264.5 -267.5t93.5 -377q0 -237 -131 -430l140 -125l-177 -195l-147 135q-192 -129 -430 -129q-216 0 -387 97.5t-265 267.5t-94 379zM362 717q0 -206 126 -339.5t319 -133.5q120 0 215 53l-133 121l172 194l139 -127 q51 105 51 232q0 203 -125.5 338t-318.5 135t-319 -135t-126 -338z" />
<glyph unicode="R" horiz-adv-x="1198" d="M137 0v1434h432q227 0 356.5 -121t129.5 -305q0 -127 -58 -225.5t-159 -153.5l340 -629h-320l-278 561h-154v-561h-289zM426 805h135q83 0 140 50.5t57 141.5q0 86 -56.5 136.5t-154.5 50.5h-121v-379z" />
<glyph unicode="S" horiz-adv-x="1067" d="M45 305l244 119q33 -79 95.5 -130.5t152.5 -51.5q80 0 125 39t45 108q0 39 -21 72t-57 58.5t-82.5 49t-97.5 48t-102.5 51.5t-98 63.5t-82.5 80.5t-57 106t-21 135q0 182 123.5 294.5t327.5 112.5q82 0 153 -23t117.5 -56.5t83.5 -78.5t56.5 -82t31.5 -73l-240 -109 q-14 31 -29 54t-39.5 48.5t-60.5 39.5t-80 14q-72 0 -113.5 -38.5t-41.5 -98.5q0 -48 34.5 -87t89 -68.5t121 -59t133 -67t121 -84t89 -119t34.5 -162.5q0 -193 -129.5 -315t-349.5 -122q-88 0 -163 24t-125 59t-90 82t-61.5 87t-35.5 80z" />
<glyph unicode="T" horiz-adv-x="1046" d="M43 1174v260h958v-260h-333v-1174h-289v1174h-336z" />
<glyph unicode="U" horiz-adv-x="1417" d="M131 539v895h289v-895q0 -138 76 -217.5t213 -79.5t212.5 79.5t75.5 217.5v895h289v-895q0 -258 -151.5 -412t-425.5 -154t-426 154t-152 412z" />
<glyph unicode="V" horiz-adv-x="1392" d="M12 1434h318l366 -1094l367 1094h317l-526 -1434h-313z" />
<glyph unicode="W" horiz-adv-x="2000" d="M18 1434h316l248 -1074l284 1074h267l284 -1074l250 1074h313l-383 -1434h-327l-271 989l-270 -989h-326z" />
<glyph unicode="X" horiz-adv-x="1306" d="M14 0l465 729l-450 705h342l278 -482l281 482h340l-451 -705l467 -729h-321q-147 236 -316 512l-313 -512h-322z" />
<glyph unicode="Y" horiz-adv-x="1196" d="M14 1434h326l258 -514l258 514h326l-441 -779v-655h-286v655z" />
<glyph unicode="Z" horiz-adv-x="1234" d="M66 0v188l704 990h-684v256h1069v-189l-709 -989h715v-256h-1095z" />
<glyph unicode="[" horiz-adv-x="679" d="M92 -340v1978h457v-243h-176v-1491h176v-244h-457z" />
<glyph unicode="\" horiz-adv-x="925" d="M31 1536h248l616 -1757h-248z" />
<glyph unicode="]" horiz-adv-x="684" d="M131 -96h176v1491h-176v243h457v-1978h-457v244z" />
<glyph unicode="^" horiz-adv-x="1140" d="M80 651l375 783h231l375 -783h-264l-228 508l-227 -508h-262z" />
<glyph unicode="_" horiz-adv-x="1257" d="M49 -59h1157v-222h-1157v222z" />
<glyph unicode="`" horiz-adv-x="989" d="M276 1485h297l138 -295h-236z" />
<glyph unicode="a" horiz-adv-x="1077" d="M49 332q0 159 114.5 256.5t301.5 97.5q75 0 136 -17.5t95 -41.5v69q0 72 -51 115t-143 43q-137 0 -285 -76l-106 193q78 54 191.5 90.5t229.5 36.5q125 0 214 -31t139 -89.5t72 -131.5t22 -168v-678h-250l-18 70q-90 -97 -260 -97q-169 0 -285.5 98t-116.5 261zM332 340 q0 -65 53 -106t133 -41q81 0 132.5 40t51.5 107q0 69 -51.5 109t-134.5 40q-82 0 -133 -41.5t-51 -107.5z" />
<glyph unicode="b" horiz-adv-x="1269" d="M111 0v1481h282v-523q13 18 36.5 38.5t62.5 45t97 40.5t122 16q229 0 368.5 -156.5t139.5 -406.5q0 -247 -147.5 -404.5t-377.5 -157.5q-64 0 -121 16t-96.5 41t-62 44t-37.5 37v-111h-266zM385 532q0 -132 74.5 -220.5t199.5 -88.5q122 0 198.5 84t76.5 225 q0 140 -76 228t-199 88q-120 0 -197 -84.5t-77 -231.5z" />
<glyph unicode="c" horiz-adv-x="1003" d="M51 532q0 161 74 290.5t204.5 202.5t291.5 73q185 0 337 -115l-79 -238q-113 103 -250 103q-133 0 -214 -90t-81 -223q0 -137 86 -224.5t219 -87.5q126 0 242 96l75 -231q-143 -115 -333 -115q-250 0 -411 157t-161 402z" />
<glyph unicode="d" horiz-adv-x="1269" d="M51 535q0 250 139.5 406.5t368.5 156.5q64 0 122 -16t97 -40.5t62.5 -45t36.5 -38.5v523h282v-1481h-266v111q-15 -18 -38 -37t-62.5 -44t-96.5 -41t-121 -16q-230 0 -377 157.5t-147 404.5zM336 532q0 -141 76 -225t198 -84q125 0 200 88.5t75 220.5q0 147 -77.5 231.5 t-197.5 84.5q-123 0 -198.5 -88t-75.5 -228z" />
<glyph unicode="e" horiz-adv-x="1144" d="M53 532q0 160 67 289.5t187.5 203t270.5 73.5q247 0 383.5 -153.5t136.5 -418.5q0 -41 -2 -61h-754q5 -108 83 -177t196 -69q96 0 161.5 41.5t98.5 89.5l186 -141q-14 -26 -37 -54t-63.5 -61.5t-88.5 -59.5t-117 -43.5t-145 -17.5q-169 0 -297.5 72.5t-197 199 t-68.5 287.5zM350 649h461q-4 98 -68 157.5t-161 59.5t-160 -61t-72 -156z" />
<glyph unicode="f" horiz-adv-x="667" d="M45 842v229h115v39q0 101 31.5 175t88 115.5t125 61t150.5 19.5q52 0 92 -4v-238q-1 0 -20.5 2t-34.5 2q-150 0 -150 -139v-33h187v-229h-187v-842h-282v842h-115z" />
<glyph unicode="g" horiz-adv-x="1259" d="M49 535q0 247 146.5 405t375.5 158q63 0 120.5 -15.5t96.5 -39.5t64 -45t39 -40v113h266v-936q0 -117 -30 -208t-81.5 -150.5t-125.5 -98t-157 -55t-181 -16.5q-105 0 -211 28t-183 70l86 217q27 -14 62.5 -28t106 -30t137.5 -16q62 0 112 10.5t92.5 33.5t66 66t23.5 103 v50q-12 -16 -34 -35.5t-60 -44.5t-96 -41.5t-123 -16.5q-230 0 -371 156.5t-141 405.5zM334 537q0 -140 76.5 -227t197.5 -87q123 0 199 86t76 228q0 137 -76.5 224t-200.5 87q-121 0 -196.5 -85.5t-75.5 -225.5z" />
<glyph unicode="h" horiz-adv-x="1150" d="M111 0v1481h282v-535q38 63 112 107.5t171 44.5q64 0 117 -15t91 -40.5t67 -62.5t47 -77.5t29 -90t15.5 -96t4.5 -98.5v-618h-281v651q0 87 -52 140t-126 53q-88 0 -141.5 -56.5t-53.5 -144.5v-643h-282z" />
<glyph unicode="i" d="M86 1329q0 69 47.5 115.5t116.5 46.5q71 0 118.5 -46.5t47.5 -115.5t-47.5 -115.5t-118.5 -46.5q-69 0 -116.5 46.5t-47.5 115.5zM111 0v1071h282v-1071h-282z" />
<glyph unicode="j" d="M-86 -147q29 -5 49 -5q148 0 148 150v1073h282v-1085q0 -103 -31 -178t-87.5 -117.5t-128.5 -62t-162 -19.5l-70 4v240zM86 1329q0 69 47.5 115.5t116.5 46.5q71 0 118.5 -46.5t47.5 -115.5t-47.5 -115.5t-118.5 -46.5q-69 0 -116.5 46.5t-47.5 115.5z" />
<glyph unicode="k" horiz-adv-x="1089" d="M111 0v1481h282v-860l344 450h318l-377 -485l405 -586h-331l-359 553v-553h-282z" />
<glyph unicode="l" d="M111 0v1481h282v-1481h-282z" />
<glyph unicode="m" horiz-adv-x="1742" d="M111 0v1071h276v-125q33 63 105.5 107.5t173.5 44.5q100 0 175 -42.5t117 -117.5q48 75 130.5 117.5t187.5 42.5q178 0 271 -106.5t93 -284.5v-707h-282v641q0 95 -45 149t-123 54t-126 -55t-48 -150v-639h-283v651q0 91 -44 142t-122 51q-77 0 -125.5 -55t-48.5 -148 v-641h-282z" />
<glyph unicode="n" horiz-adv-x="1146" d="M111 0v1071h276v-125q38 62 114 107t173 45q88 0 155 -28.5t107 -74.5t65 -111t34 -128.5t9 -137.5v-618h-282v651q0 87 -52 140t-126 53q-86 0 -138.5 -56.5t-52.5 -144.5v-643h-282z" />
<glyph unicode="o" horiz-adv-x="1255" d="M51 532q0 160 75.5 290t207.5 203t293 73q162 0 294 -73.5t207.5 -203t75.5 -289.5q0 -243 -162.5 -401t-414.5 -158q-250 0 -413 158t-163 401zM334 532q0 -136 83 -222.5t210 -86.5q128 0 211.5 86.5t83.5 222.5q0 137 -84 226.5t-211 89.5q-128 0 -210.5 -89 t-82.5 -227z" />
<glyph unicode="p" horiz-adv-x="1271" d="M111 -383v1454h266v-113q14 18 37.5 38t62.5 45t96 41t121 16q230 0 377.5 -157.5t147.5 -403.5q0 -251 -139.5 -407.5t-368.5 -156.5q-64 0 -122 16t-97 40.5t-62.5 44.5t-36.5 37v-494h-282zM385 539q0 -147 77 -231.5t197 -84.5q123 0 199 88t76 228q0 141 -76.5 225 t-198.5 84q-125 0 -199.5 -88.5t-74.5 -220.5z" />
<glyph unicode="q" horiz-adv-x="1271" d="M51 537q0 246 147 403.5t377 157.5q64 0 121.5 -16t96.5 -41t62.5 -45t37.5 -38v113h266v-1454h-282v494q-13 -17 -36.5 -37t-62.5 -44.5t-97 -40.5t-122 -16q-229 0 -368.5 156.5t-139.5 407.5zM336 539q0 -140 75.5 -228t198.5 -88q120 0 197.5 84.5t77.5 231.5 q0 132 -75 220.5t-200 88.5q-122 0 -198 -84t-76 -225z" />
<glyph unicode="r" horiz-adv-x="737" d="M111 0v1071h276v-156q36 82 114 132.5t181 50.5v-287q-152 0 -220.5 -88.5t-68.5 -255.5v-467h-282z" />
<glyph unicode="s" horiz-adv-x="890" d="M39 172l166 147q101 -116 246 -116q61 0 96 25.5t35 70.5q0 33 -28 58t-72.5 43t-98.5 37t-108 46t-98.5 63t-72.5 96.5t-28 137.5q0 146 110 232t279 86q137 0 228 -56.5t138 -134.5l-186 -139q-82 102 -192 102q-50 0 -80.5 -23.5t-30.5 -62.5q0 -34 28 -59t73 -42 t99 -34.5t108 -43.5t99 -60.5t73 -94t28 -137.5q0 -154 -117.5 -247t-294.5 -93q-145 0 -247 59t-152 140z" />
<glyph unicode="t" horiz-adv-x="681" d="M23 842v229h114v225h279v-225h200v-229h-200v-414q0 -115 35.5 -153.5t121.5 -38.5q29 0 52 2v-242q-43 -10 -121 -10q-190 0 -279.5 107t-89.5 327v422h-112z" />
<glyph unicode="u" horiz-adv-x="1138" d="M102 453v618h283v-651q0 -87 52 -140t126 -53q86 0 138.5 56.5t52.5 144.5v643h282v-1071h-276v125q-38 -62 -114 -107t-173 -45q-88 0 -155.5 28.5t-107.5 74.5t-65 111t-34 128.5t-9 137.5z" />
<glyph unicode="v" horiz-adv-x="1110" d="M8 1071h301l246 -770l246 770h301l-383 -1071h-328z" />
<glyph unicode="w" horiz-adv-x="1695" d="M14 1071h308l188 -760l205 760h266l203 -760l190 760h307l-321 -1071h-316l-196 686l-199 -686h-315z" />
<glyph unicode="x" horiz-adv-x="1089" d="M10 0l377 547l-360 524h317l201 -326l200 326h318l-361 -524l377 -547h-307l-227 336l-230 -336h-305z" />
<glyph unicode="y" horiz-adv-x="1105" d="M12 1071h303l240 -698l242 698h295l-547 -1438h-271l150 394z" />
<glyph unicode="z" horiz-adv-x="958" d="M57 0v174l484 662h-469v235h819v-176l-483 -659h489v-236h-840z" />
<glyph unicode="{" horiz-adv-x="794" d="M57 518v264q150 0 150 203v219q0 434 457 434v-243q-179 0 -179 -174v-303q0 -66 -19 -119.5t-47.5 -83.5t-52 -45.5t-42.5 -20.5q18 -4 42 -19.5t52.5 -45t47.5 -82.5t19 -119v-305q0 -174 179 -174v-244q-457 0 -457 434v221q0 203 -150 203z" />
<glyph unicode="|" horiz-adv-x="577" d="M156 -481v2169h266v-2169h-266z" />
<glyph unicode="}" horiz-adv-x="794" d="M131 -96q178 0 178 174v305q0 66 19.5 119t47.5 82.5t52.5 45t42.5 19.5q-19 5 -42.5 20.5t-52.5 45.5t-48 83.5t-19 119.5v303q0 174 -178 174v243q457 0 457 -434v-219q0 -203 149 -203v-264q-149 0 -149 -203v-221q0 -434 -457 -434v244z" />
<glyph unicode="~" horiz-adv-x="1118" d="M72 442q0 162 81.5 262.5t219.5 100.5q62 0 128.5 -26.5t124.5 -52.5t99 -26q47 0 72.5 29t27.5 76h219q0 -154 -81 -257.5t-218 -103.5q-52 0 -104 16.5t-88 36t-80.5 36t-83.5 16.5q-47 0 -72.5 -30t-25.5 -77h-219z" />
<glyph unicode="&#xa1;" horiz-adv-x="598" d="M125 975q0 71 50.5 121.5t123.5 50.5t123.5 -50.5t50.5 -121.5q0 -73 -50.5 -124.5t-123.5 -51.5t-123.5 51.5t-50.5 124.5zM150 -313l22 1026h254l23 -1026h-299z" />
<glyph unicode="&#xa2;" horiz-adv-x="1003" d="M51 688q0 221 136.5 376t351.5 183v187h178v-189q128 -22 241 -106l-79 -238q-113 103 -250 103q-133 0 -214 -90.5t-81 -223.5q0 -136 85.5 -223.5t219.5 -87.5q126 0 242 96l75 -231q-107 -85 -239 -107v-137h-178v133q-218 28 -353 180t-135 375z" />
<glyph unicode="&#xa3;" horiz-adv-x="1173" d="M72 0v252h118v346h-104v217h104v209q0 192 126 314t331 122q76 0 141.5 -20.5t110 -51.5t79.5 -72.5t54.5 -79t30.5 -75.5l-236 -100q-46 123 -178 123q-75 0 -123.5 -49t-48.5 -125v-195h318v-217h-318v-346h619v-252h-1024z" />
<glyph unicode="&#xa5;" horiz-adv-x="1196" d="M20 1434h326l258 -514l258 514h326l-336 -592h197v-187h-301v-145h301v-186h-301v-324h-287v324h-316v186h316v145h-316v187h209z" />
<glyph unicode="&#xa7;" horiz-adv-x="1046" d="M68 563q0 89 47.5 160.5t128.5 110.5q-154 122 -154 290t117 272.5t313 104.5q82 0 153.5 -22.5t119.5 -55.5t87 -76.5t59.5 -80.5t33.5 -72l-236 -102q-28 61 -82.5 105t-134.5 44q-63 0 -102 -34t-39 -87q0 -50 33 -87.5t100 -78.5l236 -139q110 -65 169.5 -145 t59.5 -189q0 -91 -47 -161.5t-131 -110.5q155 -123 155 -291q0 -167 -116.5 -271t-311.5 -104q-82 0 -154 22t-120.5 55t-87.5 76t-60 80t-34 72l235 103q28 -60 84 -104t137 -44q64 0 102 32t38 87q0 50 -33.5 87.5t-102.5 78.5l-256 154q-99 59 -152.5 135.5t-53.5 185.5z M332 567q0 -70 63 -104l189 -107q58 1 93.5 35.5t35.5 83.5q0 73 -84 119l-170 92q-58 -1 -92.5 -35.5t-34.5 -83.5z" />
<glyph unicode="&#xa8;" horiz-adv-x="989" d="M158 1337q0 58 39.5 99t99.5 41q59 0 99 -41t40 -99q0 -59 -39.5 -99t-99.5 -40q-61 0 -100 40t-39 99zM551 1337q0 59 38.5 99.5t100.5 40.5q59 0 99 -41t40 -99q0 -59 -39.5 -99t-99.5 -40q-62 0 -100.5 39.5t-38.5 99.5z" />
<glyph unicode="&#xa9;" horiz-adv-x="1617" d="M72 713q0 155 55.5 293t152.5 237.5t234 158t293 58.5q210 0 379.5 -99t263.5 -269.5t94 -378.5q0 -206 -94 -375.5t-263 -268t-378 -98.5t-378.5 98.5t-264 268t-94.5 375.5zM260 717q0 -165 68.5 -296t194.5 -205.5t286 -74.5t285.5 74.5t193.5 205.5t68 296 q0 248 -152.5 409.5t-396.5 161.5q-241 0 -394 -161.5t-153 -409.5zM440 715q0 168 105 280.5t270 112.5q191 0 303 -156l-149 -121q-61 82 -152 82q-76 0 -120 -55t-44 -143t44 -143.5t120 -55.5q91 0 152 82l149 -119q-109 -157 -303 -157q-165 0 -270 112.5t-105 280.5z " />
<glyph unicode="&#xaa;" horiz-adv-x="841" d="M70 885q0 120 85 193t226 73q98 0 172 -41v47q0 53 -37.5 84t-105.5 31q-108 0 -215 -58l-82 148q146 98 321 98q93 0 159.5 -23.5t104 -68t54 -100t16.5 -127.5v-508h-190l-15 49q-68 -68 -192 -68q-128 0 -214.5 73t-86.5 198zM283 891q0 -49 39 -79t100 -30 q60 0 98.5 29.5t38.5 79.5t-38.5 79t-98.5 29q-61 0 -100 -30.5t-39 -77.5z" />
<glyph unicode="&#xab;" horiz-adv-x="1003" d="M57 600l250 385h252l-250 -385l250 -383h-252zM442 600l250 385h252l-250 -385l250 -383h-252z" />
<glyph unicode="&#xad;" horiz-adv-x="755" d="M92 496v254h570v-254h-570z" />
<glyph unicode="&#xae;" horiz-adv-x="925" d="M33 1094q0 181 119 303.5t307 122.5q196 0 315 -121t119 -303q0 -178 -119 -301t-311 -123t-311 120t-119 302zM147 1094q0 -138 85.5 -228t230.5 -90q146 0 230.5 89.5t84.5 230.5q0 143 -85 230t-234 87q-143 0 -227.5 -88.5t-84.5 -230.5zM299 877v442h180 q72 0 116 -42t44 -101q0 -43 -20.5 -75.5t-49.5 -45.5l82 -178h-125l-63 153h-43v-153h-121zM420 1128h49q19 0 32 13t13 33t-13 31.5t-32 11.5h-49v-89z" />
<glyph unicode="&#xaf;" horiz-adv-x="911" d="M180 1235v207h549v-207h-549z" />
<glyph unicode="&#xb0;" horiz-adv-x="774" d="M55 1135q0 138 94 231.5t238 93.5q143 0 236.5 -93t93.5 -230q0 -138 -92.5 -230t-237.5 -92t-238.5 92t-93.5 228zM258 1137q0 -58 35.5 -94.5t93.5 -36.5q61 0 95 36t34 95q0 56 -35.5 93.5t-93.5 37.5t-93.5 -37.5t-35.5 -93.5z" />
<glyph unicode="&#xb2;" horiz-adv-x="737" d="M68 1229q11 37 31 71.5t54 70.5t88 57.5t121 21.5q131 0 216.5 -71t85.5 -195q0 -59 -31.5 -110t-79 -87.5t-96.5 -67.5t-90 -62.5t-52 -59.5h359v-176h-598v86q0 57 27.5 110t68 91t88.5 76t88.5 66.5t68 62t27.5 63.5q0 38 -24 61t-66 23q-81 0 -116 -93z" />
<glyph unicode="&#xb3;" horiz-adv-x="731" d="M63 823q28 11 84 31.5t84 32.5q38 -94 123 -94q44 0 71.5 25.5t27.5 68.5q0 45 -32 70.5t-85 25.5h-92v139l133 135h-277v177h541v-140l-182 -182q91 -11 151 -74t60 -164q0 -128 -87.5 -199t-220.5 -71q-67 0 -122 21.5t-89.5 56.5t-55 69.5t-32.5 71.5z" />
<glyph unicode="&#xb4;" horiz-adv-x="989" d="M276 1190l138 295h297l-199 -295h-236z" />
<glyph unicode="&#xb6;" horiz-adv-x="1116" d="M74 1049q0 164 111.5 274.5t275.5 110.5h217v-1526h-219v754q-163 2 -274 112.5t-111 274.5zM801 -92v1526h219v-1526h-219z" />
<glyph unicode="&#xb7;" horiz-adv-x="509" d="M80 641q0 73 50.5 124.5t123.5 51.5t123.5 -51.5t50.5 -124.5q0 -71 -50.5 -121.5t-123.5 -50.5t-123.5 50.5t-50.5 121.5z" />
<glyph unicode="&#xb8;" horiz-adv-x="911" d="M270 -459l33 146q44 -11 68 -11q38 0 63 17.5t25 50.5q0 31 -30 47t-73 16l-34 -4l32 222h148l-17 -105q73 -15 114.5 -67t41.5 -121q0 -97 -72 -153t-180 -56q-59 0 -119 18z" />
<glyph unicode="&#xb9;" horiz-adv-x="585" d="M84 1372l176 62h176v-813h-213v604l-86 -33z" />
<glyph unicode="&#xba;" horiz-adv-x="983" d="M57 1034q0 184 124 305t311 121q190 0 311 -120t121 -304q0 -182 -124 -302t-311 -120q-188 0 -310 119t-122 301zM274 1034q0 -101 60.5 -165t154.5 -64q95 0 157.5 65.5t62.5 165.5q0 102 -62.5 167t-157.5 65t-155 -65.5t-60 -168.5z" />
<glyph unicode="&#xbb;" horiz-adv-x="1003" d="M57 217l250 383l-250 385h252l250 -385l-250 -383h-252zM442 217l250 383l-250 385h252l250 -385l-250 -383h-252z" />
<glyph unicode="&#xbc;" horiz-adv-x="1701" d="M102 1372l177 62h176v-813h-213v604l-86 -33zM330 -84l766 1602h243l-768 -1602h-241zM961 150v157l358 506h233v-483h90v-180h-90v-150h-213v150h-378zM1161 330h178v262z" />
<glyph unicode="&#xbd;" horiz-adv-x="1726" d="M102 1372l177 62h176v-813h-213v604l-86 -33zM299 -84l766 1602h244l-768 -1602h-242zM1028 608q11 37 31.5 72t54.5 70.5t88 57t121 21.5q130 0 215.5 -71t85.5 -195q0 -59 -31.5 -110t-79 -87.5t-96 -67.5t-89.5 -62.5t-52 -59.5h358v-176h-598v86q0 50 20.5 96 t53 81.5t71.5 68t78.5 61t72 54.5t53 54t20.5 54q0 38 -24 61t-66 23q-83 0 -117 -92z" />
<glyph unicode="&#xbe;" horiz-adv-x="1794" d="M74 823q27 11 84 31.5t84 32.5q38 -94 123 -94q44 0 71 25.5t27 68.5q0 45 -32 70.5t-85 25.5h-92v139l133 135h-276v177h540v-140l-182 -182q91 -11 151 -74t60 -164q0 -128 -87.5 -199t-219.5 -71q-67 0 -122 21.5t-89.5 56.5t-55 69.5t-32.5 71.5zM424 -84l766 1602 h244l-768 -1602h-242zM1036 150v157l359 506h233v-483h90v-180h-90v-150h-213v150h-379zM1237 330h178v262z" />
<glyph unicode="&#xbf;" horiz-adv-x="987" d="M59 57q0 62 19 117.5t49 96t66.5 77.5t73 69.5t66.5 64.5t49 69.5t19 77.5v84h275v-101q0 -56 -18 -106t-47 -87t-64 -71.5t-70 -65.5t-64 -62t-47 -68.5t-18 -77.5q0 -63 47 -108.5t125 -45.5q127 0 182 127l226 -100q-13 -37 -33 -73.5t-55.5 -76t-79 -69t-107.5 -49 t-137 -19.5q-199 0 -328 111.5t-129 285.5zM365 975q0 71 50.5 121.5t123.5 50.5t123.5 -50.5t50.5 -121.5q0 -73 -50.5 -124.5t-123.5 -51.5t-123.5 51.5t-50.5 124.5z" />
<glyph unicode="&#xc0;" horiz-adv-x="1351" d="M16 0l508 1434h303l508 -1434h-291l-124 369h-488l-125 -369h-291zM367 1806h297l137 -295h-236zM510 608h334l-168 516z" />
<glyph unicode="&#xc1;" horiz-adv-x="1351" d="M16 0l508 1434h303l508 -1434h-291l-124 369h-488l-125 -369h-291zM510 608h334l-168 516zM537 1511l137 295h297l-199 -295h-235z" />
<glyph unicode="&#xc2;" horiz-adv-x="1351" d="M16 0l508 1434h303l508 -1434h-291l-124 369h-488l-125 -369h-291zM336 1513l194 287h291l195 -287h-240l-100 146l-101 -146h-239zM510 608h334l-168 516z" />
<glyph unicode="&#xc3;" horiz-adv-x="1351" d="M16 0l508 1434h303l508 -1434h-291l-124 369h-488l-125 -369h-291zM315 1522q0 123 62.5 198.5t163.5 75.5q48 0 97 -19t89 -38t66 -19q30 0 47.5 21t17.5 57h178q0 -125 -60.5 -199.5t-160.5 -74.5q-59 0 -142.5 37.5t-113.5 37.5q-31 0 -48 -20t-17 -57h-179zM510 608 h334l-168 516z" />
<glyph unicode="&#xc4;" horiz-adv-x="1351" d="M16 0l508 1434h303l508 -1434h-291l-124 369h-488l-125 -369h-291zM340 1663q0 58 39.5 98.5t99.5 40.5q59 0 99 -40.5t40 -98.5q0 -59 -39.5 -99t-99.5 -40q-61 0 -100 40t-39 99zM510 608h334l-168 516zM733 1663q0 58 38.5 98.5t100.5 40.5q59 0 99.5 -40.5 t40.5 -98.5q0 -59 -40 -99t-100 -40q-62 0 -100.5 39.5t-38.5 99.5z" />
<glyph unicode="&#xc5;" horiz-adv-x="1351" d="M16 0l508 1434h303l508 -1434h-291l-124 369h-488l-125 -369h-291zM457 1700q0 90 62 146.5t155 56.5q96 0 158.5 -56t62.5 -145q0 -90 -62.5 -147.5t-158.5 -57.5q-93 0 -155 57t-62 146zM510 608h334l-168 516zM598 1700q0 -35 21.5 -57.5t56.5 -22.5t56.5 22.5 t21.5 59.5q0 34 -21.5 56t-56.5 22t-56.5 -22.5t-21.5 -57.5z" />
<glyph unicode="&#xc6;" horiz-adv-x="1755" d="M16 0l748 1434h881v-260h-447v-320h383v-256h-383v-340h465v-258h-754v369h-393l-186 -369h-314zM623 608h286v545h-10z" />
<glyph unicode="&#xc7;" horiz-adv-x="1306" d="M61 717q0 156 56.5 293.5t155 236.5t238 156t298.5 57q249 0 426 -131l-82 -254q-66 46 -156 80.5t-188 34.5q-194 0 -320.5 -135t-126.5 -338q0 -206 126 -339.5t321 -133.5q188 0 356 116l82 -251q-186 -136 -438 -136l-29 2l-8 -55q73 -15 114.5 -67t41.5 -121 q0 -97 -72 -153t-180 -56q-59 0 -119 18l33 146q44 -11 67 -11q38 0 63 17.5t25 50.5q0 32 -29.5 47.5t-72.5 15.5l-35 -4l27 187q-261 54 -417.5 253t-156.5 474z" />
<glyph unicode="&#xc8;" horiz-adv-x="985" d="M137 0v1434h737v-260h-448v-320h385v-256h-385v-340h467v-258h-756zM240 1806h297l137 -295h-236z" />
<glyph unicode="&#xc9;" horiz-adv-x="985" d="M137 0v1434h737v-260h-448v-320h385v-256h-385v-340h467v-258h-756zM365 1511l137 295h297l-199 -295h-235z" />
<glyph unicode="&#xca;" horiz-adv-x="985" d="M137 0v1434h737v-260h-448v-320h385v-256h-385v-340h467v-258h-756zM174 1513l195 287h290l195 -287h-240l-100 146l-100 -146h-240z" />
<glyph unicode="&#xcb;" horiz-adv-x="985" d="M137 0v1434h737v-260h-448v-320h385v-256h-385v-340h467v-258h-756zM180 1663q0 58 39.5 98.5t99.5 40.5q59 0 99.5 -40.5t40.5 -98.5q0 -59 -40 -99t-100 -40q-61 0 -100 40t-39 99zM573 1663q0 58 39 98.5t101 40.5q59 0 99 -40.5t40 -98.5q0 -59 -39.5 -99t-99.5 -40 q-62 0 -101 40t-39 99z" />
<glyph unicode="&#xcc;" horiz-adv-x="563" d="M4 1806h297l137 -295h-235zM137 0v1434h289v-1434h-289z" />
<glyph unicode="&#xcd;" horiz-adv-x="563" d="M137 0v1434h289v-1434h-289zM141 1511l138 295h296l-198 -295h-236z" />
<glyph unicode="&#xce;" horiz-adv-x="563" d="M-53 1513l194 287h291l195 -287h-240l-100 146l-101 -146h-239zM137 0v1434h289v-1434h-289z" />
<glyph unicode="&#xcf;" horiz-adv-x="563" d="M-41 1663q0 58 39.5 98.5t99.5 40.5q59 0 99.5 -40.5t40.5 -98.5q0 -59 -40 -99t-100 -40q-61 0 -100 40t-39 99zM137 0v1434h289v-1434h-289zM352 1663q0 58 39 98.5t101 40.5q59 0 99 -40.5t40 -98.5q0 -59 -39.5 -99t-99.5 -40q-62 0 -101 40t-39 99z" />
<glyph unicode="&#xd0;" horiz-adv-x="1363" d="M45 594v254h115v586h379q354 0 557.5 -190.5t203.5 -526.5q0 -341 -203.5 -529t-557.5 -188h-379v594h-115zM449 250h102q207 0 327.5 120t120.5 347q0 222 -121 343.5t-327 121.5h-102v-334h223v-254h-223v-344z" />
<glyph unicode="&#xd1;" horiz-adv-x="1460" d="M135 0v1434h293l612 -979v979h285v-1434h-287l-618 971v-971h-285zM377 1522q0 123 62 198.5t163 75.5q48 0 97 -19t89 -38t66 -19q31 0 48.5 21t17.5 57h178q0 -125 -60.5 -199.5t-160.5 -74.5q-59 0 -142.5 37.5t-113.5 37.5q-31 0 -48.5 -20t-17.5 -57h-178z" />
<glyph unicode="&#xd2;" horiz-adv-x="1613" d="M61 717q0 208 94 377t265 267.5t387 98.5t387 -98.5t264.5 -267.5t93.5 -377q0 -157 -55 -294t-152 -236.5t-236.5 -156.5t-301.5 -57q-216 0 -387 97.5t-265 267.5t-94 379zM362 717q0 -206 126 -339.5t319 -133.5t318.5 133.5t125.5 339.5q0 203 -125.5 338t-318.5 135 t-319 -135t-126 -338zM510 1806h297l137 -295h-235z" />
<glyph unicode="&#xd3;" horiz-adv-x="1613" d="M61 717q0 208 94 377t265 267.5t387 98.5t387 -98.5t264.5 -267.5t93.5 -377q0 -157 -55 -294t-152 -236.5t-236.5 -156.5t-301.5 -57q-216 0 -387 97.5t-265 267.5t-94 379zM362 717q0 -206 126 -339.5t319 -133.5t318.5 133.5t125.5 339.5q0 203 -125.5 338t-318.5 135 t-319 -135t-126 -338zM662 1511l137 295h297l-199 -295h-235z" />
<glyph unicode="&#xd4;" horiz-adv-x="1613" d="M61 717q0 208 94 377t265 267.5t387 98.5t387 -98.5t264.5 -267.5t93.5 -377q0 -157 -55 -294t-152 -236.5t-236.5 -156.5t-301.5 -57q-216 0 -387 97.5t-265 267.5t-94 379zM362 717q0 -206 126 -339.5t319 -133.5t318.5 133.5t125.5 339.5q0 203 -125.5 338t-318.5 135 t-319 -135t-126 -338zM473 1513l195 287h290l195 -287h-240l-100 146l-100 -146h-240z" />
<glyph unicode="&#xd5;" horiz-adv-x="1613" d="M61 717q0 208 94 377t265 267.5t387 98.5t387 -98.5t264.5 -267.5t93.5 -377q0 -157 -55 -294t-152 -236.5t-236.5 -156.5t-301.5 -57q-216 0 -387 97.5t-265 267.5t-94 379zM362 717q0 -206 126 -339.5t319 -133.5t318.5 133.5t125.5 339.5q0 203 -125.5 338t-318.5 135 t-319 -135t-126 -338zM449 1522q0 123 62 198.5t163 75.5q48 0 97 -19t89 -38t66 -19q30 0 47.5 21t17.5 57h178q0 -125 -60.5 -199.5t-160.5 -74.5q-59 0 -142.5 37.5t-113.5 37.5q-31 0 -48 -20t-17 -57h-178z" />
<glyph unicode="&#xd6;" horiz-adv-x="1615" d="M61 717q0 208 94 377t265 267.5t387 98.5t387 -98.5t264.5 -267.5t93.5 -377q0 -157 -55 -294t-152 -236.5t-236.5 -156.5t-301.5 -57q-216 0 -387 97.5t-265 267.5t-94 379zM362 717q0 -206 126 -339.5t319 -133.5t318.5 133.5t125.5 339.5q0 203 -125.5 338t-318.5 135 t-319 -135t-126 -338zM477 1663q0 58 39.5 98.5t99.5 40.5q59 0 99.5 -40.5t40.5 -98.5q0 -59 -40 -99t-100 -40q-61 0 -100 40t-39 99zM870 1663q0 58 39 98.5t101 40.5q59 0 99 -40.5t40 -98.5q0 -59 -39.5 -99t-99.5 -40q-62 0 -101 40t-39 99z" />
<glyph unicode="&#xd7;" horiz-adv-x="1083" d="M68 301l315 334l-315 334l159 159l312 -331l311 331l160 -159l-316 -334l316 -334l-160 -160l-311 332l-312 -332z" />
<glyph unicode="&#xd8;" horiz-adv-x="1613" d="M61 717q0 208 94 377t265 267.5t387 98.5q208 0 383 -96l94 119l156 -123l-94 -117q99 -100 152.5 -236t53.5 -290q0 -157 -55 -294t-152 -236.5t-236.5 -156.5t-301.5 -57q-217 0 -391 99l-97 -121l-153 123l96 121q-96 99 -148.5 233.5t-52.5 288.5zM362 717 q0 -165 84 -289l566 713q-93 49 -205 49q-193 0 -319 -135t-126 -338zM594 295q94 -51 213 -51q193 0 318.5 133.5t125.5 339.5q0 167 -90 293z" />
<glyph unicode="&#xd9;" horiz-adv-x="1417" d="M131 539v895h289v-895q0 -138 76 -217.5t213 -79.5t212.5 79.5t75.5 217.5v895h289v-895q0 -258 -151.5 -412t-425.5 -154t-426 154t-152 412zM420 1806h297l137 -295h-236z" />
<glyph unicode="&#xda;" horiz-adv-x="1417" d="M131 539v895h289v-895q0 -138 76 -217.5t213 -79.5t212.5 79.5t75.5 217.5v895h289v-895q0 -258 -151.5 -412t-425.5 -154t-426 154t-152 412zM573 1511l138 295h297l-199 -295h-236z" />
<glyph unicode="&#xdb;" horiz-adv-x="1417" d="M131 539v895h289v-895q0 -138 76 -217.5t213 -79.5t212.5 79.5t75.5 217.5v895h289v-895q0 -258 -151.5 -412t-425.5 -154t-426 154t-152 412zM369 1513l194 287h291l195 -287h-240l-100 146l-101 -146h-239z" />
<glyph unicode="&#xdc;" horiz-adv-x="1417" d="M131 539v895h289v-895q0 -138 76 -217.5t213 -79.5t212.5 79.5t75.5 217.5v895h289v-895q0 -258 -151.5 -412t-425.5 -154t-426 154t-152 412zM379 1663q0 58 39.5 98.5t99.5 40.5q59 0 99 -40.5t40 -98.5q0 -59 -39.5 -99t-99.5 -40q-61 0 -100 40t-39 99zM772 1663 q0 58 38.5 98.5t100.5 40.5q59 0 99.5 -40.5t40.5 -98.5q0 -59 -40 -99t-100 -40q-62 0 -100.5 39.5t-38.5 99.5z" />
<glyph unicode="&#xdd;" horiz-adv-x="1196" d="M14 1434h326l258 -514l258 514h326l-441 -779v-655h-286v655zM467 1511l137 295h297l-199 -295h-235z" />
<glyph unicode="&#xde;" horiz-adv-x="1110" d="M137 0v1434h289v-252h168q211 0 341 -122.5t130 -324.5q0 -198 -132.5 -325t-336.5 -127h-170v-283h-289zM426 532h129q95 0 154 56t59 147q0 88 -58.5 142.5t-150.5 54.5h-133v-400z" />
<glyph unicode="&#xdf;" horiz-adv-x="1146" d="M111 0v1110q0 99 33.5 172.5t93 115.5t134 62.5t163.5 20.5q212 0 327 -89t115 -251q0 -83 -40.5 -147t-92.5 -93q254 -124 254 -407q0 -225 -159.5 -359.5t-422.5 -134.5v238q138 0 218.5 68.5t80.5 189.5q0 125 -84.5 188.5t-214.5 63.5v225q86 0 135 37t49 104 q0 54 -41 91.5t-114 37.5t-112.5 -39t-39.5 -110v-1094h-282z" />
<glyph unicode="&#xe0;" horiz-adv-x="1077" d="M49 332q0 159 114.5 256.5t301.5 97.5q75 0 136 -17.5t95 -41.5v69q0 72 -51 115t-143 43q-137 0 -285 -76l-106 193q78 54 191.5 90.5t229.5 36.5q125 0 214 -31t139 -89.5t72 -131.5t22 -168v-678h-250l-18 70q-90 -97 -260 -97q-169 0 -285.5 98t-116.5 261zM260 1485 h297l137 -295h-235zM332 340q0 -65 53 -106t133 -41q81 0 132.5 40t51.5 107q0 69 -51.5 109t-134.5 40q-82 0 -133 -41.5t-51 -107.5z" />
<glyph unicode="&#xe1;" horiz-adv-x="1077" d="M49 332q0 159 114.5 256.5t301.5 97.5q75 0 136 -17.5t95 -41.5v69q0 72 -51 115t-143 43q-137 0 -285 -76l-106 193q78 54 191.5 90.5t229.5 36.5q125 0 214 -31t139 -89.5t72 -131.5t22 -168v-678h-250l-18 70q-90 -97 -260 -97q-169 0 -285.5 98t-116.5 261zM332 340 q0 -65 53 -106t133 -41q81 0 132.5 40t51.5 107q0 69 -51.5 109t-134.5 40q-82 0 -133 -41.5t-51 -107.5zM399 1190l138 295h297l-199 -295h-236z" />
<glyph unicode="&#xe2;" horiz-adv-x="1077" d="M49 332q0 159 114.5 256.5t301.5 97.5q75 0 136 -17.5t95 -41.5v69q0 72 -51 115t-143 43q-137 0 -285 -76l-106 193q78 54 191.5 90.5t229.5 36.5q125 0 214 -31t139 -89.5t72 -131.5t22 -168v-678h-250l-18 70q-90 -97 -260 -97q-169 0 -285.5 98t-116.5 261zM199 1196 l194 287h291l195 -287h-240l-100 145l-101 -145h-239zM332 340q0 -65 53 -106t133 -41q81 0 132.5 40t51.5 107q0 69 -51.5 109t-134.5 40q-82 0 -133 -41.5t-51 -107.5z" />
<glyph unicode="&#xe3;" horiz-adv-x="1077" d="M49 332q0 159 114.5 256.5t301.5 97.5q75 0 136 -17.5t95 -41.5v69q0 72 -51 115t-143 43q-137 0 -285 -76l-106 193q78 54 191.5 90.5t229.5 36.5q125 0 214 -31t139 -89.5t72 -131.5t22 -168v-678h-250l-18 70q-90 -97 -260 -97q-169 0 -285.5 98t-116.5 261zM168 1200 q0 123 62 199t163 76q48 0 97 -19t89 -38t66 -19q31 0 48.5 21t17.5 57h178q0 -126 -60.5 -200.5t-160.5 -74.5q-59 0 -142.5 38t-113.5 38q-31 0 -48.5 -20.5t-17.5 -57.5h-178zM332 340q0 -65 53 -106t133 -41q81 0 132.5 40t51.5 107q0 69 -51.5 109t-134.5 40 q-82 0 -133 -41.5t-51 -107.5z" />
<glyph unicode="&#xe4;" horiz-adv-x="1077" d="M49 332q0 159 114.5 256.5t301.5 97.5q75 0 136 -17.5t95 -41.5v69q0 72 -51 115t-143 43q-137 0 -285 -76l-106 193q78 54 191.5 90.5t229.5 36.5q125 0 214 -31t139 -89.5t72 -131.5t22 -168v-678h-250l-18 70q-90 -97 -260 -97q-169 0 -285.5 98t-116.5 261zM213 1337 q0 58 39.5 99t99.5 41q59 0 99.5 -41t40.5 -99q0 -59 -40 -99t-100 -40q-61 0 -100 40t-39 99zM332 340q0 -65 53 -106t133 -41q81 0 132.5 40t51.5 107q0 69 -51.5 109t-134.5 40q-82 0 -133 -41.5t-51 -107.5zM606 1337q0 59 38.5 99.5t100.5 40.5q59 0 99.5 -41t40.5 -99 q0 -59 -40 -99t-100 -40q-62 0 -100.5 39.5t-38.5 99.5z" />
<glyph unicode="&#xe5;" horiz-adv-x="1077" d="M49 332q0 159 114.5 256.5t301.5 97.5q75 0 136 -17.5t95 -41.5v69q0 72 -51 115t-143 43q-137 0 -285 -76l-106 193q78 54 191.5 90.5t229.5 36.5q125 0 214 -31t139 -89.5t72 -131.5t22 -168v-678h-250l-18 70q-90 -97 -260 -97q-169 0 -285.5 98t-116.5 261zM330 1358 q0 90 62 146.5t155 56.5q96 0 158.5 -56t62.5 -145q0 -90 -62.5 -147.5t-158.5 -57.5q-93 0 -155 57t-62 146zM332 340q0 -65 53 -106t133 -41q81 0 132.5 40t51.5 107q0 69 -51.5 109t-134.5 40q-82 0 -133 -41.5t-51 -107.5zM471 1358q0 -35 21.5 -57.5t56.5 -22.5 t56.5 22.5t21.5 59.5q0 34 -21.5 56t-56.5 22t-56.5 -22.5t-21.5 -57.5z" />
<glyph unicode="&#xe6;" horiz-adv-x="1781" d="M49 332q0 159 114.5 256.5t301.5 97.5q75 0 136 -17.5t95 -41.5v69q0 72 -51 115t-143 43q-137 0 -285 -76q-22 37 -59.5 106.5t-46.5 86.5q192 127 421 127q238 0 342 -135q135 135 338 135q248 0 385.5 -153.5t137.5 -418.5q0 -41 -2 -61h-754q5 -108 82 -177t196 -69 q96 0 162 41.5t99 89.5l186 -141q-14 -26 -37 -54t-63.5 -61.5t-88.5 -59.5t-117 -43.5t-145 -17.5q-136 0 -245.5 46t-180.5 133q-115 -179 -376 -179q-169 0 -285.5 98t-116.5 261zM332 340q0 -65 53 -106t133 -41t131 40t51 107q0 69 -50.5 109t-133.5 40 q-82 0 -133 -41.5t-51 -107.5zM987 649h459q-4 98 -67.5 157.5t-161.5 59.5q-96 0 -158.5 -61t-71.5 -156z" />
<glyph unicode="&#xe7;" horiz-adv-x="1003" d="M51 532q0 161 74 290.5t204.5 202.5t291.5 73q185 0 337 -115l-79 -238q-113 103 -250 103q-133 0 -214 -90t-81 -223q0 -137 86 -224.5t219 -87.5q126 0 242 96l75 -231q-143 -115 -333 -115l-9 -53q73 -15 114.5 -67t41.5 -121q0 -97 -72 -153t-180 -56q-59 0 -119 18 l33 146q44 -11 68 -11q38 0 63 17.5t25 50.5q0 31 -30 47t-73 16l-34 -4l26 187q-193 41 -309.5 188.5t-116.5 353.5z" />
<glyph unicode="&#xe8;" horiz-adv-x="1144" d="M53 532q0 160 67 289.5t187.5 203t270.5 73.5q247 0 383.5 -153.5t136.5 -418.5q0 -41 -2 -61h-754q5 -108 83 -177t196 -69q96 0 161.5 41.5t98.5 89.5l186 -141q-14 -26 -37 -54t-63.5 -61.5t-88.5 -59.5t-117 -43.5t-145 -17.5q-169 0 -297.5 72.5t-197 199 t-68.5 287.5zM297 1485h297l137 -295h-235zM350 649h461q-4 98 -68 157.5t-161 59.5t-160 -61t-72 -156z" />
<glyph unicode="&#xe9;" horiz-adv-x="1144" d="M53 532q0 160 67 289.5t187.5 203t270.5 73.5q247 0 383.5 -153.5t136.5 -418.5q0 -41 -2 -61h-754q5 -108 83 -177t196 -69q96 0 161.5 41.5t98.5 89.5l186 -141q-14 -26 -37 -54t-63.5 -61.5t-88.5 -59.5t-117 -43.5t-145 -17.5q-169 0 -297.5 72.5t-197 199 t-68.5 287.5zM350 649h461q-4 98 -68 157.5t-161 59.5t-160 -61t-72 -156zM432 1190l137 295h297l-198 -295h-236z" />
<glyph unicode="&#xea;" horiz-adv-x="1144" d="M53 532q0 160 67 289.5t187.5 203t270.5 73.5q247 0 383.5 -153.5t136.5 -418.5q0 -41 -2 -61h-754q5 -108 83 -177t196 -69q96 0 161.5 41.5t98.5 89.5l186 -141q-14 -26 -37 -54t-63.5 -61.5t-88.5 -59.5t-117 -43.5t-145 -17.5q-169 0 -297.5 72.5t-197 199 t-68.5 287.5zM248 1196l194 287h291l195 -287h-240l-100 145l-101 -145h-239zM350 649h461q-4 98 -68 157.5t-161 59.5t-160 -61t-72 -156z" />
<glyph unicode="&#xeb;" horiz-adv-x="1144" d="M53 532q0 160 67 289.5t187.5 203t270.5 73.5q247 0 383.5 -153.5t136.5 -418.5q0 -41 -2 -61h-754q5 -108 83 -177t196 -69q96 0 161.5 41.5t98.5 89.5l186 -141q-14 -26 -37 -54t-63.5 -61.5t-88.5 -59.5t-117 -43.5t-145 -17.5q-169 0 -297.5 72.5t-197 199 t-68.5 287.5zM254 1337q0 58 39.5 99t99.5 41q59 0 99 -41t40 -99q0 -59 -39.5 -99t-99.5 -40q-61 0 -100 40t-39 99zM350 649h461q-4 98 -68 157.5t-161 59.5t-160 -61t-72 -156zM647 1337q0 59 38.5 99.5t100.5 40.5q59 0 99.5 -41t40.5 -99q0 -59 -40 -99t-100 -40 q-62 0 -100.5 39.5t-38.5 99.5z" />
<glyph unicode="&#xec;" d="M-29 1485h297l138 -295h-236zM111 0v1071h282v-1071h-282z" />
<glyph unicode="&#xed;" d="M98 1190l138 295h296l-198 -295h-236zM111 0v1071h282v-1071h-282z" />
<glyph unicode="&#xee;" d="M-80 1196l195 287h291l194 -287h-240l-100 145l-100 -145h-240zM111 0v1071h282v-1071h-282z" />
<glyph unicode="&#xef;" d="M-76 1337q0 58 39.5 99t99.5 41q59 0 99.5 -41t40.5 -99q0 -59 -40 -99t-100 -40q-61 0 -100 40t-39 99zM111 0v1071h282v-1071h-282zM317 1337q0 58 39 99t101 41q59 0 99 -41t40 -99q0 -59 -39.5 -99t-99.5 -40q-62 0 -101 40t-39 99z" />
<glyph unicode="&#xf0;" horiz-adv-x="1204" d="M51 512q0 150 69 268t184.5 181t254.5 63q67 0 121 -16q-47 73 -129 133l-326 -117l-24 178l186 70q-66 47 -174 110l162 142q131 -56 287 -158l270 102l26 -184l-143 -53q330 -295 330 -666q0 -95 -20 -181t-63.5 -161.5t-107 -130.5t-156 -87t-204.5 -32 q-162 0 -287 73t-190.5 195t-65.5 271zM334 512q0 -124 70 -207.5t188 -83.5q131 0 200.5 84t69.5 215q0 113 -72 193t-186 80q-126 0 -198 -79.5t-72 -201.5z" />
<glyph unicode="&#xf1;" horiz-adv-x="1146" d="M111 0v1071h276v-125q38 62 114 107t173 45q88 0 155 -28.5t107 -74.5t65 -111t34 -128.5t9 -137.5v-618h-282v651q0 87 -52 140t-126 53q-86 0 -138.5 -56.5t-52.5 -144.5v-643h-282zM217 1200q0 123 62 199t163 76q48 0 97 -19t89 -38t66 -19q31 0 48.5 21t17.5 57h178 q0 -126 -60.5 -200.5t-160.5 -74.5q-59 0 -142.5 38t-113.5 38q-31 0 -48.5 -20.5t-17.5 -57.5h-178z" />
<glyph unicode="&#xf2;" horiz-adv-x="1255" d="M51 532q0 160 75.5 290t207.5 203t293 73q162 0 294 -73.5t207.5 -203t75.5 -289.5q0 -243 -162.5 -401t-414.5 -158q-250 0 -413 158t-163 401zM330 1485h297l137 -295h-236zM334 532q0 -136 83 -222.5t210 -86.5q128 0 211.5 86.5t83.5 222.5q0 137 -84 226.5 t-211 89.5q-128 0 -210.5 -89t-82.5 -227z" />
<glyph unicode="&#xf3;" horiz-adv-x="1255" d="M51 532q0 160 75.5 290t207.5 203t293 73q162 0 294 -73.5t207.5 -203t75.5 -289.5q0 -243 -162.5 -401t-414.5 -158q-250 0 -413 158t-163 401zM334 532q0 -136 83 -222.5t210 -86.5q128 0 211.5 86.5t83.5 222.5q0 137 -84 226.5t-211 89.5q-128 0 -210.5 -89 t-82.5 -227zM477 1190l137 295h297l-198 -295h-236z" />
<glyph unicode="&#xf4;" horiz-adv-x="1255" d="M51 532q0 160 75.5 290t207.5 203t293 73q162 0 294 -73.5t207.5 -203t75.5 -289.5q0 -243 -162.5 -401t-414.5 -158q-250 0 -413 158t-163 401zM295 1196l194 287h291l195 -287h-240l-100 145l-100 -145h-240zM334 532q0 -136 83 -222.5t210 -86.5q128 0 211.5 86.5 t83.5 222.5q0 137 -84 226.5t-211 89.5q-128 0 -210.5 -89t-82.5 -227z" />
<glyph unicode="&#xf5;" horiz-adv-x="1255" d="M51 532q0 160 75.5 290t207.5 203t293 73q162 0 294 -73.5t207.5 -203t75.5 -289.5q0 -243 -162.5 -401t-414.5 -158q-250 0 -413 158t-163 401zM270 1200q0 123 62.5 199t163.5 76q48 0 97 -19t89 -38t66 -19q30 0 47.5 21t17.5 57h178q0 -126 -60.5 -200.5 t-160.5 -74.5q-59 0 -142.5 38t-113.5 38q-31 0 -48 -20.5t-17 -57.5h-179zM334 532q0 -136 83 -222.5t210 -86.5q128 0 211.5 86.5t83.5 222.5q0 137 -84 226.5t-211 89.5q-128 0 -210.5 -89t-82.5 -227z" />
<glyph unicode="&#xf6;" horiz-adv-x="1255" d="M51 532q0 160 75.5 290t207.5 203t293 73q162 0 294 -73.5t207.5 -203t75.5 -289.5q0 -243 -162.5 -401t-414.5 -158q-250 0 -413 158t-163 401zM299 1337q0 58 39.5 99t99.5 41q59 0 99.5 -41t40.5 -99q0 -59 -40 -99t-100 -40q-61 0 -100 40t-39 99zM334 532 q0 -136 83 -222.5t210 -86.5q128 0 211.5 86.5t83.5 222.5q0 137 -84 226.5t-211 89.5q-128 0 -210.5 -89t-82.5 -227zM692 1337q0 59 38.5 99.5t100.5 40.5q59 0 99.5 -41t40.5 -99q0 -59 -40 -99t-100 -40q-62 0 -100.5 39.5t-38.5 99.5z" />
<glyph unicode="&#xf7;" horiz-adv-x="1128" d="M76 524v228h977v-228h-977zM418 246q0 62 42 104.5t103 42.5q62 0 105 -43t43 -104q0 -59 -43.5 -102.5t-104.5 -43.5t-103 43.5t-42 102.5zM418 1026q0 62 42 106t103 44t104.5 -44t43.5 -106q0 -59 -43.5 -101t-104.5 -42t-103 42t-42 101z" />
<glyph unicode="&#xf8;" horiz-adv-x="1255" d="M51 532q0 160 75.5 290t207.5 203t293 73q153 0 284 -70l78 98l135 -104l-75 -96q74 -77 114.5 -178t40.5 -216q0 -243 -162.5 -401t-414.5 -158q-153 0 -281 64l-80 -103l-133 105l76 96q-158 161 -158 397zM334 532q0 -104 47 -178l369 467q-62 27 -123 27 q-128 0 -210.5 -89t-82.5 -227zM512 244q52 -21 115 -21q128 0 211.5 86.5t83.5 222.5q0 99 -45 175z" />
<glyph unicode="&#xf9;" horiz-adv-x="1138" d="M102 453v618h283v-651q0 -87 52 -140t126 -53q86 0 138.5 56.5t52.5 144.5v643h282v-1071h-276v125q-38 -62 -114 -107t-173 -45q-88 0 -155.5 28.5t-107.5 74.5t-65 111t-34 128.5t-9 137.5zM293 1485h297l137 -295h-235z" />
<glyph unicode="&#xfa;" horiz-adv-x="1138" d="M102 453v618h283v-651q0 -87 52 -140t126 -53q86 0 138.5 56.5t52.5 144.5v643h282v-1071h-276v125q-38 -62 -114 -107t-173 -45q-88 0 -155.5 28.5t-107.5 74.5t-65 111t-34 128.5t-9 137.5zM424 1190l137 295h297l-199 -295h-235z" />
<glyph unicode="&#xfb;" horiz-adv-x="1138" d="M102 453v618h283v-651q0 -87 52 -140t126 -53q86 0 138.5 56.5t52.5 144.5v643h282v-1071h-276v125q-38 -62 -114 -107t-173 -45q-88 0 -155.5 28.5t-107.5 74.5t-65 111t-34 128.5t-9 137.5zM236 1196l194 287h291l194 -287h-239l-101 145l-100 -145h-239z" />
<glyph unicode="&#xfc;" horiz-adv-x="1138" d="M102 453v618h283v-651q0 -87 52 -140t126 -53q86 0 138.5 56.5t52.5 144.5v643h282v-1071h-276v125q-38 -62 -114 -107t-173 -45q-88 0 -155.5 28.5t-107.5 74.5t-65 111t-34 128.5t-9 137.5zM246 1337q0 58 39.5 99t99.5 41q59 0 99 -41t40 -99q0 -59 -39.5 -99 t-99.5 -40q-61 0 -100 40t-39 99zM639 1337q0 59 38.5 99.5t100.5 40.5q59 0 99.5 -41t40.5 -99q0 -59 -40 -99t-100 -40q-62 0 -100.5 39.5t-38.5 99.5z" />
<glyph unicode="&#xfd;" horiz-adv-x="1105" d="M12 1071h303l240 -698l242 698h295l-547 -1438h-271l150 394zM416 1190l137 295h297l-199 -295h-235z" />
<glyph unicode="&#xfe;" horiz-adv-x="1271" d="M111 -383v1864h282v-506q117 123 301 123q230 0 377.5 -157.5t147.5 -403.5q0 -251 -139.5 -407.5t-368.5 -156.5q-64 0 -122 16t-97 40.5t-62.5 44.5t-36.5 37v-494h-282zM385 539q0 -147 77 -231.5t197 -84.5q123 0 199 88t76 228t-77 224.5t-198 84.5 q-125 0 -199.5 -88.5t-74.5 -220.5z" />
<glyph unicode="&#xff;" horiz-adv-x="1105" d="M12 1071h303l240 -698l242 698h295l-547 -1438h-271l150 394zM221 1337q0 58 39.5 99t99.5 41q59 0 99.5 -41t40.5 -99q0 -59 -40 -99t-100 -40q-61 0 -100 40t-39 99zM614 1337q0 58 39 99t101 41q59 0 99 -41t40 -99q0 -59 -39.5 -99t-99.5 -40q-62 0 -101 40t-39 99z " />
<glyph unicode="&#x100;" horiz-adv-x="1351" d="M16 0l508 1434h303l508 -1434h-291l-124 369h-488l-125 -369h-291zM401 1538v207h549v-207h-549zM510 608h334l-168 516z" />
<glyph unicode="&#x101;" horiz-adv-x="1077" d="M49 332q0 159 114.5 256.5t301.5 97.5q75 0 136 -17.5t95 -41.5v69q0 72 -51 115t-143 43q-137 0 -285 -76l-106 193q78 54 191.5 90.5t229.5 36.5q125 0 214 -31t139 -89.5t72 -131.5t22 -168v-678h-250l-18 70q-90 -97 -260 -97q-169 0 -285.5 98t-116.5 261zM272 1235 v207h549v-207h-549zM332 340q0 -65 53 -106t133 -41q81 0 132.5 40t51.5 107q0 69 -51.5 109t-134.5 40q-82 0 -133 -41.5t-51 -107.5z" />
<glyph unicode="&#x102;" horiz-adv-x="1351" d="M16 0l508 1434h303l508 -1434h-291l-124 369h-488l-125 -369h-291zM367 1810h202q0 -55 24.5 -91t82.5 -36q108 0 108 127h203q0 -131 -82 -211.5t-229 -80.5q-145 0 -227 81t-82 211zM510 608h334l-168 516z" />
<glyph unicode="&#x103;" horiz-adv-x="1077" d="M49 332q0 159 114.5 256.5t301.5 97.5q75 0 136 -17.5t95 -41.5v69q0 72 -51 115t-143 43q-137 0 -285 -76l-106 193q78 54 191.5 90.5t229.5 36.5q125 0 214 -31t139 -89.5t72 -131.5t22 -168v-678h-250l-18 70q-90 -97 -260 -97q-169 0 -285.5 98t-116.5 261zM225 1483 h203q0 -55 24.5 -91t82.5 -36q108 0 108 127h203q0 -131 -82 -212t-229 -81q-145 0 -227.5 81.5t-82.5 211.5zM332 340q0 -65 53 -106t133 -41q81 0 132.5 40t51.5 107q0 69 -51.5 109t-134.5 40q-82 0 -133 -41.5t-51 -107.5z" />
<glyph unicode="&#x104;" horiz-adv-x="1351" d="M16 0l508 1434h303l508 -1434q-13 -5 -28.5 -14t-36 -25t-34 -40.5t-13.5 -51.5q0 -38 32.5 -60t73.5 -22v-201q-28 -8 -72 -8q-52 0 -96 9t-84.5 30t-64 62.5t-23.5 99.5q0 77 49.5 135t108.5 86h-103l-124 369h-488l-125 -369h-291zM510 608h334l-168 516z" />
<glyph unicode="&#x105;" horiz-adv-x="1077" d="M49 332q0 159 114.5 256.5t301.5 97.5q75 0 136 -17.5t95 -41.5v69q0 72 -51 115t-143 43q-137 0 -285 -76l-106 193q78 54 191.5 90.5t229.5 36.5q125 0 214 -31t139 -89.5t72 -131.5t22 -168v-678q-13 -5 -28.5 -14t-36.5 -25t-34.5 -40.5t-13.5 -51.5q0 -38 33 -60 t74 -22v-201q-28 -8 -72 -8q-52 0 -96 9t-84.5 30t-64 62.5t-23.5 99.5q0 77 49.5 135t108.5 86h-62l-18 70q-90 -97 -260 -97q-169 0 -285.5 98t-116.5 261zM332 340q0 -65 53 -106t133 -41q81 0 132.5 40t51.5 107q0 69 -51.5 109t-134.5 40q-82 0 -133 -41.5t-51 -107.5z " />
<glyph unicode="&#x106;" horiz-adv-x="1306" d="M61 717q0 156 56.5 293.5t155 236.5t238 156t298.5 57q249 0 426 -131l-82 -254q-66 46 -156 80.5t-188 34.5q-194 0 -320.5 -135t-126.5 -338q0 -206 126 -339.5t321 -133.5q188 0 356 116l82 -251q-186 -136 -438 -136q-220 0 -391.5 98t-264 267t-92.5 379zM621 1511 l137 295h297l-199 -295h-235z" />
<glyph unicode="&#x107;" horiz-adv-x="1003" d="M51 532q0 161 74 290.5t204.5 202.5t291.5 73q185 0 337 -115l-79 -238q-113 103 -250 103q-133 0 -214 -90t-81 -223q0 -137 86 -224.5t219 -87.5q126 0 242 96l75 -231q-143 -115 -333 -115q-250 0 -411 157t-161 402zM438 1190l137 295h297l-198 -295h-236z" />
<glyph unicode="&#x108;" horiz-adv-x="1306" d="M61 717q0 156 56.5 293.5t155 236.5t238 156t298.5 57q249 0 426 -131l-82 -254q-66 46 -156 80.5t-188 34.5q-194 0 -320.5 -135t-126.5 -338q0 -206 126 -339.5t321 -133.5q188 0 356 116l82 -251q-186 -136 -438 -136q-220 0 -391.5 98t-264 267t-92.5 379zM463 1513 l194 287h291l195 -287h-240l-100 146l-101 -146h-239z" />
<glyph unicode="&#x109;" horiz-adv-x="1003" d="M51 532q0 161 74 290.5t204.5 202.5t291.5 73q185 0 337 -115l-79 -238q-113 103 -250 103q-133 0 -214 -90t-81 -223q0 -137 86 -224.5t219 -87.5q126 0 242 96l75 -231q-143 -115 -333 -115q-250 0 -411 157t-161 402zM270 1196l195 287h291l194 -287h-239l-101 145 l-100 -145h-240z" />
<glyph unicode="&#x10a;" horiz-adv-x="1306" d="M61 717q0 156 56.5 293.5t155 236.5t238 156t298.5 57q249 0 426 -131l-82 -254q-66 46 -156 80.5t-188 34.5q-194 0 -320.5 -135t-126.5 -338q0 -206 126 -339.5t321 -133.5q188 0 356 116l82 -251q-186 -136 -438 -136q-220 0 -391.5 98t-264 267t-92.5 379zM645 1657 q0 69 47.5 115.5t116.5 46.5q71 0 118.5 -46.5t47.5 -115.5t-47.5 -115.5t-118.5 -46.5q-69 0 -116.5 46.5t-47.5 115.5z" />
<glyph unicode="&#x10b;" horiz-adv-x="1003" d="M49 532q0 244 162 405t407 161q186 0 338 -115l-79 -238q-113 103 -250 103q-133 0 -214 -90t-81 -223q0 -137 86 -224.5t219 -87.5q126 0 242 96l75 -231q-143 -115 -333 -115q-250 0 -411 157t-161 402zM453 1329q0 69 47 115.5t116 46.5q71 0 118.5 -46.5t47.5 -115.5 t-47.5 -115.5t-118.5 -46.5q-69 0 -116 46.5t-47 115.5z" />
<glyph unicode="&#x10c;" horiz-adv-x="1306" d="M61 717q0 156 56.5 293.5t155 236.5t238 156t298.5 57q249 0 426 -131l-82 -254q-66 46 -156 80.5t-188 34.5q-194 0 -320.5 -135t-126.5 -338q0 -206 126 -339.5t321 -133.5q188 0 356 116l82 -251q-186 -136 -438 -136q-220 0 -391.5 98t-264 267t-92.5 379zM463 1800 h239l101 -145l100 145h240l-195 -287h-291z" />
<glyph unicode="&#x10d;" horiz-adv-x="1003" d="M51 532q0 161 74 290.5t204.5 202.5t291.5 73q185 0 337 -115l-79 -238q-113 103 -250 103q-133 0 -214 -90t-81 -223q0 -137 86 -224.5t219 -87.5q126 0 242 96l75 -231q-143 -115 -333 -115q-250 0 -411 157t-161 402zM264 1483h240l100 -146l101 146h239l-194 -287 h-291z" />
<glyph unicode="&#x10e;" horiz-adv-x="1341" d="M137 0v1434h381q353 0 556.5 -190.5t203.5 -526.5q0 -341 -203 -529t-557 -188h-381zM236 1800h239l100 -145l101 145h239l-194 -287h-291zM426 250h102q209 0 329 120t120 347q0 222 -121 343.5t-328 121.5h-102v-932z" />
<glyph unicode="&#x10f;" horiz-adv-x="1269" d="M51 535q0 250 139.5 406.5t368.5 156.5q64 0 122 -16t97 -40.5t62.5 -45t36.5 -38.5v523h282v-1481h-266v111q-15 -18 -38 -37t-62.5 -44t-96.5 -41t-121 -16q-230 0 -377 157.5t-147 404.5zM336 532q0 -141 76 -225t198 -84q125 0 200 88.5t75 220.5q0 147 -77.5 231.5 t-197.5 84.5q-123 0 -198.5 -88t-75.5 -228zM1225 1124l14 357h266l-94 -357h-186z" />
<glyph unicode="&#x110;" horiz-adv-x="1361" d="M45 594v254h115v586h379q354 0 556.5 -190.5t202.5 -526.5q0 -341 -202.5 -529t-556.5 -188h-379v594h-115zM449 250h102q207 0 327.5 120t120.5 347q0 222 -121 343.5t-327 121.5h-102v-334h223v-254h-223v-344z" />
<glyph unicode="&#x111;" horiz-adv-x="1269" d="M51 535q0 250 139.5 406.5t368.5 156.5q64 0 122 -16t97 -40.5t62.5 -45t36.5 -38.5v207h-261v183h261v133h282v-133h119v-183h-119v-1165h-266v111q-15 -18 -38 -37t-62.5 -44t-96.5 -41t-121 -16q-230 0 -377 157.5t-147 404.5zM336 532q0 -141 76 -225t198 -84 q125 0 200 88.5t75 220.5q0 147 -77.5 231.5t-197.5 84.5q-123 0 -198.5 -88t-75.5 -228z" />
<glyph unicode="&#x112;" horiz-adv-x="985" d="M137 0v1434h737v-260h-448v-320h385v-256h-385v-340h467v-258h-756zM246 1538v207h549v-207h-549z" />
<glyph unicode="&#x113;" horiz-adv-x="1144" d="M53 532q0 160 67 289.5t187.5 203t270.5 73.5q247 0 383.5 -153.5t136.5 -418.5q0 -41 -2 -61h-754q5 -108 83 -177t196 -69q96 0 161.5 41.5t98.5 89.5l186 -141q-14 -26 -37 -54t-63.5 -61.5t-88.5 -59.5t-117 -43.5t-145 -17.5q-169 0 -297.5 72.5t-197 199 t-68.5 287.5zM317 1235v207h549v-207h-549zM350 649h461q-4 98 -68 157.5t-161 59.5t-160 -61t-72 -156z" />
<glyph unicode="&#x114;" horiz-adv-x="985" d="M137 0v1434h737v-260h-448v-320h385v-256h-385v-340h467v-258h-756zM203 1810h203q0 -127 106 -127q109 0 109 127h202q0 -131 -82 -211.5t-229 -80.5q-145 0 -227 81t-82 211z" />
<glyph unicode="&#x115;" horiz-adv-x="1144" d="M53 532q0 160 67 289.5t187.5 203t270.5 73.5q247 0 383.5 -153.5t136.5 -418.5q0 -41 -2 -61h-754q5 -108 83 -177t196 -69q96 0 161.5 41.5t98.5 89.5l186 -141q-14 -26 -37 -54t-63.5 -61.5t-88.5 -59.5t-117 -43.5t-145 -17.5q-169 0 -297.5 72.5t-197 199 t-68.5 287.5zM268 1483h203q0 -55 24.5 -91t82.5 -36q108 0 108 127h203q0 -131 -82 -212t-229 -81q-145 0 -227.5 81.5t-82.5 211.5zM350 649h461q-4 98 -68 157.5t-161 59.5t-160 -61t-72 -156z" />
<glyph unicode="&#x116;" horiz-adv-x="985" d="M137 0v1434h737v-260h-448v-320h385v-256h-385v-340h467v-258h-756zM362 1657q0 69 47.5 115.5t116.5 46.5q71 0 118.5 -46.5t47.5 -115.5t-47.5 -115.5t-118.5 -46.5q-69 0 -116.5 46.5t-47.5 115.5z" />
<glyph unicode="&#x117;" horiz-adv-x="1144" d="M53 532q0 160 67 289.5t187.5 203t270.5 73.5q247 0 383.5 -153.5t136.5 -418.5q0 -41 -2 -61h-754q5 -108 83 -177t196 -69q96 0 161.5 41.5t98.5 89.5l186 -141q-14 -26 -37 -54t-63.5 -61.5t-88.5 -59.5t-117 -43.5t-145 -17.5q-169 0 -297.5 72.5t-197 199 t-68.5 287.5zM350 649h461q-4 98 -68 157.5t-161 59.5t-160 -61t-72 -156zM422 1329q0 69 47.5 115.5t116.5 46.5q71 0 118.5 -46.5t47.5 -115.5t-47.5 -115.5t-118.5 -46.5q-69 0 -116.5 46.5t-47.5 115.5z" />
<glyph unicode="&#x118;" horiz-adv-x="985" d="M137 0v1434h737v-260h-448v-320h385v-256h-385v-340h467v-258q-13 -5 -28.5 -14t-36.5 -25t-34.5 -40.5t-13.5 -51.5q0 -38 33 -60t74 -22v-201q-28 -8 -72 -8q-52 0 -96 9t-84.5 30t-64 62.5t-23.5 99.5q0 77 49.5 135t108.5 86h-568z" />
<glyph unicode="&#x119;" horiz-adv-x="1144" d="M53 532q0 160 67 289.5t187.5 203t270.5 73.5q247 0 383.5 -153.5t136.5 -418.5q0 -41 -2 -61h-754q5 -108 83 -177t196 -69q96 0 161.5 41.5t98.5 89.5l186 -141q-53 -89 -156 -156q-77 -50 -115 -90t-38 -90q0 -39 32 -62.5t74 -23.5v-201q-28 -8 -71 -8q-52 0 -96.5 9 t-85 30t-64 62.5t-23.5 99.5q0 114 113 194h-21q-169 0 -297.5 72.5t-197 199t-68.5 287.5zM350 649h461q-4 98 -68 157.5t-161 59.5t-160 -61t-72 -156z" />
<glyph unicode="&#x11a;" horiz-adv-x="985" d="M137 0v1434h737v-260h-448v-320h385v-256h-385v-340h467v-258h-756zM190 1800h240l100 -145l101 145h239l-194 -287h-291z" />
<glyph unicode="&#x11b;" horiz-adv-x="1144" d="M53 532q0 160 67 289.5t187.5 203t270.5 73.5q247 0 383.5 -153.5t136.5 -418.5q0 -41 -2 -61h-754q5 -108 83 -177t196 -69q96 0 161.5 41.5t98.5 89.5l186 -141q-14 -26 -37 -54t-63.5 -61.5t-88.5 -59.5t-117 -43.5t-145 -17.5q-169 0 -297.5 72.5t-197 199 t-68.5 287.5zM242 1483h239l101 -146l100 146h240l-195 -287h-291zM350 649h461q-4 98 -68 157.5t-161 59.5t-160 -61t-72 -156z" />
<glyph unicode="&#x11c;" horiz-adv-x="1529" d="M61 717q0 153 55.5 289.5t152.5 236.5t236.5 158.5t299.5 58.5q106 0 203 -24t166.5 -62.5t116.5 -75.5t79 -75l-182 -189q-21 23 -49 45.5t-74 50.5t-111 45t-137 17q-206 0 -330.5 -135.5t-124.5 -339.5q0 -215 128.5 -344t326.5 -129q131 0 218.5 37t125.5 75v176 h-272v244h543v-567q-64 -55 -122.5 -93.5t-134.5 -73t-168.5 -52t-201.5 -17.5q-121 0 -233 33.5t-204.5 98.5t-161.5 154t-107 207t-38 251zM473 1513l195 287h290l195 -287h-240l-100 146l-100 -146h-240z" />
<glyph unicode="&#x11d;" horiz-adv-x="1259" d="M49 535q0 247 146.5 405t375.5 158q63 0 120.5 -15.5t96.5 -39.5t64 -45t39 -40v113h266v-936q0 -117 -30 -208t-81.5 -150.5t-125.5 -98t-157 -55t-181 -16.5q-105 0 -211 28t-183 70l86 217q27 -14 62.5 -28t106 -30t137.5 -16q62 0 112 10.5t92.5 33.5t66 66t23.5 103 v50q-12 -16 -34 -35.5t-60 -44.5t-96 -41.5t-123 -16.5q-230 0 -371 156.5t-141 405.5zM291 1196l194 287h291l195 -287h-240l-100 145l-101 -145h-239zM334 537q0 -140 76.5 -227t197.5 -87q123 0 199 86t76 228q0 137 -76.5 224t-200.5 87q-121 0 -196.5 -85.5 t-75.5 -225.5z" />
<glyph unicode="&#x11e;" horiz-adv-x="1529" d="M61 717q0 153 55.5 289.5t152.5 236.5t236.5 158.5t299.5 58.5q106 0 203 -24t166.5 -62.5t116.5 -75.5t79 -75l-182 -189q-21 23 -49 45.5t-74 50.5t-111 45t-137 17q-206 0 -330.5 -135.5t-124.5 -339.5q0 -215 128.5 -344t326.5 -129q131 0 218.5 37t125.5 75v176 h-272v244h543v-567q-64 -55 -122.5 -93.5t-134.5 -73t-168.5 -52t-201.5 -17.5q-121 0 -233 33.5t-204.5 98.5t-161.5 154t-107 207t-38 251zM500 1810h202q0 -55 24.5 -91t82.5 -36q109 0 109 127h202q0 -131 -82 -211.5t-229 -80.5q-145 0 -227 81t-82 211z" />
<glyph unicode="&#x11f;" horiz-adv-x="1259" d="M49 535q0 247 146.5 405t375.5 158q63 0 120.5 -15.5t96.5 -39.5t64 -45t39 -40v113h266v-936q0 -117 -30 -208t-81.5 -150.5t-125.5 -98t-157 -55t-181 -16.5q-105 0 -211 28t-183 70l86 217q27 -14 62.5 -28t106 -30t137.5 -16q62 0 112 10.5t92.5 33.5t66 66t23.5 103 v50q-12 -16 -34 -35.5t-60 -44.5t-96 -41.5t-123 -16.5q-230 0 -371 156.5t-141 405.5zM317 1483h203q0 -55 24.5 -91t82.5 -36q108 0 108 127h203q0 -131 -82 -212t-229 -81q-145 0 -227.5 81.5t-82.5 211.5zM334 537q0 -140 76.5 -227t197.5 -87q123 0 199 86t76 228 q0 137 -76.5 224t-200.5 87q-121 0 -196.5 -85.5t-75.5 -225.5z" />
<glyph unicode="&#x120;" horiz-adv-x="1529" d="M61 717q0 153 55.5 289.5t152.5 236.5t236.5 158.5t299.5 58.5q106 0 203 -24t166.5 -62.5t116.5 -75.5t79 -75l-182 -189q-21 23 -49 45.5t-74 50.5t-111 45t-137 17q-206 0 -330.5 -135.5t-124.5 -339.5q0 -215 128.5 -344t326.5 -129q131 0 218.5 37t125.5 75v176 h-272v244h543v-567q-64 -55 -122.5 -93.5t-134.5 -73t-168.5 -52t-201.5 -17.5q-121 0 -233 33.5t-204.5 98.5t-161.5 154t-107 207t-38 251zM653 1657q0 69 47.5 115.5t116.5 46.5q71 0 118.5 -46.5t47.5 -115.5t-47.5 -115.5t-118.5 -46.5q-69 0 -116.5 46.5t-47.5 115.5z " />
<glyph unicode="&#x121;" horiz-adv-x="1259" d="M49 535q0 247 146.5 405t375.5 158q63 0 120.5 -15.5t96.5 -39.5t64 -45t39 -40v113h266v-936q0 -117 -30 -208t-81.5 -150.5t-125.5 -98t-157 -55t-181 -16.5q-105 0 -211 28t-183 70l86 217q27 -14 62.5 -28t106 -30t137.5 -16q62 0 112 10.5t92.5 33.5t66 66t23.5 103 v50q-12 -16 -34 -35.5t-60 -44.5t-96 -41.5t-123 -16.5q-230 0 -371 156.5t-141 405.5zM334 537q0 -140 76.5 -227t197.5 -87q123 0 199 86t76 228q0 137 -76.5 224t-200.5 87q-121 0 -196.5 -85.5t-75.5 -225.5zM465 1329q0 69 47.5 115.5t116.5 46.5q71 0 118.5 -46.5 t47.5 -115.5t-47.5 -115.5t-118.5 -46.5q-69 0 -116.5 46.5t-47.5 115.5z" />
<glyph unicode="&#x122;" horiz-adv-x="1529" d="M61 717q0 153 55.5 289.5t152.5 236.5t236.5 158.5t299.5 58.5q106 0 203 -24t166.5 -62.5t116.5 -75.5t79 -75l-182 -189q-21 23 -49 45.5t-74 50.5t-111 45t-137 17q-206 0 -330.5 -135.5t-124.5 -339.5q0 -215 128.5 -344t326.5 -129q131 0 218.5 37t125.5 75v176 h-272v244h543v-567q-64 -55 -122.5 -93.5t-134.5 -73t-168.5 -52t-201.5 -17.5q-121 0 -233 33.5t-204.5 98.5t-161.5 154t-107 207t-38 251zM674 -211q0 63 45 107.5t108 44.5q70 0 115 -49t45 -128q0 -108 -53.5 -204t-140.5 -156l-99 104q84 65 101 134q-57 11 -89 53.5 t-32 93.5z" />
<glyph unicode="&#x123;" horiz-adv-x="1259" d="M49 535q0 247 146.5 405t375.5 158q63 0 120.5 -15.5t96.5 -39.5t64 -45t39 -40v113h266v-936q0 -117 -30 -208t-81.5 -150.5t-125.5 -98t-157 -55t-181 -16.5q-105 0 -211 28t-183 70l86 217q27 -14 62.5 -28t106 -30t137.5 -16q62 0 112 10.5t92.5 33.5t66 66t23.5 103 v50q-12 -16 -34 -35.5t-60 -44.5t-96 -41.5t-123 -16.5q-230 0 -371 156.5t-141 405.5zM334 537q0 -140 76.5 -227t197.5 -87q123 0 199 86t76 228q0 137 -76.5 224t-200.5 87q-121 0 -196.5 -85.5t-75.5 -225.5zM463 1346q0 108 53.5 204t140.5 156l99 -104 q-84 -65 -101 -134q57 -11 89 -53.5t32 -93.5q0 -63 -45 -107.5t-108 -44.5q-70 0 -115 49t-45 128z" />
<glyph unicode="&#x124;" horiz-adv-x="1447" d="M137 0v1434h289v-582h596v582h289v-1434h-289v592h-596v-592h-289zM393 1513l195 287h291l194 -287h-239l-101 146l-100 -146h-240z" />
<glyph unicode="&#x125;" horiz-adv-x="1150" d="M111 0v1481h282v-535q38 63 112 107.5t171 44.5q64 0 117 -15t91 -40.5t67 -62.5t47 -77.5t29 -90t15.5 -96t4.5 -98.5v-618h-281v651q0 87 -52 140t-126 53q-88 0 -141.5 -56.5t-53.5 -144.5v-643h-282zM268 1513l195 287h291l194 -287h-239l-101 146l-100 -146h-240z " />
<glyph unicode="&#x126;" horiz-adv-x="1447" d="M20 1047v196h117v191h289v-191h596v191h289v-191h119v-196h-119v-1047h-289v592h-596v-592h-289v1047h-117zM426 852h596v195h-596v-195z" />
<glyph unicode="&#x127;" horiz-adv-x="1150" d="M6 1178v180h105v123h282v-123h266v-180h-266v-232q38 63 112 107.5t171 44.5q64 0 117 -15t91 -40.5t67 -62.5t47 -77.5t29 -90t15.5 -96t4.5 -98.5v-618h-281v651q0 87 -52 140t-126 53q-88 0 -141.5 -56.5t-53.5 -144.5v-643h-282v1178h-105z" />
<glyph unicode="&#x128;" horiz-adv-x="563" d="M-76 1522q0 123 62.5 198.5t163.5 75.5q48 0 97 -19t88.5 -38t65.5 -19q31 0 48.5 21t17.5 57h178q0 -125 -60.5 -199.5t-160.5 -74.5q-59 0 -142.5 37.5t-113.5 37.5q-31 0 -48.5 -20t-17.5 -57h-178zM137 0v1434h289v-1434h-289z" />
<glyph unicode="&#x129;" horiz-adv-x="503" d="M-104 1200q0 123 62 199t163 76q48 0 97 -19t89 -38t66 -19q30 0 47.5 21t17.5 57h178q0 -126 -60.5 -200.5t-160.5 -74.5q-59 0 -142.5 38t-113.5 38q-31 0 -48 -20.5t-17 -57.5h-178zM111 0v1071h282v-1071h-282z" />
<glyph unicode="&#x12a;" horiz-adv-x="563" d="M8 1538v207h549v-207h-549zM137 0v1434h289v-1434h-289z" />
<glyph unicode="&#x12b;" d="M-20 1235v207h548v-207h-548zM111 0v1071h282v-1071h-282z" />
<glyph unicode="&#x12c;" horiz-adv-x="563" d="M-23 1810h203q0 -55 24.5 -91t82.5 -36q108 0 108 127h203q0 -131 -82 -211.5t-229 -80.5q-145 0 -227.5 81t-82.5 211zM137 0v1434h289v-1434h-289z" />
<glyph unicode="&#x12d;" horiz-adv-x="503" d="M-51 1483h203q0 -127 106 -127q109 0 109 127h202q0 -131 -82 -212t-229 -81q-145 0 -227 81t-82 212zM111 0v1071h282v-1071h-282z" />
<glyph unicode="&#x12e;" horiz-adv-x="563" d="M80 -221q0 77 49.5 135t108.5 86h-101v1434h289v-1434q-13 -5 -28.5 -14t-36.5 -25t-34.5 -40.5t-13.5 -51.5q0 -38 33 -60t74 -22v-201q-28 -8 -72 -8q-52 0 -96 9t-84.5 30t-64 62.5t-23.5 99.5z" />
<glyph unicode="&#x12f;" d="M47 -221q0 77 49.5 135t108.5 86h-94v1071h282v-1071q-13 -5 -28.5 -14t-36 -25t-34 -40.5t-13.5 -51.5q0 -38 32.5 -60t73.5 -22v-201q-28 -8 -72 -8q-52 0 -96 9t-84.5 30t-64 62.5t-23.5 99.5zM86 1329q0 69 47.5 115.5t116.5 46.5q71 0 118.5 -46.5t47.5 -115.5 t-47.5 -115.5t-118.5 -46.5q-69 0 -116.5 46.5t-47.5 115.5z" />
<glyph unicode="&#x130;" horiz-adv-x="563" d="M123 1657q0 69 47.5 115.5t116.5 46.5q71 0 118.5 -46.5t47.5 -115.5t-47.5 -115.5t-118.5 -46.5q-69 0 -116.5 46.5t-47.5 115.5zM137 0v1434h289v-1434h-289z" />
<glyph unicode="&#x131;" d="M111 0v1071h282v-1071h-282z" />
<glyph unicode="&#x132;" horiz-adv-x="1329" d="M137 0v1434h289v-1434h-289zM606 8l33 256q96 -12 119 -12q72 0 108.5 41t36.5 115v1026h289v-1078q0 -97 -30.5 -169.5t-85.5 -115t-125 -63t-156 -20.5q-94 0 -189 20z" />
<glyph unicode="&#x133;" horiz-adv-x="1011" d="M86 1329q0 69 47.5 115.5t116.5 46.5q71 0 118.5 -46.5t47.5 -115.5t-47.5 -115.5t-118.5 -46.5q-69 0 -116.5 46.5t-47.5 115.5zM111 0v1071h282v-1071h-282zM420 -147q29 -5 49 -5q147 0 147 150v1073h283v-1085q0 -103 -31 -178t-88 -117.5t-129 -62t-162 -19.5l-69 4 v240zM592 1329q0 69 47.5 115.5t116.5 46.5q71 0 118.5 -46.5t47.5 -115.5t-47.5 -115.5t-118.5 -46.5q-69 0 -116.5 46.5t-47.5 115.5z" />
<glyph unicode="&#x134;" horiz-adv-x="765" d="M41 8l33 256q96 -12 119 -12q72 0 108.5 41t36.5 115v1026h289v-1078q0 -97 -30.5 -169.5t-86 -115t-125.5 -63t-156 -20.5q-93 0 -188 20zM121 1513l194 287h291l195 -287h-240l-100 146l-101 -146h-239z" />
<glyph unicode="&#x135;" d="M-86 -147q29 -5 49 -5q148 0 148 150v1073h282v-1085q0 -103 -31 -178t-87.5 -117.5t-128.5 -62t-162 -19.5l-70 4v240zM-84 1196l195 287h290l195 -287h-240l-100 145l-100 -145h-240z" />
<glyph unicode="&#x136;" horiz-adv-x="1259" d="M137 0v1434h289v-656l473 656h324l-516 -686l532 -748h-332l-481 696v-696h-289zM492 -211q0 63 45 107.5t108 44.5q70 0 115 -49t45 -128q0 -107 -54 -203.5t-141 -156.5l-98 104q82 65 100 134q-57 11 -88.5 53.5t-31.5 93.5z" />
<glyph unicode="&#x137;" horiz-adv-x="1089" d="M111 0v1481h282v-860l344 450h318l-377 -485l405 -586h-331l-359 553v-553h-282zM397 -211q0 63 45.5 107.5t108.5 44.5q70 0 115 -49t45 -128q0 -107 -54 -203.5t-141 -156.5l-98 104q82 65 100 134q-57 11 -89 53.5t-32 93.5z" />
<glyph unicode="&#x138;" horiz-adv-x="1089" d="M111 0v1071h282v-461l344 461h318l-377 -496l405 -575h-331l-359 543v-543h-282z" />
<glyph unicode="&#x139;" horiz-adv-x="931" d="M137 0v1434h289v-1174h467v-260h-756zM164 1511l137 295h297l-199 -295h-235z" />
<glyph unicode="&#x13a;" d="M111 0v1481h282v-1481h-282zM121 1536l137 295h297l-199 -295h-235z" />
<glyph unicode="&#x13b;" horiz-adv-x="931" d="M137 0v1434h289v-1174h467v-260h-756zM358 -211q0 63 45.5 107.5t108.5 44.5q70 0 115 -49t45 -128q0 -107 -54 -203.5t-141 -156.5l-98 104q82 65 100 134q-57 11 -89 53.5t-32 93.5z" />
<glyph unicode="&#x13c;" d="M94 -211q0 63 45.5 107.5t108.5 44.5q70 0 115 -49t45 -128q0 -107 -54 -203.5t-141 -156.5l-98 104q82 65 100 134q-57 11 -89 53.5t-32 93.5zM111 0v1481h282v-1481h-282z" />
<glyph unicode="&#x13d;" horiz-adv-x="931" d="M137 0v1434h289v-1174h467v-260h-756zM563 1077l15 357h266l-94 -357h-187z" />
<glyph unicode="&#x13e;" d="M111 0v1481h282v-1481h-282zM459 1124l14 357h266l-94 -357h-186z" />
<glyph unicode="&#x13f;" horiz-adv-x="931" d="M137 0v1434h289v-1174h467v-260h-756zM561 752q0 73 50.5 124.5t123.5 51.5t123.5 -51.5t50.5 -124.5q0 -71 -50.5 -121.5t-123.5 -50.5t-123.5 50.5t-50.5 121.5z" />
<glyph unicode="&#x140;" horiz-adv-x="825" d="M111 0v1481h282v-1481h-282zM469 723q0 73 50.5 124.5t123.5 51.5t123.5 -51.5t50.5 -124.5q0 -71 -50.5 -121.5t-123.5 -50.5t-123.5 50.5t-50.5 121.5z" />
<glyph unicode="&#x141;" horiz-adv-x="931" d="M23 391v271l114 65v707h289v-547l221 127v-275l-221 -123v-358h467v-258h-756v459z" />
<glyph unicode="&#x142;" horiz-adv-x="602" d="M43 487v271l109 65v658h282v-492l125 76v-277l-125 -75v-713h-282v553z" />
<glyph unicode="&#x143;" horiz-adv-x="1460" d="M135 0v1434h293l612 -979v979h285v-1434h-287l-618 971v-971h-285zM606 1511l137 295h297l-198 -295h-236z" />
<glyph unicode="&#x144;" horiz-adv-x="1146" d="M111 0v1071h276v-125q38 62 114 107t173 45q88 0 155 -28.5t107 -74.5t65 -111t34 -128.5t9 -137.5v-618h-282v651q0 87 -52 140t-126 53q-86 0 -138.5 -56.5t-52.5 -144.5v-643h-282zM442 1190l138 295h297l-199 -295h-236z" />
<glyph unicode="&#x145;" horiz-adv-x="1460" d="M135 0v1434h293l612 -979v979h285v-1434h-287l-618 971v-971h-285zM571 -211q0 63 45.5 107.5t108.5 44.5q70 0 115 -49t45 -128q0 -107 -54 -203.5t-141 -156.5l-98 104q82 65 100 134q-57 11 -89 53.5t-32 93.5z" />
<glyph unicode="&#x146;" horiz-adv-x="1146" d="M111 0v1071h276v-125q38 62 114 107t173 45q88 0 155 -28.5t107 -74.5t65 -111t34 -128.5t9 -137.5v-618h-282v651q0 87 -52 140t-126 53q-86 0 -138.5 -56.5t-52.5 -144.5v-643h-282zM416 -211q0 63 45 107.5t108 44.5q70 0 115 -49t45 -128q0 -108 -53.5 -204 t-140.5 -156l-99 104q84 65 101 134q-57 11 -89 53.5t-32 93.5z" />
<glyph unicode="&#x147;" horiz-adv-x="1460" d="M135 0v1434h293l612 -979v979h285v-1434h-287l-618 971v-971h-285zM401 1800h240l100 -145l101 145h239l-194 -287h-291z" />
<glyph unicode="&#x148;" horiz-adv-x="1146" d="M111 0v1071h276v-125q38 62 114 107t173 45q88 0 155 -28.5t107 -74.5t65 -111t34 -128.5t9 -137.5v-618h-282v651q0 87 -52 140t-126 53q-86 0 -138.5 -56.5t-52.5 -144.5v-643h-282zM240 1483h239l101 -146l100 146h240l-195 -287h-291z" />
<glyph unicode="&#x149;" horiz-adv-x="1302" d="M-68 1339q0 63 45.5 107.5t108.5 44.5q70 0 115 -48.5t45 -127.5q0 -107 -54 -204t-141 -157l-98 105q83 65 100 133q-57 11 -89 53.5t-32 93.5zM264 0v1071h277v-125q38 62 113.5 107t172.5 45q88 0 155.5 -28.5t107.5 -74.5t65 -111t34 -128.5t9 -137.5v-618h-283v651 q0 87 -52 140t-126 53q-86 0 -138 -56.5t-52 -144.5v-643h-283z" />
<glyph unicode="&#x14a;" horiz-adv-x="1460" d="M135 0v1434h293l612 -983v983h285v-1457q0 -97 -30.5 -169.5t-85.5 -115t-125 -63t-156 -20.5q-94 0 -189 20l33 256q96 -12 119 -12q66 0 102 36t41 99l-614 967v-975h-285z" />
<glyph unicode="&#x14b;" horiz-adv-x="1146" d="M111 0v1071h276v-125q38 62 114 107t173 45q88 0 155 -28.5t107 -74.5t65 -111t34 -128.5t9 -137.5v-632q0 -103 -31 -178t-87.5 -117.5t-128.5 -62t-162 -19.5l-70 4v240q29 -5 49 -5q148 0 148 150v653q0 87 -52 140t-126 53q-86 0 -138.5 -56.5t-52.5 -144.5v-643 h-282z" />
<glyph unicode="&#x14c;" horiz-adv-x="1613" d="M61 717q0 208 94 377t265 267.5t387 98.5t387 -98.5t264.5 -267.5t93.5 -377q0 -157 -55 -294t-152 -236.5t-236.5 -156.5t-301.5 -57q-216 0 -387 97.5t-265 267.5t-94 379zM362 717q0 -206 126 -339.5t319 -133.5t318.5 133.5t125.5 339.5q0 203 -125.5 338t-318.5 135 t-319 -135t-126 -338zM532 1538v207h549v-207h-549z" />
<glyph unicode="&#x14d;" horiz-adv-x="1255" d="M51 532q0 160 75.5 290t207.5 203t293 73q162 0 294 -73.5t207.5 -203t75.5 -289.5q0 -243 -162.5 -401t-414.5 -158q-250 0 -413 158t-163 401zM334 532q0 -136 83 -222.5t210 -86.5q128 0 211.5 86.5t83.5 222.5q0 137 -84 226.5t-211 89.5q-128 0 -210.5 -89 t-82.5 -227zM354 1235v207h549v-207h-549z" />
<glyph unicode="&#x14e;" horiz-adv-x="1613" d="M61 717q0 208 94 377t265 267.5t387 98.5t387 -98.5t264.5 -267.5t93.5 -377q0 -157 -55 -294t-152 -236.5t-236.5 -156.5t-301.5 -57q-216 0 -387 97.5t-265 267.5t-94 379zM362 717q0 -206 126 -339.5t319 -133.5t318.5 133.5t125.5 339.5q0 203 -125.5 338t-318.5 135 t-319 -135t-126 -338zM498 1810h202q0 -55 24.5 -91t82.5 -36q108 0 108 127h203q0 -131 -82 -211.5t-229 -80.5q-145 0 -227 81t-82 211z" />
<glyph unicode="&#x14f;" horiz-adv-x="1255" d="M51 532q0 160 75.5 290t207.5 203t293 73q162 0 294 -73.5t207.5 -203t75.5 -289.5q0 -243 -162.5 -401t-414.5 -158q-250 0 -413 158t-163 401zM311 1483h203q0 -55 24.5 -91t82.5 -36q108 0 108 127h203q0 -131 -82 -212t-229 -81q-145 0 -227.5 81.5t-82.5 211.5z M334 532q0 -136 83 -222.5t210 -86.5q128 0 211.5 86.5t83.5 222.5q0 137 -84 226.5t-211 89.5q-128 0 -210.5 -89t-82.5 -227z" />
<glyph unicode="&#x150;" horiz-adv-x="1613" d="M61 717q0 208 94 377t265 267.5t387 98.5t387 -98.5t264.5 -267.5t93.5 -377q0 -157 -55 -294t-152 -236.5t-236.5 -156.5t-301.5 -57q-216 0 -387 97.5t-265 267.5t-94 379zM362 717q0 -206 126 -339.5t319 -133.5t318.5 133.5t125.5 339.5q0 203 -125.5 338t-318.5 135 t-319 -135t-126 -338zM494 1511l137 295h272l-198 -295h-211zM850 1511l139 295h271l-197 -295h-213z" />
<glyph unicode="&#x151;" horiz-adv-x="1255" d="M51 532q0 160 75.5 290t207.5 203t293 73q162 0 294 -73.5t207.5 -203t75.5 -289.5q0 -243 -162.5 -401t-414.5 -158q-250 0 -413 158t-163 401zM334 532q0 -136 83 -222.5t210 -86.5q128 0 211.5 86.5t83.5 222.5q0 137 -84 226.5t-211 89.5q-128 0 -210.5 -89 t-82.5 -227zM344 1190l137 295h273l-199 -295h-211zM700 1190l140 295h270l-197 -295h-213z" />
<glyph unicode="&#x152;" horiz-adv-x="2103" d="M61 717q0 208 94 377t265 267.5t387 98.5q102 0 209 -26h975v-260h-590q108 -132 139 -320h387v-256h-385q-23 -190 -141 -340h608v-258h-993q-111 -27 -209 -27q-216 0 -387 97.5t-265 267.5t-94 379zM362 717q0 -206 126 -339.5t319 -133.5t318.5 133.5t125.5 339.5 q0 203 -125.5 338t-318.5 135t-319 -135t-126 -338z" />
<glyph unicode="&#x153;" horiz-adv-x="2004" d="M51 532q0 160 75 290t206.5 203t292.5 73q133 0 243 -49t185 -138q67 89 166 138t217 49q248 0 385 -153.5t137 -418.5q0 -41 -2 -61h-756q5 -109 83 -177.5t198 -68.5q96 0 161.5 41.5t98.5 89.5l186 -141q-18 -33 -52 -69.5t-88 -76t-136 -65t-176 -25.5 q-136 0 -244 49t-178 138q-75 -88 -186.5 -137.5t-241.5 -49.5q-250 0 -412 158t-162 401zM334 532q0 -136 82 -222.5t209 -86.5q128 0 212.5 89t84.5 225t-84.5 223.5t-212.5 87.5q-127 0 -209 -89t-82 -227zM1210 649h459q-4 98 -67.5 157.5t-161.5 59.5t-160 -61 t-70 -156z" />
<glyph unicode="&#x154;" horiz-adv-x="1198" d="M137 0v1434h432q227 0 356.5 -121t129.5 -305q0 -127 -58 -225.5t-159 -153.5l340 -629h-320l-278 561h-154v-561h-289zM406 1511l137 295h297l-199 -295h-235zM426 805h135q83 0 140 50.5t57 141.5q0 86 -56.5 136.5t-154.5 50.5h-121v-379z" />
<glyph unicode="&#x155;" horiz-adv-x="737" d="M111 0v1071h276v-156q36 82 114 132.5t181 50.5v-287q-152 0 -220.5 -88.5t-68.5 -255.5v-467h-282zM233 1190l138 295h297l-199 -295h-236z" />
<glyph unicode="&#x156;" horiz-adv-x="1198" d="M137 0v1434h432q227 0 356.5 -121t129.5 -305q0 -127 -58 -225.5t-159 -153.5l340 -629h-320l-278 561h-154v-561h-289zM426 805h135q83 0 140 50.5t57 141.5q0 86 -56.5 136.5t-154.5 50.5h-121v-379zM444 -211q0 63 45.5 107.5t108.5 44.5q70 0 115 -49t45 -128 q0 -107 -54 -203.5t-141 -156.5l-98 104q82 65 100 134q-57 11 -89 53.5t-32 93.5z" />
<glyph unicode="&#x157;" horiz-adv-x="737" d="M111 0v1071h276v-156q36 82 114 132.5t181 50.5v-287q-152 0 -220.5 -88.5t-68.5 -255.5v-467h-282zM147 -211q0 63 45.5 107.5t108.5 44.5q70 0 115 -49t45 -128q0 -107 -54 -203.5t-141 -156.5l-98 104q82 65 100 134q-57 11 -89 53.5t-32 93.5z" />
<glyph unicode="&#x158;" horiz-adv-x="1198" d="M137 0v1434h432q227 0 356.5 -121t129.5 -305q0 -127 -58 -225.5t-159 -153.5l340 -629h-320l-278 561h-154v-561h-289zM209 1800h240l100 -145l100 145h240l-195 -287h-291zM426 805h135q83 0 140 50.5t57 141.5q0 86 -56.5 136.5t-154.5 50.5h-121v-379z" />
<glyph unicode="&#x159;" horiz-adv-x="737" d="M31 1483h239l101 -146l100 146h240l-195 -287h-291zM111 0v1071h276v-156q36 82 114 132.5t181 50.5v-287q-152 0 -220.5 -88.5t-68.5 -255.5v-467h-282z" />
<glyph unicode="&#x15a;" horiz-adv-x="1067" d="M45 305l244 119q33 -79 95.5 -130.5t152.5 -51.5q80 0 125 39t45 108q0 39 -21 72t-57 58.5t-82.5 49t-97.5 48t-102.5 51.5t-98 63.5t-82.5 80.5t-57 106t-21 135q0 182 123.5 294.5t327.5 112.5q82 0 153 -23t117.5 -56.5t83.5 -78.5t56.5 -82t31.5 -73l-240 -109 q-14 31 -29 54t-39.5 48.5t-60.5 39.5t-80 14q-72 0 -113.5 -38.5t-41.5 -98.5q0 -48 34.5 -87t89 -68.5t121 -59t133 -67t121 -84t89 -119t34.5 -162.5q0 -193 -129.5 -315t-349.5 -122q-88 0 -163 24t-125 59t-90 82t-61.5 87t-35.5 80zM387 1511l137 295h297l-198 -295 h-236z" />
<glyph unicode="&#x15b;" horiz-adv-x="890" d="M39 172l166 147q101 -116 246 -116q61 0 96 25.5t35 70.5q0 33 -28 58t-72.5 43t-98.5 37t-108 46t-98.5 63t-72.5 96.5t-28 137.5q0 146 110 232t279 86q137 0 228 -56.5t138 -134.5l-186 -139q-82 102 -192 102q-50 0 -80.5 -23.5t-30.5 -62.5q0 -34 28 -59t73 -42 t99 -34.5t108 -43.5t99 -60.5t73 -94t28 -137.5q0 -154 -117.5 -247t-294.5 -93q-145 0 -247 59t-152 140zM303 1190l137 295h297l-198 -295h-236z" />
<glyph unicode="&#x15c;" horiz-adv-x="1067" d="M45 305l244 119q33 -79 95.5 -130.5t152.5 -51.5q80 0 125 39t45 108q0 39 -21 72t-57 58.5t-82.5 49t-97.5 48t-102.5 51.5t-98 63.5t-82.5 80.5t-57 106t-21 135q0 182 123.5 294.5t327.5 112.5q82 0 153 -23t117.5 -56.5t83.5 -78.5t56.5 -82t31.5 -73l-240 -109 q-14 31 -29 54t-39.5 48.5t-60.5 39.5t-80 14q-72 0 -113.5 -38.5t-41.5 -98.5q0 -48 34.5 -87t89 -68.5t121 -59t133 -67t121 -84t89 -119t34.5 -162.5q0 -193 -129.5 -315t-349.5 -122q-88 0 -163 24t-125 59t-90 82t-61.5 87t-35.5 80zM201 1513l194 287h291l195 -287 h-240l-100 146l-101 -146h-239z" />
<glyph unicode="&#x15d;" horiz-adv-x="890" d="M39 172l166 147q101 -116 246 -116q61 0 96 25.5t35 70.5q0 33 -28 58t-72.5 43t-98.5 37t-108 46t-98.5 63t-72.5 96.5t-28 137.5q0 146 110 232t279 86q137 0 228 -56.5t138 -134.5l-186 -139q-82 102 -192 102q-50 0 -80.5 -23.5t-30.5 -62.5q0 -34 28 -59t73 -42 t99 -34.5t108 -43.5t99 -60.5t73 -94t28 -137.5q0 -154 -117.5 -247t-294.5 -93q-145 0 -247 59t-152 140zM129 1196l195 287h290l195 -287h-240l-100 145l-100 -145h-240z" />
<glyph unicode="&#x15e;" horiz-adv-x="1067" d="M45 305l244 119q33 -79 95.5 -130.5t152.5 -51.5q80 0 125 39t45 108q0 39 -21 72t-57 58.5t-82.5 49t-97.5 48t-102.5 51.5t-98 63.5t-82.5 80.5t-57 106t-21 135q0 182 123.5 294.5t327.5 112.5q82 0 153 -23t117.5 -56.5t83.5 -78.5t56.5 -82t31.5 -73l-240 -109 q-14 31 -29 54t-39.5 48.5t-60.5 39.5t-80 14q-72 0 -113.5 -38.5t-41.5 -98.5q0 -48 34.5 -87t89 -68.5t121 -59t133 -67t121 -84t89 -119t34.5 -162.5q0 -174 -107.5 -293t-295.5 -140l-8 -57q73 -15 114 -66.5t41 -121.5q0 -97 -71.5 -153t-179.5 -56q-59 0 -119 18 l33 146q44 -11 67 -11q38 0 63 17.5t25 50.5q0 32 -30 47.5t-72 15.5l-35 -4l25 174q-90 10 -164.5 47t-121 88.5t-74.5 98t-44 94.5z" />
<glyph unicode="&#x15f;" horiz-adv-x="890" d="M39 172l166 147q101 -116 246 -116q61 0 96 25.5t35 70.5q0 33 -28 58t-72.5 43t-98.5 37t-108 46t-98.5 63t-72.5 96.5t-28 137.5q0 146 110 232t279 86q137 0 228 -56.5t138 -134.5l-186 -139q-82 102 -192 102q-50 0 -80.5 -23.5t-30.5 -62.5q0 -34 28 -59t73 -42 t99 -34.5t108 -43.5t99 -60.5t73 -94t28 -137.5q0 -137 -94.5 -226t-245.5 -107l-8 -60q73 -15 114 -66.5t41 -121.5q0 -97 -71.5 -153t-179.5 -56q-59 0 -119 18l32 146q44 -11 68 -11q38 0 63 17.5t25 50.5q0 32 -29.5 47.5t-72.5 15.5l-35 -4l24 177q-117 14 -199 68 t-124 124z" />
<glyph unicode="&#x160;" horiz-adv-x="1067" d="M45 305l244 119q33 -79 95.5 -130.5t152.5 -51.5q80 0 125 39t45 108q0 39 -21 72t-57 58.5t-82.5 49t-97.5 48t-102.5 51.5t-98 63.5t-82.5 80.5t-57 106t-21 135q0 182 123.5 294.5t327.5 112.5q82 0 153 -23t117.5 -56.5t83.5 -78.5t56.5 -82t31.5 -73l-240 -109 q-14 31 -29 54t-39.5 48.5t-60.5 39.5t-80 14q-72 0 -113.5 -38.5t-41.5 -98.5q0 -48 34.5 -87t89 -68.5t121 -59t133 -67t121 -84t89 -119t34.5 -162.5q0 -193 -129.5 -315t-349.5 -122q-88 0 -163 24t-125 59t-90 82t-61.5 87t-35.5 80zM190 1800h240l100 -145l101 145 h239l-194 -287h-291z" />
<glyph unicode="&#x161;" horiz-adv-x="890" d="M39 172l166 147q101 -116 246 -116q61 0 96 25.5t35 70.5q0 33 -28 58t-72.5 43t-98.5 37t-108 46t-98.5 63t-72.5 96.5t-28 137.5q0 146 110 232t279 86q137 0 228 -56.5t138 -134.5l-186 -139q-82 102 -192 102q-50 0 -80.5 -23.5t-30.5 -62.5q0 -34 28 -59t73 -42 t99 -34.5t108 -43.5t99 -60.5t73 -94t28 -137.5q0 -154 -117.5 -247t-294.5 -93q-145 0 -247 59t-152 140zM121 1483h239l101 -146l100 146h240l-195 -287h-291z" />
<glyph unicode="&#x162;" horiz-adv-x="1046" d="M43 1174v260h958v-260h-333v-1174h-97l-12 -80q73 -15 114.5 -67t41.5 -121q0 -97 -72 -153t-180 -56q-59 0 -119 18l33 146q44 -11 67 -11q38 0 63 17.5t25 50.5q0 32 -30 47.5t-72 15.5l-35 -4l29 197h-45v1174h-336z" />
<glyph unicode="&#x163;" horiz-adv-x="681" d="M23 842v229h114v225h279v-225h200v-229h-200v-414q0 -115 35.5 -153.5t121.5 -38.5q29 0 52 2v-242q-43 -10 -121 -10q-24 0 -70 4l-10 -70q73 -15 114.5 -67t41.5 -121q0 -97 -72 -153t-180 -56q-59 0 -119 18l33 146q44 -11 67 -11q38 0 63 17.5t25 50.5 q0 32 -29.5 47.5t-72.5 15.5l-35 -4l27 236q-152 96 -152 381v422h-112z" />
<glyph unicode="&#x164;" horiz-adv-x="1046" d="M43 1174v260h958v-260h-333v-1174h-289v1174h-336zM182 1800h240l100 -145l101 145h239l-194 -287h-291z" />
<glyph unicode="&#x165;" horiz-adv-x="686" d="M23 842v229h114v225h279v-225h200v-229h-200v-414q0 -115 35.5 -153.5t121.5 -38.5q29 0 52 2v-242q-43 -10 -121 -10q-190 0 -279.5 107t-89.5 327v422h-112zM508 1124l14 357h266l-94 -357h-186z" />
<glyph unicode="&#x166;" horiz-adv-x="1046" d="M47 1174v260h959v-260h-334v-328h235v-211h-235v-635h-289v635h-238v211h238v328h-336z" />
<glyph unicode="&#x167;" horiz-adv-x="681" d="M23 492v186h112v164h-112v229h114v225h279v-225h200v-229h-200v-164h184v-186h-184v-64q0 -115 35.5 -153.5t121.5 -38.5q29 0 52 2v-242q-43 -10 -121 -10q-190 0 -279.5 107t-89.5 327v72h-112z" />
<glyph unicode="&#x168;" horiz-adv-x="1417" d="M131 539v895h289v-895q0 -138 76 -217.5t213 -79.5t212.5 79.5t75.5 217.5v895h289v-895q0 -258 -151.5 -412t-425.5 -154t-426 154t-152 412zM367 1522q0 123 62 198.5t163 75.5q48 0 97 -19t89 -38t66 -19q30 0 47.5 21t17.5 57h178q0 -125 -60.5 -199.5t-160.5 -74.5 q-59 0 -142.5 37.5t-113.5 37.5q-31 0 -48 -20t-17 -57h-178z" />
<glyph unicode="&#x169;" horiz-adv-x="1138" d="M102 453v618h283v-651q0 -87 52 -140t126 -53q86 0 138.5 56.5t52.5 144.5v643h282v-1071h-276v125q-38 -62 -114 -107t-173 -45q-88 0 -155.5 28.5t-107.5 74.5t-65 111t-34 128.5t-9 137.5zM213 1200q0 123 62 199t163 76q48 0 97 -19t89 -38t66 -19q31 0 48.5 21 t17.5 57h178q0 -126 -60.5 -200.5t-160.5 -74.5q-59 0 -142.5 38t-113.5 38q-31 0 -48.5 -20.5t-17.5 -57.5h-178z" />
<glyph unicode="&#x16a;" horiz-adv-x="1417" d="M131 539v895h289v-895q0 -138 76 -217.5t213 -79.5t212.5 79.5t75.5 217.5v895h289v-895q0 -258 -151.5 -412t-425.5 -154t-426 154t-152 412zM438 1538v207h549v-207h-549z" />
<glyph unicode="&#x16b;" horiz-adv-x="1138" d="M102 453v618h283v-651q0 -87 52 -140t126 -53q86 0 138.5 56.5t52.5 144.5v643h282v-1071h-276v125q-38 -62 -114 -107t-173 -45q-88 0 -155.5 28.5t-107.5 74.5t-65 111t-34 128.5t-9 137.5zM303 1235v207h549v-207h-549z" />
<glyph unicode="&#x16c;" horiz-adv-x="1417" d="M131 539v895h289v-895q0 -138 76 -217.5t213 -79.5t212.5 79.5t75.5 217.5v895h289v-895q0 -258 -151.5 -412t-425.5 -154t-426 154t-152 412zM414 1810h202q0 -55 24.5 -91t82.5 -36q108 0 108 127h203q0 -131 -82 -211.5t-229 -80.5q-145 0 -227 81t-82 211z" />
<glyph unicode="&#x16d;" horiz-adv-x="1138" d="M102 453v618h283v-651q0 -87 52 -140t126 -53q86 0 138.5 56.5t52.5 144.5v643h282v-1071h-276v125q-38 -62 -114 -107t-173 -45q-88 0 -155.5 28.5t-107.5 74.5t-65 111t-34 128.5t-9 137.5zM264 1483h203q0 -127 106 -127q109 0 109 127h203q0 -131 -82.5 -212 t-229.5 -81q-145 0 -227 81t-82 212z" />
<glyph unicode="&#x16e;" horiz-adv-x="1417" d="M131 539v895h289v-895q0 -138 76 -217.5t213 -79.5t212.5 79.5t75.5 217.5v895h289v-895q0 -258 -151.5 -412t-425.5 -154t-426 154t-152 412zM496 1700q0 90 62 146.5t155 56.5q96 0 158.5 -56t62.5 -145q0 -90 -62.5 -147.5t-158.5 -57.5q-93 0 -155 57t-62 146z M637 1700q0 -35 21.5 -57.5t56.5 -22.5t56.5 22.5t21.5 59.5q0 34 -21.5 56t-56.5 22t-56.5 -22.5t-21.5 -57.5z" />
<glyph unicode="&#x16f;" horiz-adv-x="1138" d="M102 453v618h283v-651q0 -87 52 -140t126 -53q86 0 138.5 56.5t52.5 144.5v643h282v-1071h-276v125q-38 -62 -114 -107t-173 -45q-88 0 -155.5 28.5t-107.5 74.5t-65 111t-34 128.5t-9 137.5zM358 1358q0 90 62 146.5t155 56.5q96 0 159 -56t63 -145q0 -90 -63 -147.5 t-159 -57.5q-93 0 -155 57t-62 146zM500 1358q0 -35 21.5 -57.5t56.5 -22.5t56 22.5t21 59.5q0 34 -21 56t-56 22t-56.5 -22.5t-21.5 -57.5z" />
<glyph unicode="&#x170;" horiz-adv-x="1423" d="M131 539v895h289v-895q0 -138 76 -217.5t213 -79.5t212.5 79.5t75.5 217.5v895h289v-895q0 -258 -151.5 -412t-425.5 -154t-426 154t-152 412zM422 1511l137 295h272l-198 -295h-211zM778 1511l140 295h270l-197 -295h-213z" />
<glyph unicode="&#x171;" horiz-adv-x="1138" d="M102 453v618h283v-651q0 -87 52 -140t126 -53q86 0 138.5 56.5t52.5 144.5v643h282v-1071h-276v125q-38 -62 -114 -107t-173 -45q-88 0 -155.5 28.5t-107.5 74.5t-65 111t-34 128.5t-9 137.5zM254 1190l137 295h273l-199 -295h-211zM610 1190l140 295h270l-197 -295h-213 z" />
<glyph unicode="&#x172;" horiz-adv-x="1417" d="M131 539v895h289v-895q0 -138 76 -217.5t213 -79.5t212.5 79.5t75.5 217.5v895h289v-895q0 -180 -76.5 -312t-218.5 -198q-42 -20 -77 -57.5t-35 -88.5q0 -42 33 -69t73 -27v-201q-28 -8 -72 -8q-52 0 -96 9t-84.5 30t-64 62.5t-23.5 99.5q0 114 115 196q-35 -2 -51 -2 q-274 0 -426 154t-152 412z" />
<glyph unicode="&#x173;" horiz-adv-x="1138" d="M102 453v618h283v-651q0 -87 52 -140t126 -53q86 0 138.5 56.5t52.5 144.5v643h282v-1071q-13 -5 -28.5 -14t-36 -25t-34 -40.5t-13.5 -51.5q0 -38 32.5 -60t73.5 -22v-201q-28 -8 -72 -8q-52 0 -96 9t-84.5 30t-64 62.5t-23.5 99.5q0 77 49.5 135t108.5 86h-88v125 q-38 -62 -114 -107t-173 -45q-88 0 -155.5 28.5t-107.5 74.5t-65 111t-34 128.5t-9 137.5z" />
<glyph unicode="&#x174;" horiz-adv-x="2000" d="M18 1434h316l248 -1074l284 1074h267l284 -1074l250 1074h313l-383 -1434h-327l-271 989l-270 -989h-326zM662 1513l194 287h291l194 -287h-239l-101 146l-100 -146h-239z" />
<glyph unicode="&#x175;" horiz-adv-x="1695" d="M14 1071h308l188 -760l205 760h266l203 -760l190 760h307l-321 -1071h-316l-196 686l-199 -686h-315zM508 1196l194 287h291l195 -287h-240l-100 145l-100 -145h-240z" />
<glyph unicode="&#x176;" horiz-adv-x="1196" d="M14 1434h326l258 -514l258 514h326l-441 -779v-655h-286v655zM260 1513l195 287h290l195 -287h-240l-100 146l-100 -146h-240z" />
<glyph unicode="&#x177;" horiz-adv-x="1105" d="M12 1071h303l240 -698l242 698h295l-547 -1438h-271l150 394zM219 1196l195 287h291l194 -287h-240l-100 145l-100 -145h-240z" />
<glyph unicode="&#x178;" horiz-adv-x="1196" d="M14 1434h326l258 -514l258 514h326l-441 -779v-655h-286v655zM264 1675q0 58 39.5 99t99.5 41q59 0 99.5 -41t40.5 -99q0 -59 -40 -99t-100 -40q-61 0 -100 40t-39 99zM657 1675q0 58 39 99t101 41q59 0 99 -41t40 -99q0 -59 -39.5 -99t-99.5 -40q-62 0 -101 40t-39 99z " />
<glyph unicode="&#x179;" horiz-adv-x="1234" d="M66 0v188l704 990h-684v256h1069v-189l-709 -989h715v-256h-1095zM461 1511l137 295h297l-199 -295h-235z" />
<glyph unicode="&#x17a;" horiz-adv-x="958" d="M57 0v174l484 662h-469v235h819v-176l-483 -659h489v-236h-840zM324 1190l137 295h297l-199 -295h-235z" />
<glyph unicode="&#x17b;" horiz-adv-x="1234" d="M66 0v188l704 990h-684v256h1069v-189l-709 -989h715v-256h-1095zM453 1657q0 69 47 115.5t116 46.5q71 0 118.5 -46.5t47.5 -115.5t-47.5 -115.5t-118.5 -46.5q-69 0 -116 46.5t-47 115.5z" />
<glyph unicode="&#x17c;" horiz-adv-x="958" d="M57 0v174l484 662h-469v235h819v-176l-483 -659h489v-236h-840zM324 1329q0 69 47 115.5t116 46.5q71 0 118.5 -46.5t47.5 -115.5t-47.5 -115.5t-118.5 -46.5q-69 0 -116 46.5t-47 115.5z" />
<glyph unicode="&#x17d;" horiz-adv-x="1234" d="M66 0v188l704 990h-684v256h1069v-189l-709 -989h715v-256h-1095zM274 1800h240l100 -145l101 145h239l-194 -287h-291z" />
<glyph unicode="&#x17e;" horiz-adv-x="958" d="M57 0v174l484 662h-469v235h819v-176l-483 -659h489v-236h-840zM145 1483h240l100 -146l101 146h239l-194 -287h-291z" />
<glyph unicode="&#x192;" horiz-adv-x="974" d="M-55 -381l32 236q40 -9 72 -9q87 0 122.5 45.5t53.5 171.5l80 599h-123v229h154l26 203q11 81 41 145t70.5 104t92.5 66t104.5 36.5t109.5 10.5q34 0 66.5 -3t48.5 -6l16 -3l-30 -236q-45 9 -74 9q-147 0 -168 -152l-25 -174h179v-229h-209l-88 -670q-52 -385 -422 -385 q-60 0 -129 12z" />
<glyph unicode="&#x1fa;" horiz-adv-x="1351" d="M16 0l490 1384q-49 55 -49 136q0 90 62 146t155 56q96 0 158.5 -55.5t62.5 -144.5q0 -84 -51 -138l491 -1384h-291l-124 369h-488l-125 -369h-291zM510 608h334l-168 516zM541 1780l137 295h297l-199 -295h-235zM598 1520q0 -35 21.5 -57.5t56.5 -22.5t56.5 22.5 t21.5 59.5q0 34 -21.5 55.5t-56.5 21.5t-56.5 -22t-21.5 -57z" />
<glyph unicode="&#x1fb;" horiz-adv-x="1077" d="M49 332q0 159 114.5 256.5t301.5 97.5q75 0 136 -17.5t95 -41.5v69q0 72 -51 115t-143 43q-137 0 -285 -76l-106 193q78 54 191.5 90.5t229.5 36.5q125 0 214 -31t139 -89.5t72 -131.5t22 -168v-678h-250l-18 70q-90 -97 -260 -97q-169 0 -285.5 98t-116.5 261zM319 1343 q0 90 62.5 146.5t155.5 56.5q96 0 158.5 -55.5t62.5 -144.5q0 -90 -62.5 -147.5t-158.5 -57.5q-93 0 -155.5 57t-62.5 145zM332 340q0 -65 53 -106t133 -41q81 0 132.5 40t51.5 107q0 69 -51.5 109t-134.5 40q-82 0 -133 -41.5t-51 -107.5zM399 1585l138 295h297l-199 -295 h-236zM461 1343q0 -35 21.5 -57t56.5 -22t56 22.5t21 59.5q0 34 -21 55.5t-56 21.5t-56.5 -22.5t-21.5 -57.5z" />
<glyph unicode="&#x1fc;" horiz-adv-x="1755" d="M16 0l748 1434h881v-260h-447v-320h383v-256h-383v-340h465v-258h-754v369h-393l-186 -369h-314zM623 608h286v545h-10zM913 1511l138 295h297l-199 -295h-236z" />
<glyph unicode="&#x1fd;" horiz-adv-x="1781" d="M49 332q0 159 114.5 256.5t301.5 97.5q75 0 136 -17.5t95 -41.5v69q0 72 -51 115t-143 43q-137 0 -285 -76q-22 37 -59.5 106.5t-46.5 86.5q192 127 421 127q238 0 342 -135q135 135 338 135q248 0 385.5 -153.5t137.5 -418.5q0 -41 -2 -61h-754q5 -108 82 -177t196 -69 q96 0 162 41.5t99 89.5l186 -141q-14 -26 -37 -54t-63.5 -61.5t-88.5 -59.5t-117 -43.5t-145 -17.5q-136 0 -245.5 46t-180.5 133q-115 -179 -376 -179q-169 0 -285.5 98t-116.5 261zM332 340q0 -65 53 -106t133 -41t131 40t51 107q0 69 -50.5 109t-133.5 40 q-82 0 -133 -41.5t-51 -107.5zM743 1190l138 295h297l-199 -295h-236zM987 649h459q-4 98 -67.5 157.5t-161.5 59.5q-96 0 -158.5 -61t-71.5 -156z" />
<glyph unicode="&#x1fe;" horiz-adv-x="1613" d="M61 717q0 208 94 377t265 267.5t387 98.5q208 0 383 -96l94 119l156 -123l-94 -117q99 -100 152.5 -236t53.5 -290q0 -157 -55 -294t-152 -236.5t-236.5 -156.5t-301.5 -57q-217 0 -391 99l-97 -121l-153 123l96 121q-96 99 -148.5 233.5t-52.5 288.5zM362 717 q0 -165 84 -289l566 713q-93 49 -205 49q-193 0 -319 -135t-126 -338zM594 295q94 -51 213 -51q193 0 318.5 133.5t125.5 339.5q0 167 -90 293zM662 1511l137 295h297l-199 -295h-235z" />
<glyph unicode="&#x1ff;" horiz-adv-x="1255" d="M51 532q0 160 75.5 290t207.5 203t293 73q153 0 284 -70l78 98l135 -104l-75 -96q74 -77 114.5 -178t40.5 -216q0 -243 -162.5 -401t-414.5 -158q-153 0 -281 64l-80 -103l-133 105l76 96q-158 161 -158 397zM334 532q0 -104 47 -178l369 467q-62 27 -123 27 q-128 0 -210.5 -89t-82.5 -227zM477 1190l137 295h297l-198 -295h-236zM512 244q52 -21 115 -21q128 0 211.5 86.5t83.5 222.5q0 99 -45 175z" />
<glyph unicode="&#x218;" horiz-adv-x="1067" d="M45 305l244 119q33 -79 95.5 -130.5t152.5 -51.5q80 0 125 39t45 108q0 39 -21 72t-57 58.5t-82.5 49t-97.5 48t-102.5 51.5t-98 63.5t-82.5 80.5t-57 106t-21 135q0 182 123.5 294.5t327.5 112.5q82 0 153 -23t117.5 -56.5t83.5 -78.5t56.5 -82t31.5 -73l-240 -109 q-14 31 -29 54t-39.5 48.5t-60.5 39.5t-80 14q-72 0 -113.5 -38.5t-41.5 -98.5q0 -48 34.5 -87t89 -68.5t121 -59t133 -67t121 -84t89 -119t34.5 -162.5q0 -193 -129.5 -315t-349.5 -122q-88 0 -163 24t-125 59t-90 82t-61.5 87t-35.5 80zM365 -211q0 63 45 107.5t108 44.5 q70 0 115 -49t45 -128q0 -107 -54 -203.5t-141 -156.5l-98 104q82 65 100 134q-57 11 -88.5 53.5t-31.5 93.5z" />
<glyph unicode="&#x219;" horiz-adv-x="890" d="M39 172l166 147q101 -116 246 -116q61 0 96 25.5t35 70.5q0 33 -28 58t-72.5 43t-98.5 37t-108 46t-98.5 63t-72.5 96.5t-28 137.5q0 146 110 232t279 86q137 0 228 -56.5t138 -134.5l-186 -139q-82 102 -192 102q-50 0 -80.5 -23.5t-30.5 -62.5q0 -34 28 -59t73 -42 t99 -34.5t108 -43.5t99 -60.5t73 -94t28 -137.5q0 -154 -117.5 -247t-294.5 -93q-145 0 -247 59t-152 140zM295 -211q0 63 45.5 107.5t108.5 44.5q70 0 114.5 -49t44.5 -128q0 -108 -53.5 -204t-140.5 -156l-99 104q84 65 101 134q-57 11 -89 53.5t-32 93.5z" />
<glyph unicode="&#x21a;" horiz-adv-x="1046" d="M43 1174v260h958v-260h-333v-1174h-289v1174h-336zM360 -211q0 63 45.5 107.5t108.5 44.5q70 0 115 -49t45 -128q0 -107 -54 -203.5t-141 -156.5l-98 104q82 65 100 134q-57 11 -89 53.5t-32 93.5z" />
<glyph unicode="&#x21b;" horiz-adv-x="681" d="M23 842v229h114v225h279v-225h200v-229h-200v-414q0 -115 35.5 -153.5t121.5 -38.5q29 0 52 2v-242q-43 -10 -121 -10q-190 0 -279.5 107t-89.5 327v422h-112zM250 -211q0 63 45 107.5t108 44.5q70 0 115 -49t45 -128q0 -108 -53.5 -204t-140.5 -156l-99 104 q84 65 101 134q-57 11 -89 53.5t-32 93.5z" />
<glyph unicode="&#x237;" d="M-86 -147q29 -5 49 -5q148 0 148 150v1073h282v-1085q0 -103 -31 -178t-87.5 -117.5t-128.5 -62t-162 -19.5l-70 4v240z" />
<glyph unicode="&#x2c6;" horiz-adv-x="911" d="M115 1196l194 287h291l195 -287h-240l-100 145l-101 -145h-239z" />
<glyph unicode="&#x2c7;" horiz-adv-x="911" d="M115 1483h239l101 -146l100 146h240l-195 -287h-291z" />
<glyph unicode="&#x2d8;" horiz-adv-x="911" d="M143 1483h203q0 -55 24.5 -91t82.5 -36q108 0 108 127h203q0 -131 -82 -212t-229 -81q-145 0 -227.5 81.5t-82.5 211.5z" />
<glyph unicode="&#x2d9;" horiz-adv-x="911" d="M291 1329q0 69 47.5 115.5t116.5 46.5q71 0 118.5 -46.5t47.5 -115.5t-47.5 -115.5t-118.5 -46.5q-69 0 -116.5 46.5t-47.5 115.5z" />
<glyph unicode="&#x2da;" horiz-adv-x="911" d="M236 1358q0 90 62 146.5t155 56.5q96 0 158.5 -56t62.5 -145q0 -90 -62.5 -147.5t-158.5 -57.5q-93 0 -155 57t-62 146zM377 1358q0 -35 21.5 -57.5t56.5 -22.5t56 22.5t21 59.5q0 34 -21 56t-56 22t-56.5 -22.5t-21.5 -57.5z" />
<glyph unicode="&#x2db;" horiz-adv-x="911" d="M283 -221q0 77 49 135t108 86h189q-13 -5 -28.5 -14t-36.5 -25t-34.5 -40.5t-13.5 -51.5q0 -38 33 -60t74 -22v-201q-28 -8 -72 -8q-52 0 -96 9t-84.5 30t-64 62.5t-23.5 99.5z" />
<glyph unicode="&#x2dc;" horiz-adv-x="911" d="M94 1200q0 123 62 199t163 76q48 0 97 -19t89 -38t66 -19q31 0 48.5 21t17.5 57h178q0 -126 -60.5 -200.5t-160.5 -74.5q-59 0 -142.5 38t-113.5 38q-31 0 -48.5 -20.5t-17.5 -57.5h-178z" />
<glyph unicode="&#x2dd;" horiz-adv-x="952" d="M92 1190l137 295h273l-199 -295h-211zM449 1190l139 295h270l-196 -295h-213z" />
<glyph unicode="&#x1e80;" horiz-adv-x="1996" d="M18 1434h316l248 -1074l284 1074h267l284 -1074l250 1074h313l-383 -1434h-327l-271 989l-270 -989h-326zM662 1806h296l138 -295h-236z" />
<glyph unicode="&#x1e81;" horiz-adv-x="1695" d="M14 1071h308l188 -760l205 760h266l203 -760l190 760h307l-321 -1071h-316l-196 686l-199 -686h-315zM524 1485h297l137 -295h-235z" />
<glyph unicode="&#x1e82;" horiz-adv-x="1998" d="M18 1434h316l248 -1074l284 1074h267l284 -1074l250 1074h313l-383 -1434h-327l-271 989l-270 -989h-326zM872 1511l138 295h297l-199 -295h-236z" />
<glyph unicode="&#x1e83;" horiz-adv-x="1695" d="M14 1071h308l188 -760l205 760h266l203 -760l190 760h307l-321 -1071h-316l-196 686l-199 -686h-315zM735 1190l137 295h297l-198 -295h-236z" />
<glyph unicode="&#x1e84;" horiz-adv-x="1998" d="M18 1434h316l248 -1074l284 1074h267l284 -1074l250 1074h313l-383 -1434h-327l-271 989l-270 -989h-326zM666 1663q0 58 39.5 98.5t99.5 40.5q59 0 99 -40.5t40 -98.5q0 -59 -39.5 -99t-99.5 -40q-61 0 -100 40t-39 99zM1059 1663q0 58 38.5 98.5t100.5 40.5 q59 0 99 -40.5t40 -98.5q0 -59 -39.5 -99t-99.5 -40q-62 0 -100.5 39.5t-38.5 99.5z" />
<glyph unicode="&#x1e85;" horiz-adv-x="1695" d="M14 1071h308l188 -760l205 760h266l203 -760l190 760h307l-321 -1071h-316l-196 686l-199 -686h-315zM510 1337q0 58 39.5 99t99.5 41q59 0 99 -41t40 -99q0 -59 -39.5 -99t-99.5 -40q-61 0 -100 40t-39 99zM903 1337q0 59 38.5 99.5t100.5 40.5q59 0 99.5 -41t40.5 -99 q0 -59 -40 -99t-100 -40q-62 0 -100.5 39.5t-38.5 99.5z" />
<glyph unicode="&#x1ef2;" horiz-adv-x="1196" d="M14 1434h326l258 -514l258 514h326l-441 -779v-655h-286v655zM311 1806h297l137 -295h-235z" />
<glyph unicode="&#x1ef3;" horiz-adv-x="1105" d="M12 1071h303l240 -698l242 698h295l-547 -1438h-271l150 394zM270 1485h297l138 -295h-236z" />
<glyph unicode="&#x2000;" horiz-adv-x="1037" />
<glyph unicode="&#x2001;" horiz-adv-x="2075" />
<glyph unicode="&#x2002;" horiz-adv-x="1037" />
<glyph unicode="&#x2003;" horiz-adv-x="2075" />
<glyph unicode="&#x2004;" horiz-adv-x="691" />
<glyph unicode="&#x2005;" horiz-adv-x="518" />
<glyph unicode="&#x2006;" horiz-adv-x="345" />
<glyph unicode="&#x2007;" horiz-adv-x="345" />
<glyph unicode="&#x2008;" horiz-adv-x="259" />
<glyph unicode="&#x2009;" horiz-adv-x="415" />
<glyph unicode="&#x200a;" horiz-adv-x="115" />
<glyph unicode="&#x2010;" horiz-adv-x="755" d="M92 496v254h570v-254h-570z" />
<glyph unicode="&#x2011;" horiz-adv-x="755" d="M92 496v254h570v-254h-570z" />
<glyph unicode="&#x2012;" horiz-adv-x="755" d="M92 496v254h570v-254h-570z" />
<glyph unicode="&#x2013;" horiz-adv-x="1327" d="M92 514v231h1143v-231h-1143z" />
<glyph unicode="&#x2014;" horiz-adv-x="1880" d="M92 514v231h1694v-231h-1694z" />
<glyph unicode="&#x2018;" horiz-adv-x="460" d="M53 1053q0 134 64.5 253.5t163.5 192.5l110 -123q-40 -27 -80 -74t-47 -92q66 -14 104 -63t38 -107q0 -72 -50.5 -124t-122.5 -52q-77 0 -128.5 50.5t-51.5 138.5z" />
<glyph unicode="&#x2019;" horiz-adv-x="460" d="M53 1323q0 72 50 124t122 52q77 0 129 -50.5t52 -137.5q0 -134 -64.5 -254t-163.5 -193l-110 123q40 27 80 74t47 92q-66 14 -104 63t-38 107z" />
<glyph unicode="&#x201a;" horiz-adv-x="499" d="M76 145q0 72 50 124.5t122 52.5q77 0 128.5 -50.5t51.5 -138.5q0 -134 -64 -253.5t-163 -192.5l-111 123q41 27 80.5 74t46.5 91q-66 14 -103.5 62.5t-37.5 107.5z" />
<glyph unicode="&#x201c;" horiz-adv-x="870" d="M53 1053q0 134 64.5 253.5t163.5 192.5l110 -123q-40 -27 -80 -74t-47 -92q66 -14 104 -63t38 -107q0 -72 -50.5 -124t-122.5 -52q-77 0 -128.5 50.5t-51.5 138.5zM463 1053q0 134 64 253.5t163 192.5l111 -123q-40 -27 -80 -74t-47 -92q66 -14 103.5 -62.5t37.5 -107.5 q0 -72 -50 -124t-122 -52q-77 0 -128.5 50.5t-51.5 138.5z" />
<glyph unicode="&#x201d;" horiz-adv-x="870" d="M53 1323q0 72 50 124t122 52q77 0 129 -50.5t52 -137.5q0 -134 -64.5 -254t-163.5 -193l-110 123q40 27 80 74t47 92q-66 14 -104 63t-38 107zM463 1323q0 72 50 124t122 52q77 0 128.5 -50t51.5 -138q0 -134 -64 -254t-163 -193l-111 123q40 27 80 74t47 92 q-66 14 -103.5 62.5t-37.5 107.5z" />
<glyph unicode="&#x201e;" horiz-adv-x="870" d="M53 145q0 72 50 124.5t122 52.5q77 0 129 -50.5t52 -138.5q0 -134 -64.5 -253.5t-163.5 -192.5l-110 123q41 27 80.5 74t46.5 91q-66 14 -104 63t-38 107zM463 145q0 72 50 124.5t122 52.5q77 0 128.5 -50.5t51.5 -138.5q0 -134 -64 -253.5t-163 -192.5l-111 123 q41 27 80.5 74t46.5 91q-66 14 -103.5 62.5t-37.5 107.5z" />
<glyph unicode="&#x2020;" horiz-adv-x="870" d="M55 852v246h240v336h276v-336h244v-246h-244v-852h-276v852h-240z" />
<glyph unicode="&#x2021;" horiz-adv-x="868" d="M55 346v244h244v250h-244v245h244v349h276v-349h240v-245h-240v-250h240v-244h-240v-346h-276v346h-244z" />
<glyph unicode="&#x2022;" horiz-adv-x="831" d="M63 635q0 148 101 250t252 102t251.5 -102t100.5 -250t-100.5 -250t-251.5 -102t-252 102t-101 250z" />
<glyph unicode="&#x202f;" horiz-adv-x="415" />
<glyph unicode="&#x2030;" horiz-adv-x="2439" d="M57 1118q0 143 100 242.5t249 99.5t248.5 -99.5t99.5 -242.5t-99.5 -242.5t-248.5 -99.5t-249 99.5t-100 242.5zM143 0l1086 1434h274l-1085 -1434h-275zM272 1118q0 -57 37 -97t97 -40t96.5 40t36.5 97t-36.5 97t-96.5 40t-97 -40t-37 -97zM891 311q0 143 99.5 242.5 t248.5 99.5t248.5 -99.5t99.5 -242.5t-99.5 -242.5t-248.5 -99.5t-248.5 99.5t-99.5 242.5zM1106 311q0 -57 36.5 -97t96.5 -40t96.5 40t36.5 97q0 58 -36.5 98t-96.5 40t-96.5 -40t-36.5 -98zM1686 311q0 143 99.5 242.5t248.5 99.5t248.5 -99.5t99.5 -242.5t-99.5 -242.5 t-248.5 -99.5t-248.5 99.5t-99.5 242.5zM1901 311q0 -57 36.5 -97t96.5 -40t96.5 40t36.5 97q0 58 -36.5 98t-96.5 40t-96.5 -40t-36.5 -98z" />
<glyph unicode="&#x2039;" horiz-adv-x="618" d="M57 600l250 385h252l-250 -385l250 -383h-252z" />
<glyph unicode="&#x203a;" horiz-adv-x="618" d="M57 217l250 383l-250 385h252l250 -385l-250 -383h-252z" />
<glyph unicode="&#x2044;" horiz-adv-x="942" d="M-33 -84l766 1602h244l-768 -1602h-242z" />
<glyph unicode="&#x205f;" horiz-adv-x="518" />
<glyph unicode="&#x20ac;" horiz-adv-x="1320" d="M49 473v186h103q-5 20 -5 60q0 20 5 65h-103v189h139q68 215 248.5 351t419.5 136q223 0 367 -92l-119 -235q-111 63 -242 63q-122 0 -217.5 -60.5t-140.5 -162.5h452l-18 -189h-485q-4 -40 -4 -63q0 -38 6 -62h473l-19 -186h-397q47 -104 143 -165.5t222 -61.5 q77 0 143.5 20.5t105.5 46.5l111 -233q-44 -41 -142.5 -74t-217.5 -33q-258 0 -441 138t-250 362h-137z" />
<glyph unicode="&#x2116;" horiz-adv-x="2351" d="M135 0v1434h293l612 -983v983h285v-1434h-287l-618 975v-975h-285zM1475 1085q0 153 107.5 264t270.5 111q164 0 271.5 -111t107.5 -264t-107.5 -261.5t-271.5 -108.5t-271 108.5t-107 261.5zM1509 387v227h686v-227h-686zM1679 1085q0 -72 48.5 -123t125.5 -51 q75 0 125 51.5t50 122.5q0 72 -49 125.5t-126 53.5t-125.5 -53.5t-48.5 -125.5z" />
<glyph unicode="&#x2122;" horiz-adv-x="1591" d="M66 1260v174h550v-174h-178v-566h-192v566h-180zM686 694v740h244l174 -435l176 435h246v-740h-187v430l-145 -348h-176l-146 348v-430h-186z" />
<glyph unicode="&#x2212;" horiz-adv-x="1126" d="M74 524v228h979v-228h-979z" />
<glyph unicode="&#x25fc;" horiz-adv-x="1075" d="M0 0v1075h1075v-1075h-1075z" />
<glyph unicode="&#xf6c3;" horiz-adv-x="598" d="M141 -211q0 63 45.5 107.5t108.5 44.5q70 0 115 -49t45 -128q0 -107 -54 -203.5t-141 -156.5l-98 104q82 65 100 134q-57 11 -89 53.5t-32 93.5z" />
<glyph horiz-adv-x="755" d="M92 592v254h570v-254h-570z" />
<glyph horiz-adv-x="1327" d="M92 608v232h1143v-232h-1143z" />
<glyph horiz-adv-x="1880" d="M92 608v232h1694v-232h-1694z" />
<glyph horiz-adv-x="1003" d="M57 731l250 385h252l-250 -385l250 -383h-252zM442 731l250 385h252l-250 -385l250 -383h-252z" />
<glyph horiz-adv-x="1003" d="M57 348l250 383l-250 385h252l250 -385l-250 -383h-252zM442 348l250 383l-250 385h252l250 -385l-250 -383h-252z" />
<glyph horiz-adv-x="618" d="M57 731l250 385h252l-250 -385l250 -383h-252z" />
<glyph horiz-adv-x="618" d="M57 348l250 383l-250 385h252l250 -385l-250 -383h-252z" />
<glyph horiz-adv-x="679" d="M92 158v1112q0 434 457 434v-244q-176 0 -176 -174v-1143q0 -174 176 -174v-243q-457 0 -457 432z" />
<glyph horiz-adv-x="681" d="M131 -31q176 0 176 174v1143q0 174 -176 174v244q457 0 457 -434v-1112q0 -432 -457 -432v243z" />
<glyph horiz-adv-x="679" d="M92 -274v1978h457v-244h-176v-1491h176v-243h-457z" />
<glyph horiz-adv-x="684" d="M131 -31h176v1491h-176v244h457v-1978h-457v243z" />
<glyph horiz-adv-x="794" d="M57 584v264q150 0 150 203v219q0 434 457 434v-244q-179 0 -179 -174v-303q0 -66 -19 -119.5t-47.5 -83t-52 -45t-42.5 -20.5q18 -4 42 -19.5t52.5 -45t47.5 -82.5t19 -119v-306q0 -174 179 -174v-243q-457 0 -457 434v221q0 203 -150 203z" />
<glyph horiz-adv-x="577" d="M156 -420v2169h266v-2169h-266z" />
<glyph horiz-adv-x="794" d="M131 -31q178 0 178 174v306q0 66 19.5 119t47.5 82.5t52.5 45t42.5 19.5q-19 5 -42.5 20.5t-52.5 45t-48 83t-19 119.5v303q0 174 -178 174v244q457 0 457 -434v-219q0 -203 149 -203v-264q-149 0 -149 -203v-221q0 -434 -457 -434v243z" />
<glyph horiz-adv-x="925" d="M31 -166l616 1757h248l-616 -1757h-248z" />
<glyph horiz-adv-x="925" d="M31 1591h248l616 -1757h-248z" />
<glyph horiz-adv-x="598" d="M125 1288q0 71 50.5 121.5t123.5 50.5t123.5 -50.5t50.5 -121.5q0 -73 -50.5 -124.5t-123.5 -51.5t-123.5 51.5t-50.5 124.5zM150 0l22 1026h254l23 -1026h-299z" />
<glyph horiz-adv-x="987" d="M59 371q0 62 19 117t49 96t66.5 77.5t73 69t66.5 64.5t49 69.5t19 77.5v84h275v-100q0 -76 -34 -141.5t-82 -111.5t-96 -88.5t-82 -93t-34 -104.5q0 -63 47 -108.5t125 -45.5q127 0 182 127l226 -100q-13 -37 -33 -73.5t-55.5 -76t-79 -69t-107.5 -49t-137 -19.5 q-199 0 -328 112t-129 286zM365 1288q0 71 50.5 121.5t123.5 50.5t123.5 -50.5t50.5 -121.5q0 -73 -50.5 -124.5t-123.5 -51.5t-123.5 51.5t-50.5 124.5z" />
<glyph horiz-adv-x="509" d="M80 725q0 73 50.5 124.5t123.5 51.5t123.5 -51.5t50.5 -124.5q0 -71 -50.5 -121.5t-123.5 -50.5t-123.5 50.5t-50.5 121.5z" />
<glyph horiz-adv-x="831" d="M63 725q0 148 101 250t252 102t251.5 -102t100.5 -250t-100.5 -250t-251.5 -102t-252 102t-101 250z" />
<glyph horiz-adv-x="1189" d="M100 717q0 375 116 559t378 184q264 0 380 -183.5t116 -559.5q0 -377 -116 -560.5t-380 -183.5q-262 0 -378 183.5t-116 560.5zM393 717q0 -82 3 -141.5t10.5 -116t21.5 -94t36.5 -66t54.5 -42t75 -13.5q52 0 88.5 21t59 57t35 98t16.5 130t4 167q0 82 -3 141 t-10.5 115.5t-22 94t-36.5 66.5t-54.5 42.5t-76.5 13.5q-43 0 -75 -13.5t-54 -42.5t-36.5 -66.5t-22 -94t-10.5 -115.5t-3 -141z" />
<glyph horiz-adv-x="1189" d="M117 1235l454 199h236v-1182h266v-252h-915v252h364v897l-305 -133z" />
<glyph horiz-adv-x="1189" d="M119 1100q11 47 31 92.5t58.5 95.5t88 87t125 61t164.5 24q209 0 338 -117.5t129 -312.5q0 -78 -29.5 -152.5t-78 -134t-107 -115t-119.5 -104.5t-113.5 -93t-90.5 -90.5t-48 -88.5h602v-252h-944v102q0 83 35 165t90.5 150t123.5 133.5t135.5 125.5t123 116t90.5 114.5 t35 111.5q0 80 -49.5 128t-135.5 48q-152 0 -202 -168z" />
<glyph horiz-adv-x="1189" d="M113 326l247 77q24 -73 79.5 -119t142.5 -46q90 0 145 53.5t55 142.5q0 88 -60.5 141.5t-174.5 53.5h-158v223l297 328h-518v254h848v-254l-301 -316q69 -7 132.5 -38t115 -82t82 -128.5t30.5 -169.5q0 -208 -137.5 -340.5t-349.5 -132.5q-111 0 -199 33t-142.5 87.5 t-86.5 112t-47 120.5z" />
<glyph horiz-adv-x="1189" d="M49 334v207l588 893h336v-854h168v-246h-168v-334h-285v334h-639zM346 580h342v532z" />
<glyph horiz-adv-x="1189" d="M106 326l250 77q21 -76 78.5 -120.5t145.5 -44.5q93 0 152 64t59 163q0 93 -59 160t-169 67q-97 0 -170 -78l-239 41l30 779h809v-254h-553l-12 -293q88 49 205 49q186 0 317 -127t131 -322q0 -225 -137 -369.5t-350 -144.5q-88 0 -164.5 22.5t-129 58t-94 83t-65 94 t-35.5 95.5z" />
<glyph horiz-adv-x="1189" d="M102 625q0 140 17 258t59 227t107.5 184.5t168 120.5t234.5 45q186 0 336 -94l-113 -233q-87 57 -204 57q-69 0 -122.5 -22.5t-84.5 -56t-51.5 -79.5t-28.5 -86.5t-10 -83.5q107 92 256 92q190 0 305.5 -126t115.5 -349q0 -227 -132 -366.5t-349 -139.5q-115 0 -203 32 t-144.5 88t-92 140t-50 179t-14.5 213zM395 584q0 -51 2.5 -87.5t9.5 -79t21.5 -71t37.5 -53.5t59 -37t83 -12q93 0 144 59.5t51 167.5q0 100 -52 162.5t-149 62.5q-123 0 -207 -112z" />
<glyph horiz-adv-x="1189" d="M115 1180v254h958v-220l-481 -1214h-311l487 1180h-653z" />
<glyph horiz-adv-x="1189" d="M90 422q0 121 59 209t138 131q-63 40 -110.5 116t-47.5 175q0 179 127.5 293t337.5 114q209 0 337 -113.5t128 -293.5q0 -99 -48 -175t-112 -116q82 -44 140.5 -131.5t58.5 -208.5q0 -203 -139 -326t-367 -123q-229 0 -365.5 122t-136.5 327zM385 426q0 -83 55.5 -136.5 t153.5 -53.5q99 0 154 53.5t55 136.5q0 85 -57 138.5t-152 53.5t-152 -53.5t-57 -138.5zM416 1036q0 -74 49.5 -120t128.5 -46q78 0 128 46.5t50 119.5q0 70 -47.5 117t-130.5 47q-84 0 -131 -46.5t-47 -117.5z" />
<glyph horiz-adv-x="1204" d="M109 954q0 227 132 366.5t349 139.5q143 0 243.5 -47.5t156.5 -138t80 -203.5t24 -262q0 -140 -17 -258.5t-59 -227t-107.5 -184.5t-168 -121t-234.5 -45q-185 0 -336 95l113 233q87 -57 204 -57q69 0 122.5 22.5t84.5 55.5t51.5 79.5t28.5 86.5t10 83q-107 -92 -256 -92 q-190 0 -305.5 126t-115.5 349zM393 963q0 -101 52 -163.5t149 -62.5q122 0 207 113q0 51 -2.5 87.5t-9.5 79t-21.5 71t-37.5 53.5t-59 37t-83 12q-93 0 -144 -59.5t-51 -167.5z" />
</font>
</defs>
</svg>
