<?xml version="1.0" standalone="no"?>
<!DOCTYPE svg PUBLIC "-//W3C//DTD SVG 1.1//EN" "http://www.w3.org/Graphics/SVG/1.1/DTD/svg11.dtd" >
<svg xmlns="http://www.w3.org/2000/svg">
<metadata></metadata>
<defs>
<font id="geomanistregular" horiz-adv-x="538" >
<font-face units-per-em="2048" ascent="1536" descent="-512" />
<missing-glyph horiz-adv-x="401" />
<glyph unicode="&#x2e;&#x2e;&#x2e;" horiz-adv-x="1673" d="M63 176q0 85 59 145t144 60t145 -60t60 -145q0 -83 -60 -143t-145 -60q-84 0 -143.5 59.5t-59.5 143.5zM633 176q0 85 59 145t144 60t144.5 -60t59.5 -145q0 -84 -60 -143.5t-144 -59.5t-143.5 59.5t-59.5 143.5zM1202 176q0 85 59 145t144 60t145 -60t60 -145 q0 -83 -60 -143t-145 -60q-84 0 -143.5 59.5t-59.5 143.5z" />
<glyph unicode="&#xd;" horiz-adv-x="401" />
<glyph unicode=" "  horiz-adv-x="401" />
<glyph unicode="&#x09;" horiz-adv-x="401" />
<glyph unicode="&#xa0;" horiz-adv-x="401" />
<glyph unicode="!" horiz-adv-x="632" d="M113 176q0 85 59 145t143 60q85 0 145 -60t60 -145q0 -83 -60 -143t-145 -60q-84 0 -143 59.5t-59 143.5zM135 1434h363l-27 -1002h-309z" />
<glyph unicode="&#x22;" horiz-adv-x="833" d="M84 1434h272l-10 -527h-252zM479 1434h273l-11 -527h-252z" />
<glyph unicode="#" horiz-adv-x="1361" d="M49 350l51 254h183l45 223h-181l52 254h182l74 353h282l-73 -353h192l74 353h282l-73 -353h174l-51 -254h-177l-45 -223h174l-51 -254h-176l-72 -350h-282l72 350h-193l-72 -350h-282l71 350h-180zM565 604h193l45 223h-193z" />
<glyph unicode="$" horiz-adv-x="1083" d="M35 315l293 146q32 -68 89 -114t126 -46q62 0 94.5 26t32.5 74q0 38 -33 70t-85 58.5t-115.5 55t-127 68t-115.5 88t-85 124.5t-33 169q0 170 101.5 281.5t275.5 136.5v117h202v-119q65 -13 121 -42t93 -63t67 -76.5t46 -75t28 -65.5l-291 -133q-14 30 -26 50t-33 43.5 t-51.5 36t-69.5 12.5q-50 0 -81.5 -27.5t-31.5 -69.5q0 -39 33 -71.5t85.5 -59t116.5 -54t128 -64.5t116.5 -83.5t85.5 -118.5t33 -161q0 -170 -98.5 -288.5t-270.5 -153.5v-162h-202v153q-78 9 -144.5 38t-110.5 65t-79.5 82t-54 82t-29.5 71z" />
<glyph unicode="%" horiz-adv-x="1695" d="M45 1106q0 149 103.5 251.5t259.5 102.5q159 0 263.5 -102.5t104.5 -251.5q0 -150 -103.5 -251t-262.5 -101t-262 100t-103 252zM143 0l1082 1434h327l-1081 -1434h-328zM299 1108q0 -49 32 -82t79 -33q51 0 81.5 33t30.5 82q0 47 -31.5 79t-80.5 32t-80 -32.5t-31 -78.5 zM918 326q0 149 103.5 251.5t258.5 102.5q160 0 264.5 -102.5t104.5 -251.5q0 -150 -104 -251.5t-263 -101.5t-261.5 100.5t-102.5 252.5zM1171 328q0 -49 32 -82t79 -33q51 0 82 33t31 82q0 46 -32 78t-81 32q-50 0 -80.5 -32t-30.5 -78z" />
<glyph unicode="&#x26;" horiz-adv-x="1370" d="M45 420q0 132 58 228t176 179q-99 133 -99 256q0 166 118 271.5t312 105.5q206 0 322.5 -107.5t116.5 -277.5q0 -221 -234 -373l148 -143q22 51 22 129h318q0 -214 -109 -377l139 -151l-227 -213l-139 147q-67 -54 -163.5 -87.5t-211.5 -33.5q-256 0 -401.5 124 t-145.5 323zM391 451q0 -81 61.5 -125.5t145.5 -44.5q48 0 87.5 15.5t59.5 37.5l-266 272q-44 -25 -66 -66.5t-22 -88.5zM492 1065q0 -50 31.5 -93t92.5 -91q129 88 129 184q0 54 -34.5 88.5t-94.5 34.5q-54 0 -89 -35t-35 -88z" />
<glyph unicode="'" horiz-adv-x="440" d="M84 1434h272l-10 -527h-252z" />
<glyph unicode="(" horiz-adv-x="716" d="M72 115v1089q0 228 128.5 350.5t389.5 122.5v-295q-180 0 -180 -172v-1101q0 -172 180 -172v-295q-262 0 -390 122t-128 351z" />
<glyph unicode=")" horiz-adv-x="716" d="M127 -63q180 0 180 172v1101q0 172 -180 172v295q261 0 389.5 -122.5t128.5 -350.5v-1089q0 -229 -128 -351t-390 -122v295z" />
<glyph unicode="*" horiz-adv-x="894" d="M59 969l162 88l-162 88l113 190l162 -88v187h225v-187l162 88l110 -190l-159 -88l162 -86l-113 -193l-162 90v-188h-225v188l-162 -90z" />
<glyph unicode="+" horiz-adv-x="1128" d="M72 504v270h350v373h285v-373h350v-270h-350v-375h-285v375h-350z" />
<glyph unicode="," horiz-adv-x="534" d="M63 176q0 85 59 145t144 60q89 0 149 -58.5t60 -162.5q0 -153 -71 -288t-191 -218l-133 147q48 27 92.5 76t52.5 100q-76 18 -119 74.5t-43 124.5z" />
<glyph unicode="-" horiz-adv-x="788" d="M96 473v307h594v-307h-594z" />
<glyph unicode="." horiz-adv-x="534" d="M63 176q0 85 59 145t144 60t145 -60t60 -145q0 -83 -60 -143t-145 -60q-84 0 -143.5 59.5t-59.5 143.5z" />
<glyph unicode="/" horiz-adv-x="954" d="M23 -221l612 1757h297l-613 -1757h-296z" />
<glyph unicode="0" horiz-adv-x="1202" d="M90 717q0 379 121.5 561t388.5 182t388.5 -182t121.5 -561t-122 -561.5t-388 -182.5t-388 182.5t-122 561.5zM444 717q0 -227 32 -321.5t124 -94.5t124 94.5t32 321.5t-32 321.5t-124 94.5t-124 -94.5t-32 -321.5z" />
<glyph unicode="1" horiz-adv-x="729" d="M29 1339l280 95h287v-1434h-346v1092l-139 -43z" />
<glyph unicode="2" horiz-adv-x="1140" d="M74 1087q12 51 33.5 99t61.5 99t92 89t130.5 62t171.5 24q216 0 352 -118.5t136 -323.5q0 -74 -26.5 -143.5t-70.5 -124.5t-97.5 -105.5t-110 -94.5t-105.5 -83.5t-87 -81.5t-52 -80h563v-305h-981v125q0 84 33.5 167t87.5 151t119 133t130 122.5t119 109t87.5 102.5 t33.5 94q0 64 -39 99.5t-106 35.5q-126 0 -172 -142z" />
<glyph unicode="3" horiz-adv-x="1124" d="M68 346l303 90q20 -63 65.5 -102t112.5 -39q72 0 115 42t43 112q0 63 -44 105t-124 42h-199v268l256 264h-469v306h870v-304l-260 -247q324 -67 324 -420q0 -218 -142 -354t-362 -136q-93 0 -171.5 24t-130.5 62t-92 89t-61.5 99t-33.5 99z" />
<glyph unicode="4" horiz-adv-x="1232" d="M51 319v248l557 867h412v-820h160v-295h-160v-319h-342v319h-627zM408 614h270v445z" />
<glyph unicode="5" horiz-adv-x="1128" d="M68 346l303 90q17 -66 65.5 -103.5t118.5 -37.5q73 0 122.5 50t49.5 130q0 70 -47 125t-141 55q-50 0 -86.5 -20.5t-53.5 -44.5l-286 45l28 799h848v-306h-536l-11 -215q79 37 185 37q87 0 168.5 -31t145 -87t102 -141.5t38.5 -186.5q0 -232 -144.5 -381.5t-363.5 -149.5 q-93 0 -173 24t-134.5 62t-96.5 88.5t-65.5 99.5t-35.5 99z" />
<glyph unicode="6" horiz-adv-x="1167" d="M74 637q0 131 17 244t60 222t110.5 186t176 124t248.5 47q197 0 344 -90l-133 -285q-84 48 -186 48q-63 0 -112.5 -18t-76.5 -44t-44.5 -59t-23 -57.5t-5.5 -45.5q82 60 223 60q90 0 166.5 -30.5t133.5 -89t89.5 -151.5t32.5 -211q0 -226 -138.5 -370t-359.5 -144 q-120 0 -210.5 31.5t-149.5 87.5t-95.5 141t-51.5 182.5t-15 221.5zM428 586q0 -43 1.5 -72.5t7 -66t17 -60t29.5 -45t47 -31.5t68 -10q75 0 113.5 47t38.5 127q0 82 -42 132t-118 50q-88 0 -162 -71z" />
<glyph unicode="7" horiz-adv-x="1073" d="M47 1128v306h979v-246l-451 -1188h-378l440 1128h-590z" />
<glyph unicode="8" horiz-adv-x="1171" d="M66 432q0 111 50 197t124 131q-58 42 -99 115.5t-41 166.5q0 182 132 300t354 118q221 0 353 -117.5t132 -300.5q0 -94 -41 -167.5t-100 -114.5q77 -46 126.5 -131t49.5 -197q0 -210 -142 -334.5t-380 -124.5q-239 0 -378.5 123.5t-139.5 335.5zM422 438q0 -66 43 -106.5 t121 -40.5q79 0 121.5 40t42.5 107q0 64 -43.5 107t-120.5 43q-76 0 -120 -43t-44 -107zM446 1020q0 -61 38 -95t102 -34t101.5 34t37.5 95q0 56 -36.5 91.5t-102.5 35.5q-67 0 -103.5 -35.5t-36.5 -91.5z" />
<glyph unicode="9" horiz-adv-x="1167" d="M74 946q0 226 138 370t359 144q120 0 211 -31.5t149.5 -87.5t95.5 -140.5t52 -182t15 -221.5q0 -130 -17 -243.5t-60.5 -223t-111 -186.5t-176 -124t-248.5 -47q-197 0 -344 90l133 285q82 -47 187 -47q63 0 112.5 18t76.5 44t44.5 58.5t23 57t5.5 45.5q-81 -59 -223 -59 q-90 0 -166.5 30.5t-133.5 89t-89.5 151t-32.5 210.5zM418 958q0 -82 42 -132t118 -50q86 0 161 72q0 43 -1.5 72.5t-7 66t-17 60t-29.5 45t-47 31.5t-68 10q-74 0 -112.5 -47t-38.5 -128z" />
<glyph unicode=":" horiz-adv-x="534" d="M63 176q0 85 59 145t144 60t145 -60t60 -145q0 -83 -60 -143t-145 -60q-84 0 -143.5 59.5t-59.5 143.5zM63 870q0 85 59 145t144 60t145 -60t60 -145q0 -83 -60 -142.5t-145 -59.5q-84 0 -143.5 59t-59.5 143z" />
<glyph unicode=";" horiz-adv-x="534" d="M63 176q0 85 59 145t144 60q89 0 149 -58.5t60 -162.5q0 -153 -71 -288t-191 -218l-133 147q48 27 92.5 76t52.5 100q-76 18 -119 74.5t-43 124.5zM63 870q0 85 59 145t144 60t145 -60t60 -145q0 -83 -60 -142.5t-145 -59.5q-84 0 -143.5 59t-59.5 143z" />
<glyph unicode="&#x3c;" horiz-adv-x="1056" d="M94 518v244l869 389v-293l-551 -217l551 -217v-295z" />
<glyph unicode="=" horiz-adv-x="1128" d="M72 289v270h985v-270h-985zM72 700v271h985v-271h-985z" />
<glyph unicode="&#x3e;" horiz-adv-x="1056" d="M94 129v295l551 217l-551 217v293l869 -389v-244z" />
<glyph unicode="?" horiz-adv-x="1003" d="M49 1161q13 39 33 76t57 79t83.5 72.5t117.5 51t154 20.5q202 0 331 -111.5t129 -291.5q0 -59 -18 -112t-47 -92t-64 -74.5t-70.5 -66.5t-64.5 -61.5t-47 -66t-18 -72.5v-80h-332v103q0 56 17.5 105.5t45 86t61 69.5t66.5 61t60.5 55t45 58t17.5 64q0 52 -34.5 87.5 t-100.5 35.5q-35 0 -62 -11t-45 -32.5t-27 -36t-20 -37.5zM254 176q0 85 59 145t144 60t145 -60t60 -145q0 -83 -60 -143t-145 -60q-84 0 -143.5 59.5t-59.5 143.5z" />
<glyph unicode="@" horiz-adv-x="1867" d="M70 532q0 250 117.5 445.5t318 301t446.5 105.5q193 0 352.5 -55.5t267.5 -154t167 -237t59 -302.5q0 -232 -106.5 -369t-288.5 -137q-85 0 -151 35t-99 94q-89 -131 -254 -131q-174 0 -278.5 112.5t-104.5 290.5q0 174 105 289t268 115q110 0 192 -64v52h250v-467 q0 -57 21.5 -84t70.5 -27q63 0 99.5 74.5t36.5 204.5q0 270 -160 408t-451 138q-188 0 -331.5 -82.5t-219 -224.5t-75.5 -321q0 -285 176.5 -453t478.5 -168q105 0 207 30t182 77l111 -177q-209 -147 -500 -147q-202 0 -371.5 60.5t-287 169t-183 262.5t-65.5 337zM784 532 q0 -74 42.5 -123t109.5 -49q65 0 108 47t43 125q0 69 -42 118.5t-109 49.5q-65 0 -108.5 -47.5t-43.5 -120.5z" />
<glyph unicode="A" horiz-adv-x="1384" d="M12 0l496 1434h369l495 -1434h-352l-102 322h-451l-102 -322h-353zM557 608h270l-135 455z" />
<glyph unicode="B" horiz-adv-x="1202" d="M127 0v1434h512q219 0 342 -100.5t123 -284.5q0 -94 -42 -175t-114 -122q201 -84 201 -324q0 -106 -38.5 -189t-106 -134.5t-156.5 -78t-193 -26.5h-528zM475 301h170q67 0 105 42t38 106q0 66 -36.5 105.5t-104.5 39.5h-172v-293zM475 874h150q59 0 91 37t32 97 q0 59 -32 93t-95 34h-146v-261z" />
<glyph unicode="C" horiz-adv-x="1290" d="M55 719q0 156 56 293t155 235.5t241 155.5t306 57q242 0 418 -121l-98 -307q-151 101 -308 101q-96 0 -173.5 -33t-127.5 -90.5t-77 -132t-27 -158.5q0 -114 45.5 -207.5t139.5 -152t220 -58.5q165 0 314 100l98 -307q-176 -121 -424 -121q-226 0 -400 98.5t-266 267.5 t-92 380z" />
<glyph unicode="D" horiz-adv-x="1359" d="M127 0v1434h422q348 0 552 -191t204 -526t-204 -526t-552 -191h-422zM477 303h72q181 0 286 106.5t105 307.5t-105 307t-286 106h-72v-827z" />
<glyph unicode="E" horiz-adv-x="993" d="M127 0v1434h764v-314h-414v-239h352v-312h-352v-256h430v-313h-780z" />
<glyph unicode="F" horiz-adv-x="966" d="M127 0v1434h758v-314h-408v-262h357v-311h-357v-547h-350z" />
<glyph unicode="G" horiz-adv-x="1542" d="M57 721q0 204 93.5 372.5t266 267.5t390.5 99q97 0 183.5 -17.5t147 -43.5t113.5 -62t83.5 -65.5t56.5 -61.5l-222 -229q-15 19 -41.5 42t-69.5 50.5t-105.5 45.5t-129.5 18q-187 0 -295 -115.5t-108 -294.5q0 -195 114.5 -312.5t288.5 -117.5q117 0 197 30t108 58v127 h-247v293h573v-606q-67 -52 -122.5 -86t-135.5 -69.5t-179.5 -53t-217.5 -17.5q-152 0 -287 52.5t-236 147.5t-160 237t-59 311z" />
<glyph unicode="H" horiz-adv-x="1466" d="M127 0v1434h350v-557h512v557h350v-1434h-350v561h-512v-561h-350z" />
<glyph unicode="I" horiz-adv-x="604" d="M127 0v1434h350v-1434h-350z" />
<glyph unicode="J" horiz-adv-x="796" d="M39 10l41 309q55 -10 110 -10q64 0 96.5 36t32.5 93v996h351v-1061q0 -105 -34.5 -181.5t-96.5 -120t-137 -63.5t-166 -20q-102 0 -197 22z" />
<glyph unicode="K" horiz-adv-x="1310" d="M127 0v1434h350v-553l418 553h391l-536 -686l546 -748h-401l-418 578v-578h-350z" />
<glyph unicode="L" horiz-adv-x="937" d="M127 0v1434h350v-1121h430v-313h-780z" />
<glyph unicode="M" horiz-adv-x="1869" d="M123 0v1434h455l356 -908l358 908h455v-1434h-336v940l-315 -823h-322l-315 823v-940h-336z" />
<glyph unicode="N" horiz-adv-x="1470" d="M123 0v1434h356l525 -889v889h344v-1434h-349l-532 879v-879h-344z" />
<glyph unicode="O" horiz-adv-x="1613" d="M55 719q0 208 92.5 376t265 266.5t394.5 98.5t394.5 -98.5t265 -266.5t92.5 -376q0 -210 -92.5 -379.5t-265 -268t-394.5 -98.5t-394.5 98.5t-265 268t-92.5 379.5zM420 719q0 -182 108.5 -300t278.5 -118t278.5 118t108.5 300q0 179 -108.5 296.5t-278.5 117.5 t-278.5 -117.5t-108.5 -296.5z" />
<glyph unicode="P" horiz-adv-x="1144" d="M127 0v1434h516q217 0 340 -124.5t123 -338.5q0 -210 -126.5 -339.5t-334.5 -129.5h-168v-502h-350zM477 803h115q75 0 115.5 46t40.5 122q0 73 -40.5 117.5t-111.5 44.5h-119v-330z" />
<glyph unicode="Q" horiz-adv-x="1613" d="M55 719q0 208 92.5 376t265 266.5t394.5 98.5t394.5 -98.5t265 -266.5t92.5 -376q0 -221 -107 -402l127 -110l-207 -240l-139 123q-185 -117 -426 -117q-222 0 -394.5 98.5t-265 268t-92.5 379.5zM420 719q0 -182 108.5 -300t278.5 -118q84 0 154 31l-119 104l202 238 l125 -109q25 84 25 154q0 179 -108.5 296.5t-278.5 117.5t-278.5 -117.5t-108.5 -296.5z" />
<glyph unicode="R" horiz-adv-x="1239" d="M127 0v1434h467q251 0 376.5 -112.5t125.5 -328.5q0 -122 -51.5 -224t-147.5 -155l330 -614h-387l-256 530h-107v-530h-350zM477 823h105q72 0 113.5 42.5t41.5 115.5q0 74 -40 113t-132 39h-88v-310z" />
<glyph unicode="S" horiz-adv-x="1083" d="M35 315l293 146q32 -68 89 -114t126 -46q62 0 94.5 26t32.5 74q0 38 -33 70t-85 58.5t-115.5 55t-127 68t-115.5 88t-85 124.5t-33 169q0 193 128.5 309.5t342.5 116.5q87 0 162 -24.5t123 -60t87 -84t58.5 -86.5t32.5 -77l-291 -133q-14 30 -26 50t-33 43.5t-51.5 36 t-69.5 12.5q-50 0 -81.5 -27.5t-31.5 -69.5q0 -39 33 -71.5t85.5 -59t116.5 -54t128 -64.5t116.5 -83.5t85.5 -118.5t33 -161q0 -202 -135.5 -328.5t-366.5 -126.5q-92 0 -170.5 25.5t-129.5 63t-92 87t-61.5 88.5t-33.5 78z" />
<glyph unicode="T" horiz-adv-x="1046" d="M39 1120v314h969v-314h-310v-1120h-350v1120h-309z" />
<glyph unicode="U" horiz-adv-x="1441" d="M123 551v883h350v-883q0 -117 66.5 -184.5t183.5 -67.5q118 0 182 67.5t64 186.5v881h350v-881q0 -126 -40.5 -232t-116 -183t-188.5 -120t-253 -43q-283 0 -440.5 157t-157.5 419z" />
<glyph unicode="V" horiz-adv-x="1437" d="M10 1434h385l324 -1020l323 1020h385l-518 -1434h-381z" />
<glyph unicode="W" horiz-adv-x="2035" d="M16 1434h375l217 -1010l252 1010h316l251 -1010l218 1010h374l-372 -1434h-398l-231 901l-232 -901h-397z" />
<glyph unicode="X" horiz-adv-x="1343" d="M8 0l455 723l-449 711h412l242 -439l241 439h412l-449 -711l455 -723h-389l-270 461l-271 -461h-389z" />
<glyph unicode="Y" horiz-adv-x="1249" d="M12 1434h394l219 -469l225 469h387l-438 -787v-647h-348v647z" />
<glyph unicode="Z" horiz-adv-x="1245" d="M63 0v223l635 901h-618v310h1089v-222l-641 -903h648v-309h-1113z" />
<glyph unicode="[" horiz-adv-x="716" d="M72 -358v2035h518v-295h-180v-1445h180v-295h-518z" />
<glyph unicode="\" horiz-adv-x="954" d="M23 1536h296l613 -1757h-297z" />
<glyph unicode="]" horiz-adv-x="716" d="M127 -63h180v1445h-180v295h518v-2035h-518v295z" />
<glyph unicode="^" horiz-adv-x="1177" d="M74 651l377 783h276l375 -783h-316l-198 459l-199 -459h-315z" />
<glyph unicode="_" horiz-adv-x="1265" d="M41 -59h1184v-265h-1184v265z" />
<glyph unicode="`" horiz-adv-x="983" d="M248 1485h354l135 -297h-284z" />
<glyph unicode="a" horiz-adv-x="1093" d="M41 334q0 161 114 258.5t304 97.5q112 0 207 -39v39q0 52 -42 84.5t-122 32.5q-132 0 -271 -68l-127 230q201 133 439 133q135 0 228.5 -32.5t144 -94.5t71.5 -136.5t21 -172.5v-666h-306l-18 59q-86 -86 -244 -86q-108 0 -197 40.5t-145.5 124.5t-56.5 196zM383 346 q0 -52 41 -81t104 -29q64 0 104 29t40 81q0 54 -41 84.5t-105 30.5q-62 0 -102.5 -31.5t-40.5 -83.5z" />
<glyph unicode="b" horiz-adv-x="1280" d="M98 0v1481h342v-488q29 34 105 71.5t182 37.5q231 0 369.5 -156t138.5 -409q0 -248 -147 -406t-379 -158q-104 0 -180.5 36.5t-110.5 74.5v-84h-320zM430 535q0 -112 62.5 -187.5t169.5 -75.5q103 0 167 72t64 191t-63.5 192.5t-167.5 73.5t-168 -70.5t-64 -195.5z" />
<glyph unicode="c" horiz-adv-x="980" d="M43 537q0 246 166 405.5t416 159.5q178 0 319 -98l-92 -289q-96 80 -215 80q-118 0 -185 -72.5t-67 -183.5q0 -119 73 -192t191 -73q111 0 203 76l90 -280q-143 -97 -315 -97q-256 0 -420 158t-164 406z" />
<glyph unicode="d" horiz-adv-x="1280" d="M45 537q0 253 138.5 409t369.5 156q106 0 182 -37.5t105 -71.5v488h342v-1481h-320v84q-34 -38 -110.5 -74.5t-180.5 -36.5q-232 0 -379 158t-147 406zM387 535q0 -119 64 -191t167 -72q107 0 169.5 75.5t62.5 187.5q0 125 -64 195.5t-168 70.5t-167.5 -73.5 t-63.5 -192.5z" />
<glyph unicode="e" horiz-adv-x="1140" d="M45 535q0 157 65.5 286t187 205t275.5 76q255 0 392 -154.5t137 -431.5q0 -42 -2 -67h-705q6 -74 70.5 -126.5t157.5 -52.5q84 0 142.5 38.5t82.5 76.5l225 -174q-14 -29 -46.5 -64.5t-87 -77t-140 -69t-183.5 -27.5q-173 0 -304 74.5t-199 201.5t-68 286zM406 666h348 q-3 67 -50 113t-124 46q-79 0 -123 -47.5t-51 -111.5z" />
<glyph unicode="f" horiz-adv-x="700" d="M41 799v276h113v31q0 82 23 147.5t62 108.5t94 71t116 40t131 12q26 0 104 -4v-287q-24 4 -55 4q-133 0 -133 -100v-23h168v-276h-168v-799h-342v799h-113z" />
<glyph unicode="g" horiz-adv-x="1269" d="M43 539q0 248 147 405.5t379 157.5q104 0 180.5 -36.5t110.5 -74.5v84h320v-946q0 -116 -31.5 -206.5t-86 -149t-131.5 -96.5t-162 -54t-185 -16q-108 0 -214 26t-184 66l101 262q144 -65 297 -65q254 0 254 159v27q-29 -34 -105 -71.5t-182 -37.5q-231 0 -369.5 156.5 t-138.5 409.5zM385 541q0 -119 63.5 -193t167.5 -74t168 71t64 196q0 111 -63.5 185.5t-170.5 74.5q-103 0 -166 -70.5t-63 -189.5z" />
<glyph unicode="h" horiz-adv-x="1165" d="M98 0v1481h342v-516q36 56 105 96.5t162 40.5q70 0 126 -17t94 -44.5t66 -69.5t43.5 -83.5t24.5 -96t11.5 -98t2.5 -97.5v-596h-342v641q0 73 -39 113.5t-102 40.5q-69 0 -110.5 -44t-41.5 -110v-641h-342z" />
<glyph unicode="i" d="M76 1325q0 81 54 133.5t136 52.5t137.5 -52.5t55.5 -133.5q0 -79 -55.5 -131.5t-137.5 -52.5t-136 52.5t-54 131.5zM98 0v1075h342v-1075h-342z" />
<glyph unicode="j" d="M-86 -98q26 -4 49 -4q135 0 135 114v1063h342v-1079q0 -105 -33.5 -182t-95.5 -121.5t-141.5 -65t-179.5 -20.5l-76 6v289zM76 1325q0 81 54 133.5t136 52.5t137.5 -52.5t55.5 -133.5q0 -79 -55.5 -131.5t-137.5 -52.5t-136 52.5t-54 131.5z" />
<glyph unicode="k" horiz-adv-x="1144" d="M98 0v1481h342v-838l291 432h383l-346 -491l375 -584h-402l-301 502v-502h-342z" />
<glyph unicode="l" d="M98 0v1481h342v-1481h-342z" />
<glyph unicode="m" horiz-adv-x="1736" d="M98 0v1075h334v-110q32 57 99.5 97t166.5 40q188 0 279 -141q111 141 305 141q180 0 272.5 -105t92.5 -282v-715h-342v641q0 72 -35 113t-96 41q-60 0 -96 -42.5t-36 -111.5v-641h-342v641q0 72 -34 113t-95 41t-96 -40.5t-35 -113.5v-641h-342z" />
<glyph unicode="n" horiz-adv-x="1161" d="M98 0v1075h334v-110q36 55 106.5 96t163.5 41q70 0 126 -17t94 -44.5t66 -69.5t43.5 -83.5t25 -96t12 -98t2.5 -97.5v-596h-342v641q0 73 -39 113.5t-102 40.5q-69 0 -108.5 -43.5t-39.5 -110.5v-641h-342z" />
<glyph unicode="o" horiz-adv-x="1259" d="M43 535q0 160 76.5 290.5t210 203.5t297.5 73q259 0 424.5 -159t165.5 -404q0 -160 -76 -289.5t-211 -203t-303 -73.5t-302 72.5t-208 201t-74 288.5zM385 535q0 -116 68.5 -188.5t173.5 -72.5q106 0 176.5 75t70.5 190q0 117 -70.5 189.5t-176.5 72.5t-174 -74t-68 -192 z" />
<glyph unicode="p" horiz-adv-x="1280" d="M98 -383v1458h320v-84q34 38 110.5 74.5t180.5 36.5q232 0 379 -157.5t147 -405.5q0 -253 -138.5 -409.5t-369.5 -156.5q-106 0 -182 37.5t-105 71.5v-465h-342zM430 541q0 -125 64 -196t168 -71t167.5 74t63.5 193t-64 190.5t-167 71.5q-107 0 -169.5 -75.5 t-62.5 -186.5z" />
<glyph unicode="q" horiz-adv-x="1280" d="M45 539q0 248 147 405.5t379 157.5q104 0 180.5 -36.5t110.5 -74.5v84h320v-1458h-342v465q-29 -34 -105 -71.5t-182 -37.5q-231 0 -369.5 156.5t-138.5 409.5zM387 541q0 -119 63.5 -193t167.5 -74t168 71t64 196q0 111 -62.5 186.5t-169.5 75.5q-103 0 -167 -71.5 t-64 -190.5z" />
<glyph unicode="r" horiz-adv-x="755" d="M98 0v1075h334v-143q39 80 113 125t172 45v-348q-28 4 -55 4q-222 0 -222 -283v-475h-342z" />
<glyph unicode="s" horiz-adv-x="909" d="M29 158l192 186q105 -94 238 -94q96 0 96 59q0 24 -27 43t-70.5 34t-96 32.5t-105 45t-96 65t-70.5 99.5t-27 142q0 152 117.5 242t296.5 90q250 0 385 -184l-221 -175q-84 84 -178 84q-37 0 -57.5 -14t-20.5 -39q0 -27 27.5 -46.5t71 -33.5t96.5 -29.5t106 -40.5 t96.5 -60.5t71 -96t27.5 -139.5q0 -161 -125 -258t-314 -97q-141 0 -249.5 55t-163.5 130z" />
<glyph unicode="t" horiz-adv-x="720" d="M23 799v276h104v228h342v-228h182v-276h-182v-396q0 -116 133 -116q34 0 57 2v-293q-45 -12 -131 -12q-198 0 -299.5 102.5t-101.5 333.5v379h-104z" />
<glyph unicode="u" horiz-adv-x="1153" d="M90 479v596h342v-641q0 -73 39 -113t102 -40q69 0 108.5 43t39.5 110v641h342v-1075h-334v111q-36 -55 -106.5 -96.5t-163.5 -41.5q-70 0 -126 17t-94 44.5t-66 69.5t-43.5 83.5t-25 96t-12 98t-2.5 97.5z" />
<glyph unicode="v" horiz-adv-x="1142" d="M6 1075h367l202 -713l203 713h357l-363 -1075h-397z" />
<glyph unicode="w" horiz-adv-x="1708" d="M14 1075h373l145 -702l162 702h320l162 -702l145 702h373l-301 -1075h-385l-154 608l-154 -608h-385z" />
<glyph unicode="x" horiz-adv-x="1118" d="M4 0l367 545l-357 530h381l164 -289l164 289h381l-356 -530l366 -545h-366l-189 289l-188 -289h-367z" />
<glyph unicode="y" horiz-adv-x="1138" d="M12 1075h367l190 -618l199 618h356l-532 -1442h-324l146 402z" />
<glyph unicode="z" horiz-adv-x="964" d="M55 0v205l418 586h-407v284h837v-207l-420 -583h424v-285h-852z" />
<glyph unicode="{" horiz-adv-x="843" d="M51 498v323q24 0 47 6.5t47 23.5t39 53t15 87v213q0 228 128.5 350.5t389.5 122.5v-295q-180 0 -180 -172v-284q0 -65 -21.5 -118t-52.5 -83t-57.5 -46t-45.5 -20q19 -4 45.5 -20t57.5 -45.5t52.5 -82.5t21.5 -118v-284q0 -172 180 -172v-295q-261 0 -389.5 122.5 t-128.5 350.5v213q0 51 -15 87t-39 53t-47 23.5t-47 6.5z" />
<glyph unicode="|" horiz-adv-x="608" d="M143 -512v2243h322v-2243h-322z" />
<glyph unicode="}" horiz-adv-x="843" d="M127 -63q180 0 180 172v284q0 65 21 118t52 82.5t57.5 45.5t45.5 20q-19 4 -45.5 20t-57.5 46t-52 83t-21 118v284q0 172 -180 172v295q261 0 389.5 -122.5t128.5 -350.5v-213q0 -51 15 -87t39 -53t47 -23.5t47 -6.5v-323q-24 0 -47 -6.5t-47 -23.5t-39 -53t-15 -87v-213 q0 -228 -128.5 -350.5t-389.5 -122.5v295z" />
<glyph unicode="~" horiz-adv-x="1128" d="M61 424q0 180 88.5 289.5t235.5 109.5q58 0 121 -21.5t118 -43t95 -21.5q39 0 61.5 24t22.5 64h262q0 -180 -88.5 -289.5t-235.5 -109.5q-68 0 -179.5 43t-153.5 43q-39 0 -61.5 -24t-22.5 -64h-263z" />
<glyph unicode="&#xa1;" horiz-adv-x="632" d="M113 944q0 84 59 143.5t143 59.5q85 0 145 -60t60 -143q0 -85 -60 -145t-145 -60q-84 0 -143 60t-59 145zM135 -313l27 1001h309l27 -1001h-363z" />
<glyph unicode="&#xa2;" horiz-adv-x="980" d="M43 690q0 221 135.5 374.5t351.5 182.5v187h203v-189q118 -22 211 -88l-92 -289q-96 80 -215 80q-118 0 -185 -72.5t-67 -183.5q0 -118 72.5 -191t191.5 -73q111 0 203 76l90 -281q-92 -64 -209 -86v-137h-203v135q-219 29 -353 180.5t-134 374.5z" />
<glyph unicode="&#xa3;" horiz-adv-x="1191" d="M68 0v305h110v270h-98v259h98v180q0 199 127.5 322.5t349.5 123.5q80 0 149 -22t114.5 -55t82 -77.5t55.5 -83.5t31 -79l-282 -121q-14 45 -49 80t-97 35t-98.5 -39.5t-36.5 -102.5v-161h305v-259h-305v-270h600v-305h-1056z" />
<glyph unicode="&#xa5;" horiz-adv-x="1249" d="M12 1434h394l219 -469l225 469h387l-315 -566h176v-219h-299v-127h299v-219h-299v-303h-348v303h-299v219h299v127h-299v219h176z" />
<glyph unicode="&#xa7;" horiz-adv-x="1081" d="M63 -135l287 125q25 -55 78.5 -98.5t120.5 -43.5q42 0 70 21.5t28 60.5q0 40 -28.5 70t-88.5 66l-239 143q-111 65 -168 146t-57 194q0 176 172 266q-74 60 -115 130t-41 163q0 175 121.5 284t326.5 109q86 0 163 -24.5t129 -60.5t94 -83t65 -87t35 -77l-287 -125 q-25 55 -78.5 98.5t-120.5 43.5q-42 0 -70 -21.5t-28 -60.5q0 -40 28 -69.5t89 -65.5l239 -144q111 -66 168.5 -146.5t57.5 -193.5q0 -176 -172 -266q74 -60 114.5 -130t40.5 -163q0 -175 -121.5 -284t-326.5 -109q-86 0 -163 24.5t-129 60.5t-94 83t-65 87t-35 77zM385 555 q0 -53 49 -78l158 -84q49 0 75.5 24.5t26.5 61.5q0 53 -49 78l-158 84q-49 0 -75.5 -24.5t-26.5 -61.5z" />
<glyph unicode="&#xa8;" horiz-adv-x="983" d="M127 1337q0 66 44.5 112t113.5 46q68 0 112.5 -46t44.5 -112t-44.5 -111.5t-112.5 -45.5q-69 0 -113.5 45.5t-44.5 111.5zM539 1337q0 66 44 112t113 46q68 0 113 -46t45 -112q0 -65 -45 -111t-113 -46q-69 0 -113 45.5t-44 111.5z" />
<glyph unicode="&#xa9;" horiz-adv-x="1605" d="M66 713q0 209 94.5 379.5t264 269t378.5 98.5t378.5 -98.5t264 -269t94.5 -379.5q0 -206 -94.5 -375.5t-264 -268t-378.5 -98.5t-378.5 98.5t-264 268t-94.5 375.5zM283 719q0 -241 144.5 -396t375.5 -155t375.5 155t144.5 396q0 237 -144.5 391t-375.5 154t-375.5 -154 t-144.5 -391zM436 717q0 167 105 280t268 113q61 0 114 -16.5t89 -44t58.5 -51.5t39.5 -50l-178 -139q-45 72 -121 72q-57 0 -91 -45.5t-34 -118.5t34 -118.5t91 -45.5q76 0 121 72l178 -140q-17 -26 -39.5 -50t-58.5 -51t-89 -43.5t-114 -16.5q-163 0 -268 113t-105 280z " />
<glyph unicode="&#xaa;" horiz-adv-x="845" d="M59 885q0 121 85.5 193.5t228.5 72.5q83 0 155 -29v29q0 39 -31.5 63.5t-90.5 24.5q-103 0 -203 -51l-97 172q151 100 330 100q100 0 170 -24.5t108 -71t54 -102.5t16 -129v-498h-229l-14 43q-64 -64 -183 -64q-125 0 -212 72.5t-87 198.5zM315 893q0 -38 31.5 -60 t77.5 -22q47 0 77.5 21.5t30.5 60.5q0 40 -30.5 63t-77.5 23t-78 -23.5t-31 -62.5z" />
<glyph unicode="&#xab;" horiz-adv-x="1067" d="M51 606l248 389h301l-250 -389l250 -389h-301zM467 606l250 389h299l-250 -389l250 -389h-299z" />
<glyph unicode="&#xad;" horiz-adv-x="788" d="M96 473v307h594v-307h-594z" />
<glyph unicode="&#xae;" horiz-adv-x="925" d="M29 1092q0 182 120 305t308 123q197 0 317.5 -121t120.5 -305q0 -181 -120 -304.5t-314 -123.5t-313 121t-119 305zM152 1092q0 -136 84.5 -225t224.5 -89q143 0 226 88t83 228t-83.5 225.5t-229.5 85.5q-138 0 -221.5 -87.5t-83.5 -225.5zM287 874v443h200q74 0 115 -40 t41 -106q0 -95 -70 -124l82 -173h-137l-63 148h-35v-148h-133zM420 1126h47q17 0 28 11t11 30q0 18 -10.5 28.5t-28.5 10.5h-47v-80z" />
<glyph unicode="&#xaf;" horiz-adv-x="905" d="M164 1210v244h575v-244h-575z" />
<glyph unicode="&#xb0;" horiz-adv-x="798" d="M47 1116q0 144 100.5 244t251.5 100t252 -100t101 -244t-100.5 -242t-252.5 -98t-252 98t-100 242zM285 1118q0 -49 30 -81.5t84 -32.5t84.5 32.5t30.5 81.5q0 48 -31 81.5t-84 33.5t-83.5 -33.5t-30.5 -81.5z" />
<glyph unicode="&#xb2;" horiz-adv-x="757" d="M55 1212q10 37 31 74t57 76t95.5 63.5t132.5 24.5q138 0 229.5 -73.5t91.5 -205.5q0 -57 -28 -105.5t-70 -82.5t-85.5 -60.5t-82 -52.5t-51.5 -47h327v-207h-636v105q0 49 20 94t52.5 79t71.5 65t78 57t71.5 49.5t52.5 48t20 47.5q0 30 -19.5 48t-52.5 18 q-40 0 -63.5 -23.5t-40.5 -62.5z" />
<glyph unicode="&#xb3;" horiz-adv-x="749" d="M55 838l201 71q17 -39 40.5 -62.5t63.5 -23.5q34 0 55 19.5t21 52.5q0 35 -25 54.5t-67 19.5h-100v157l102 103h-254v205h572v-160l-168 -160q88 -9 142 -72t54 -163q0 -132 -91.5 -205.5t-229.5 -73.5q-73 0 -132.5 24.5t-95.5 63.5t-57 76t-31 74z" />
<glyph unicode="&#xb4;" horiz-adv-x="983" d="M246 1188l135 297h354l-205 -297h-284z" />
<glyph unicode="&#xb6;" horiz-adv-x="1159" d="M68 1047q0 167 112 277t281 110h252v-1526h-260v747q-162 2 -273.5 114t-111.5 278zM829 -92v1526h261v-1526h-261z" />
<glyph unicode="&#xb7;" horiz-adv-x="534" d="M63 643q0 85 59 145t144 60t145 -60t60 -145q0 -83 -60 -143t-145 -60q-84 0 -143.5 59.5t-59.5 143.5z" />
<glyph unicode="&#xb8;" horiz-adv-x="905" d="M238 -461l41 164q40 -10 69 -10q33 0 54.5 15.5t21.5 41.5q0 28 -28 40.5t-64 12.5l-37 -2l37 226h168l-15 -99q73 -17 112.5 -67t39.5 -127q0 -108 -73 -163.5t-191 -55.5q-65 0 -135 24z" />
<glyph unicode="&#xb9;" horiz-adv-x="618" d="M80 1372l184 62h209v-818h-252v570l-80 -27z" />
<glyph unicode="&#xba;" horiz-adv-x="997" d="M59 1034q0 184 125.5 305t313.5 121q194 0 317 -119t123 -303q0 -183 -125 -303.5t-315 -120.5q-193 0 -316 119t-123 301zM317 1034q0 -85 51 -138.5t130 -53.5t131.5 55t52.5 141t-53 140.5t-131 54.5q-80 0 -130.5 -55t-50.5 -144z" />
<glyph unicode="&#xbb;" horiz-adv-x="1067" d="M51 217l250 389l-250 389h299l250 -389l-250 -389h-299zM467 217l250 389l-250 389h301l248 -389l-248 -389h-301z" />
<glyph unicode="&#xbc;" horiz-adv-x="1746" d="M80 1372l184 62h209v-818h-252v570l-80 -27zM326 -84l751 1602h291l-754 -1602h-288zM981 143v187l346 487h272v-461h93v-213h-93v-143h-243v143h-375zM1210 356h146v217z" />
<glyph unicode="&#xbd;" horiz-adv-x="1771" d="M80 1372l184 62h209v-818h-252v570l-80 -27zM301 -84l752 1602h290l-753 -1602h-289zM1044 596q10 37 31 74t57 76t95.5 63.5t132.5 24.5q138 0 229.5 -73.5t91.5 -205.5q0 -57 -28 -105.5t-70 -82.5t-85.5 -60.5t-82 -52.5t-51.5 -47h328v-207h-637v104q0 57 27 108.5 t68 88t88 71.5t88 61.5t68 56t27 55.5q0 30 -19 47.5t-52 17.5q-67 0 -105 -86z" />
<glyph unicode="&#xbe;" horiz-adv-x="1828" d="M55 838l201 71q17 -39 40.5 -62.5t63.5 -23.5q34 0 55 19.5t21 52.5q0 35 -25 54.5t-67 19.5h-100v157l102 103h-254v205h572v-160l-168 -160q88 -9 142 -72t54 -163q0 -132 -91.5 -205.5t-229.5 -73.5q-73 0 -132.5 24.5t-95.5 63.5t-57 76t-31 74zM412 -84l751 1602 h291l-754 -1602h-288zM1055 143v187l346 487h272v-461h92v-213h-92v-143h-243v143h-375zM1284 356h146v217z" />
<glyph unicode="&#xbf;" horiz-adv-x="1003" d="M49 63q0 69 24.5 129t61 101t79.5 82.5t79.5 74t61 74t24.5 84.5v80h332v-102q0 -76 -32.5 -141t-78.5 -109t-92 -82.5t-78.5 -81t-32.5 -86.5q0 -52 34.5 -87.5t100.5 -35.5q35 0 62 11t45 32.5t27 36t20 37.5l268 -121q-13 -40 -33 -76.5t-56.5 -78.5t-83.5 -72.5 t-117.5 -51t-153.5 -20.5q-203 0 -332 111.5t-129 291.5zM342 944q0 83 60 143t145 60q84 0 143.5 -59.5t59.5 -143.5q0 -85 -59 -145t-144 -60t-145 60t-60 145z" />
<glyph unicode="&#xc0;" horiz-adv-x="1384" d="M12 0l496 1434h369l495 -1434h-352l-102 322h-451l-102 -322h-353zM358 1802h355l135 -297h-285zM557 608h270l-135 455z" />
<glyph unicode="&#xc1;" horiz-adv-x="1384" d="M12 0l496 1434h369l495 -1434h-352l-102 322h-451l-102 -322h-353zM522 1505l135 297h355l-205 -297h-285zM557 608h270l-135 455z" />
<glyph unicode="&#xc2;" horiz-adv-x="1384" d="M12 0l496 1434h369l495 -1434h-352l-102 322h-451l-102 -322h-353zM326 1505l196 297h344l197 -297h-283l-84 133l-86 -133h-284zM557 608h270l-135 455z" />
<glyph unicode="&#xc3;" horiz-adv-x="1384" d="M12 0l496 1434h369l495 -1434h-352l-102 322h-451l-102 -322h-353zM311 1507q0 135 66.5 219t175.5 84q65 0 146 -33.5t106 -33.5q59 0 59 69h209q0 -139 -64.5 -221t-172.5 -82q-62 0 -145 34t-109 34q-29 0 -45.5 -18t-16.5 -52h-209zM557 608h270l-135 455z" />
<glyph unicode="&#xc4;" horiz-adv-x="1384" d="M12 0l496 1434h369l495 -1434h-352l-102 322h-451l-102 -322h-353zM328 1665q0 66 44 112t113 46q68 0 113 -46t45 -112t-45 -112t-113 -46q-69 0 -113 46t-44 112zM557 608h270l-135 455zM739 1665q0 66 44.5 112t113.5 46q68 0 113 -46t45 -112t-45 -112t-113 -46 q-69 0 -113.5 46t-44.5 112z" />
<glyph unicode="&#xc5;" horiz-adv-x="1384" d="M12 0l496 1434h369l495 -1434h-352l-102 322h-451l-102 -322h-353zM455 1706q0 95 67.5 156t167.5 61q102 0 170 -60.5t68 -154.5q0 -96 -68 -156.5t-170 -60.5q-100 0 -167.5 60.5t-67.5 154.5zM557 608h270l-135 455zM618 1708q0 -35 20 -56.5t54 -21.5q33 0 53.5 21.5 t20.5 56.5q0 34 -21 55t-53 21q-34 0 -54 -21t-20 -55z" />
<glyph unicode="&#xc6;" horiz-adv-x="1804" d="M16 0l758 1434h928v-314h-414v-239h352v-312h-352v-256h430v-313h-780v322h-379l-162 -322h-381zM686 608h252v500z" />
<glyph unicode="&#xc7;" horiz-adv-x="1290" d="M55 719q0 156 56 293t155 235.5t241 155.5t306 57q242 0 418 -121l-98 -307q-151 101 -308 101q-96 0 -173.5 -33t-127.5 -90.5t-77 -132t-27 -158.5q0 -114 45.5 -207.5t139.5 -152t220 -58.5q165 0 314 100l98 -307q-176 -121 -424 -121l-29 2l-6 -47q73 -17 112.5 -67 t39.5 -127q0 -108 -73 -163.5t-191 -55.5q-66 0 -136 24l41 164q40 -10 70 -10q33 0 54.5 15.5t21.5 41.5q0 28 -28 40.5t-64 12.5l-37 -2l30 193q-172 37 -300.5 140.5t-195.5 254t-67 330.5z" />
<glyph unicode="&#xc8;" horiz-adv-x="993" d="M127 0v1434h764v-314h-414v-239h352v-312h-352v-256h430v-313h-780zM213 1802h354l135 -297h-284z" />
<glyph unicode="&#xc9;" horiz-adv-x="993" d="M127 0v1434h764v-314h-414v-239h352v-312h-352v-256h430v-313h-780zM338 1505l135 297h354l-204 -297h-285z" />
<glyph unicode="&#xca;" horiz-adv-x="993" d="M127 0v1434h764v-314h-414v-239h352v-312h-352v-256h430v-313h-780zM143 1505l197 297h344l197 -297h-283l-84 133l-86 -133h-285z" />
<glyph unicode="&#xcb;" horiz-adv-x="993" d="M127 0v1434h764v-314h-414v-239h352v-312h-352v-256h430v-313h-780zM143 1665q0 66 44.5 112t113.5 46q68 0 113 -46t45 -112t-45 -112t-113 -46q-69 0 -113.5 46t-44.5 112zM555 1665q0 66 44.5 112t113.5 46q68 0 112.5 -46t44.5 -112t-44.5 -112t-112.5 -46 q-69 0 -113.5 46t-44.5 112z" />
<glyph unicode="&#xcc;" horiz-adv-x="604" d="M2 1802h354l136 -297h-285zM127 0v1434h350v-1434h-350z" />
<glyph unicode="&#xcd;" horiz-adv-x="604" d="M127 0v1434h350v-1434h-350zM133 1505l135 297h355l-205 -297h-285z" />
<glyph unicode="&#xce;" horiz-adv-x="604" d="M-66 1505l197 297h344l197 -297h-283l-84 133l-86 -133h-285zM127 0v1434h350v-1434h-350z" />
<glyph unicode="&#xcf;" horiz-adv-x="604" d="M-51 1665q0 66 44 112t113 46q68 0 113 -46t45 -112t-45 -112t-113 -46q-69 0 -113 46t-44 112zM127 0v1434h350v-1434h-350zM360 1665q0 66 44.5 112t113.5 46q68 0 113 -46t45 -112t-45 -112t-113 -46q-69 0 -113.5 46t-44.5 112z" />
<glyph unicode="&#xd0;" horiz-adv-x="1388" d="M45 567v305h111v562h422q348 0 551.5 -191t203.5 -526t-203.5 -526t-551.5 -191h-422v567h-111zM506 303h72q181 0 286 106.5t105 307.5t-105 307t-286 106h-72v-258h188v-305h-188v-264z" />
<glyph unicode="&#xd1;" horiz-adv-x="1470" d="M123 0v1434h356l525 -889v889h344v-1434h-349l-532 879v-879h-344zM354 1507q0 135 66.5 219t175.5 84q65 0 146 -33.5t106 -33.5q59 0 59 69h209q0 -139 -64.5 -221t-172.5 -82q-61 0 -145 34t-109 34q-29 0 -45.5 -18t-16.5 -52h-209z" />
<glyph unicode="&#xd2;" horiz-adv-x="1613" d="M55 719q0 208 92.5 376t265 266.5t394.5 98.5t394.5 -98.5t265 -266.5t92.5 -376q0 -210 -92.5 -379.5t-265 -268t-394.5 -98.5t-394.5 98.5t-265 268t-92.5 379.5zM420 719q0 -182 108.5 -300t278.5 -118t278.5 118t108.5 300q0 179 -108.5 296.5t-278.5 117.5 t-278.5 -117.5t-108.5 -296.5zM485 1802h355l135 -297h-285z" />
<glyph unicode="&#xd3;" horiz-adv-x="1613" d="M55 719q0 208 92.5 376t265 266.5t394.5 98.5t394.5 -98.5t265 -266.5t92.5 -376q0 -210 -92.5 -379.5t-265 -268t-394.5 -98.5t-394.5 98.5t-265 268t-92.5 379.5zM420 719q0 -182 108.5 -300t278.5 -118t278.5 118t108.5 300q0 179 -108.5 296.5t-278.5 117.5 t-278.5 -117.5t-108.5 -296.5zM639 1505l135 297h354l-204 -297h-285z" />
<glyph unicode="&#xd4;" horiz-adv-x="1613" d="M55 719q0 208 92.5 376t265 266.5t394.5 98.5t394.5 -98.5t265 -266.5t92.5 -376q0 -210 -92.5 -379.5t-265 -268t-394.5 -98.5t-394.5 98.5t-265 268t-92.5 379.5zM420 719q0 -182 108.5 -300t278.5 -118t278.5 118t108.5 300q0 179 -108.5 296.5t-278.5 117.5 t-278.5 -117.5t-108.5 -296.5zM434 1505l197 297h344l196 -297h-282l-84 133l-86 -133h-285z" />
<glyph unicode="&#xd5;" horiz-adv-x="1613" d="M55 719q0 208 92.5 376t265 266.5t394.5 98.5t394.5 -98.5t265 -266.5t92.5 -376q0 -210 -92.5 -379.5t-265 -268t-394.5 -98.5t-394.5 98.5t-265 268t-92.5 379.5zM420 719q0 -182 108.5 -300t278.5 -118t278.5 118t108.5 300q0 179 -108.5 296.5t-278.5 117.5 t-278.5 -117.5t-108.5 -296.5zM426 1507q0 135 66.5 219t175.5 84q65 0 146 -33.5t106 -33.5q59 0 59 69h209q0 -139 -65 -221t-173 -82q-62 0 -145 34t-109 34q-61 0 -61 -70h-209z" />
<glyph unicode="&#xd6;" horiz-adv-x="1613" d="M55 719q0 208 92.5 376t265 266.5t394.5 98.5t394.5 -98.5t265 -266.5t92.5 -376q0 -210 -92.5 -379.5t-265 -268t-394.5 -98.5t-394.5 98.5t-265 268t-92.5 379.5zM420 719q0 -182 108.5 -300t278.5 -118t278.5 118t108.5 300q0 179 -108.5 296.5t-278.5 117.5 t-278.5 -117.5t-108.5 -296.5zM442 1665q0 66 44.5 112t113.5 46q68 0 113 -46t45 -112t-45 -112t-113 -46q-69 0 -113.5 46t-44.5 112zM854 1665q0 66 44.5 112t113.5 46q68 0 112.5 -46t44.5 -112t-44.5 -112t-112.5 -46q-69 0 -113.5 46t-44.5 112z" />
<glyph unicode="&#xd7;" horiz-adv-x="1081" d="M55 326l297 311l-297 311l191 191l293 -310l297 310l188 -191l-297 -311l297 -311l-188 -189l-295 307l-295 -309z" />
<glyph unicode="&#xd8;" horiz-adv-x="1613" d="M55 719q0 208 92.5 376t265 266.5t394.5 98.5q200 0 369 -86l92 115l180 -143l-88 -111q96 -101 147.5 -233t51.5 -283q0 -210 -92.5 -379.5t-265 -268t-394.5 -98.5q-209 0 -381 90l-94 -116l-180 143l92 115q-189 208 -189 514zM420 719q0 -130 53 -225l485 608 q-70 31 -151 31q-170 0 -278.5 -117.5t-108.5 -296.5zM643 336q75 -35 164 -35q170 0 278.5 118t108.5 300q0 128 -61 231z" />
<glyph unicode="&#xd9;" horiz-adv-x="1441" d="M123 551v883h350v-883q0 -117 66.5 -184.5t183.5 -67.5q118 0 182 67.5t64 186.5v881h350v-881q0 -126 -40.5 -232t-116 -183t-188.5 -120t-253 -43q-283 0 -440.5 157t-157.5 419zM399 1802h355l135 -297h-285z" />
<glyph unicode="&#xda;" horiz-adv-x="1441" d="M123 551v883h350v-883q0 -117 66.5 -184.5t183.5 -67.5q118 0 182 67.5t64 186.5v881h350v-881q0 -126 -40.5 -232t-116 -183t-188.5 -120t-253 -43q-283 0 -440.5 157t-157.5 419zM561 1505l135 297h355l-205 -297h-285z" />
<glyph unicode="&#xdb;" horiz-adv-x="1441" d="M123 551v883h350v-883q0 -117 66.5 -184.5t183.5 -67.5q118 0 182 67.5t64 186.5v881h350v-881q0 -126 -40.5 -232t-116 -183t-188.5 -120t-253 -43q-283 0 -440.5 157t-157.5 419zM352 1505l197 297h344l197 -297h-283l-84 133l-86 -133h-285z" />
<glyph unicode="&#xdc;" horiz-adv-x="1441" d="M123 551v883h350v-883q0 -117 66.5 -184.5t183.5 -67.5q118 0 182 67.5t64 186.5v881h350v-881q0 -126 -40.5 -232t-116 -183t-188.5 -120t-253 -43q-283 0 -440.5 157t-157.5 419zM362 1665q0 66 44.5 112t113.5 46q68 0 113 -46t45 -112t-45 -112t-113 -46 q-69 0 -113.5 46t-44.5 112zM774 1665q0 66 44.5 112t113.5 46q68 0 113 -46t45 -112t-45 -112t-113 -46q-69 0 -113.5 46t-44.5 112z" />
<glyph unicode="&#xdd;" horiz-adv-x="1249" d="M12 1434h394l219 -469l225 469h387l-438 -787v-647h-348v647zM471 1505l135 297h355l-205 -297h-285z" />
<glyph unicode="&#xde;" horiz-adv-x="1191" d="M127 0v1434h350v-238h197q216 0 339.5 -125t123.5 -338t-127 -343t-336 -130h-197v-260h-350zM477 565h146q75 0 115 45t40 121q0 75 -40 119.5t-111 44.5h-150v-330z" />
<glyph unicode="&#xdf;" horiz-adv-x="1169" d="M98 0v1106q0 82 24.5 147.5t65.5 108.5t99 71t121.5 40t136.5 12q229 0 355 -91.5t126 -267.5q0 -79 -36 -140.5t-81 -88.5q65 -41 110 -89t76 -129t31 -183q0 -230 -158.5 -363t-435.5 -133v274q117 2 185.5 62.5t68.5 163.5q0 100 -68.5 156.5t-185.5 56.5v266 q164 0 164 117q0 40 -34 71t-97 31t-94 -31.5t-31 -83.5v-1083h-342z" />
<glyph unicode="&#xe0;" horiz-adv-x="1093" d="M41 334q0 161 114 258.5t304 97.5q112 0 207 -39v39q0 52 -42 84.5t-122 32.5q-132 0 -271 -68l-127 230q201 133 439 133q135 0 228.5 -32.5t144 -94.5t71.5 -136.5t21 -172.5v-666h-306l-18 59q-86 -86 -244 -86q-108 0 -197 40.5t-145.5 124.5t-56.5 196zM244 1485 h354l135 -297h-284zM383 346q0 -52 41 -81t104 -29q64 0 104 29t40 81q0 54 -41 84.5t-105 30.5q-62 0 -102.5 -31.5t-40.5 -83.5z" />
<glyph unicode="&#xe1;" horiz-adv-x="1093" d="M41 334q0 161 114 258.5t304 97.5q112 0 207 -39v39q0 52 -42 84.5t-122 32.5q-132 0 -271 -68l-127 230q201 133 439 133q135 0 228.5 -32.5t144 -94.5t71.5 -136.5t21 -172.5v-666h-306l-18 59q-86 -86 -244 -86q-108 0 -197 40.5t-145.5 124.5t-56.5 196zM383 346 q0 -52 41 -81t104 -29q64 0 104 29t40 81q0 54 -41 84.5t-105 30.5q-62 0 -102.5 -31.5t-40.5 -83.5zM387 1188l135 297h355l-205 -297h-285z" />
<glyph unicode="&#xe2;" horiz-adv-x="1093" d="M41 334q0 161 114 258.5t304 97.5q112 0 207 -39v39q0 52 -42 84.5t-122 32.5q-132 0 -271 -68l-127 230q201 133 439 133q135 0 228.5 -32.5t144 -94.5t71.5 -136.5t21 -172.5v-666h-306l-18 59q-86 -86 -244 -86q-108 0 -197 40.5t-145.5 124.5t-56.5 196zM178 1188 l197 297h344l196 -297h-282l-84 133l-86 -133h-285zM383 346q0 -52 41 -81t104 -29q64 0 104 29t40 81q0 54 -41 84.5t-105 30.5q-62 0 -102.5 -31.5t-40.5 -83.5z" />
<glyph unicode="&#xe3;" horiz-adv-x="1093" d="M41 334q0 161 114 258.5t304 97.5q112 0 207 -39v39q0 52 -42 84.5t-122 32.5q-132 0 -271 -68l-127 230q201 133 439 133q135 0 228.5 -32.5t144 -94.5t71.5 -136.5t21 -172.5v-666h-306l-18 59q-86 -86 -244 -86q-108 0 -197 40.5t-145.5 124.5t-56.5 196zM154 1186 q0 135 66.5 219t174.5 84q65 0 146 -34t106 -34q29 0 44.5 18.5t15.5 51.5h208q0 -139 -64.5 -221t-172.5 -82q-62 0 -145 33.5t-109 33.5q-62 0 -62 -69h-208zM383 346q0 -52 41 -81t104 -29q64 0 104 29t40 81q0 54 -41 84.5t-105 30.5q-62 0 -102.5 -31.5t-40.5 -83.5z " />
<glyph unicode="&#xe4;" horiz-adv-x="1093" d="M41 334q0 161 114 258.5t304 97.5q112 0 207 -39v39q0 52 -42 84.5t-122 32.5q-132 0 -271 -68l-127 230q201 133 439 133q135 0 228.5 -32.5t144 -94.5t71.5 -136.5t21 -172.5v-666h-306l-18 59q-86 -86 -244 -86q-108 0 -197 40.5t-145.5 124.5t-56.5 196zM190 1337 q0 66 44.5 112t113.5 46q68 0 113 -46t45 -112q0 -65 -45 -111t-113 -46q-69 0 -113.5 45.5t-44.5 111.5zM383 346q0 -52 41 -81t104 -29q64 0 104 29t40 81q0 54 -41 84.5t-105 30.5q-62 0 -102.5 -31.5t-40.5 -83.5zM602 1337q0 66 44.5 112t113.5 46q68 0 113 -46 t45 -112q0 -65 -45 -111t-113 -46q-69 0 -113.5 45.5t-44.5 111.5z" />
<glyph unicode="&#xe5;" horiz-adv-x="1093" d="M41 334q0 161 114 258.5t304 97.5q112 0 207 -39v39q0 52 -42 84.5t-122 32.5q-132 0 -271 -68l-127 230q201 133 439 133q135 0 228.5 -32.5t144 -94.5t71.5 -136.5t21 -172.5v-666h-306l-18 59q-86 -86 -244 -86q-108 0 -197 40.5t-145.5 124.5t-56.5 196zM326 1360 q0 95 67.5 156t167.5 61q102 0 170 -60.5t68 -154.5q0 -96 -68 -156.5t-170 -60.5q-100 0 -167.5 60.5t-67.5 154.5zM383 346q0 -52 41 -81t104 -29q64 0 104 29t40 81q0 54 -41 84.5t-105 30.5q-62 0 -102.5 -31.5t-40.5 -83.5zM489 1362q0 -35 20 -56.5t54 -21.5 q33 0 53.5 21.5t20.5 56.5q0 34 -21 55t-53 21q-34 0 -54 -21t-20 -55z" />
<glyph unicode="&#xe6;" horiz-adv-x="1753" d="M41 334q0 161 114 258.5t304 97.5q112 0 207 -39v39q0 52 -42 84.5t-122 32.5q-132 0 -271 -68l-127 230q201 133 439 133q212 0 331 -101q135 101 312 101q254 0 391 -154t137 -432q0 -42 -2 -67h-704q6 -74 70 -126.5t157 -52.5q84 0 142.5 38.5t82.5 76.5l226 -174 q-14 -29 -46.5 -64.5t-87 -77t-140 -69t-183.5 -27.5q-257 0 -414 154q-58 -75 -146.5 -114.5t-228.5 -39.5q-108 0 -197 40.5t-145.5 124.5t-56.5 196zM383 346q0 -52 41 -81t104 -29q64 0 104 29t40 81q0 54 -41 84.5t-105 30.5q-62 0 -102.5 -31.5t-40.5 -83.5zM1018 666 h348q-3 67 -50 113t-124 46q-79 0 -123 -47.5t-51 -111.5z" />
<glyph unicode="&#xe7;" horiz-adv-x="980" d="M43 537q0 246 166 405.5t416 159.5q178 0 319 -98l-92 -289q-96 80 -215 80q-118 0 -185 -72.5t-67 -183.5q0 -119 73 -192t191 -73q111 0 203 76l90 -280q-143 -97 -313 -97l-6 -45q73 -17 112 -67t39 -127q0 -108 -73 -163.5t-191 -55.5q-65 0 -135 24l41 164 q40 -10 69 -10q33 0 54.5 15.5t21.5 41.5q0 28 -28 40.5t-64 12.5l-37 -2l31 193q-190 45 -305 192t-115 351z" />
<glyph unicode="&#xe8;" horiz-adv-x="1140" d="M45 535q0 157 65.5 286t187 205t275.5 76q255 0 392 -154.5t137 -431.5q0 -42 -2 -67h-705q6 -74 70.5 -126.5t157.5 -52.5q84 0 142.5 38.5t82.5 76.5l225 -174q-14 -29 -46.5 -64.5t-87 -77t-140 -69t-183.5 -27.5q-173 0 -304 74.5t-199 201.5t-68 286zM266 1485h355 l135 -297h-285zM406 666h348q-3 67 -50 113t-124 46q-79 0 -123 -47.5t-51 -111.5z" />
<glyph unicode="&#xe9;" horiz-adv-x="1140" d="M45 535q0 157 65.5 286t187 205t275.5 76q255 0 392 -154.5t137 -431.5q0 -42 -2 -67h-705q6 -74 70.5 -126.5t157.5 -52.5q84 0 142.5 38.5t82.5 76.5l225 -174q-14 -29 -46.5 -64.5t-87 -77t-140 -69t-183.5 -27.5q-173 0 -304 74.5t-199 201.5t-68 286zM406 666h348 q-3 67 -50 113t-124 46q-79 0 -123 -47.5t-51 -111.5zM408 1188l135 297h354l-205 -297h-284z" />
<glyph unicode="&#xea;" horiz-adv-x="1140" d="M45 535q0 157 65.5 286t187 205t275.5 76q255 0 392 -154.5t137 -431.5q0 -42 -2 -67h-705q6 -74 70.5 -126.5t157.5 -52.5q84 0 142.5 38.5t82.5 76.5l225 -174q-14 -29 -46.5 -64.5t-87 -77t-140 -69t-183.5 -27.5q-173 0 -304 74.5t-199 201.5t-68 286zM217 1188 l197 297h344l196 -297h-282l-84 133l-86 -133h-285zM406 666h348q-3 67 -50 113t-124 46q-79 0 -123 -47.5t-51 -111.5z" />
<glyph unicode="&#xeb;" horiz-adv-x="1140" d="M45 535q0 157 65.5 286t187 205t275.5 76q255 0 392 -154.5t137 -431.5q0 -42 -2 -67h-705q6 -74 70.5 -126.5t157.5 -52.5q84 0 142.5 38.5t82.5 76.5l225 -174q-14 -29 -46.5 -64.5t-87 -77t-140 -69t-183.5 -27.5q-173 0 -304 74.5t-199 201.5t-68 286zM221 1337 q0 66 44.5 112t113.5 46q68 0 113 -46t45 -112q0 -65 -45 -111t-113 -46q-69 0 -113.5 45.5t-44.5 111.5zM406 666h348q-3 67 -50 113t-124 46q-79 0 -123 -47.5t-51 -111.5zM633 1337q0 66 44.5 112t113.5 46q68 0 112.5 -46t44.5 -112t-44.5 -111.5t-112.5 -45.5 q-69 0 -113.5 45.5t-44.5 111.5z" />
<glyph unicode="&#xec;" d="M-33 1485h355l135 -297h-285zM98 0v1075h342v-1075h-342z" />
<glyph unicode="&#xed;" d="M82 1188l135 297h354l-204 -297h-285zM98 0v1075h342v-1075h-342z" />
<glyph unicode="&#xee;" d="M-92 1188l196 297h345l196 -297h-283l-83 133l-86 -133h-285zM98 0v1075h342v-1075h-342z" />
<glyph unicode="&#xef;" d="M-86 1337q0 66 44.5 112t113.5 46q68 0 112.5 -46t44.5 -112t-44.5 -111.5t-112.5 -45.5q-69 0 -113.5 45.5t-44.5 111.5zM98 0v1075h342v-1075h-342zM326 1337q0 66 44 112t113 46q68 0 113 -46t45 -112q0 -65 -45 -111t-113 -46q-69 0 -113 45.5t-44 111.5z" />
<glyph unicode="&#xf0;" horiz-adv-x="1202" d="M41 514q0 115 41 210t111.5 158.5t166 98.5t203.5 35q35 0 53 -2q-29 52 -86 100q-219 -75 -323 -110l-29 208l160 56q-32 23 -148 98l191 172q130 -53 289 -156l280 103l29 -215l-131 -47q305 -294 305 -650q0 -119 -33 -224t-99 -190.5t-176 -135.5t-251 -50 q-165 0 -292.5 73.5t-194 196t-66.5 271.5zM383 514q0 -103 55.5 -171.5t153.5 -68.5q108 0 163.5 66.5t55.5 173.5q0 97 -57.5 164t-151.5 67q-104 0 -161.5 -65t-57.5 -166z" />
<glyph unicode="&#xf1;" horiz-adv-x="1161" d="M98 0v1075h334v-110q36 55 106.5 96t163.5 41q70 0 126 -17t94 -44.5t66 -69.5t43.5 -83.5t25 -96t12 -98t2.5 -97.5v-596h-342v641q0 73 -39 113.5t-102 40.5q-69 0 -108.5 -43.5t-39.5 -110.5v-641h-342zM199 1186q0 135 66.5 219t174.5 84q65 0 146 -34t106 -34 q29 0 44.5 18.5t15.5 51.5h209q0 -139 -65 -221t-173 -82q-61 0 -144.5 33.5t-109.5 33.5q-61 0 -61 -69h-209z" />
<glyph unicode="&#xf2;" horiz-adv-x="1259" d="M43 535q0 160 76.5 290.5t210 203.5t297.5 73q259 0 424.5 -159t165.5 -404q0 -160 -76 -289.5t-211 -203t-303 -73.5t-302 72.5t-208 201t-74 288.5zM311 1485h355l135 -297h-285zM385 535q0 -116 68.5 -188.5t173.5 -72.5q106 0 176.5 75t70.5 190q0 117 -70.5 189.5 t-176.5 72.5t-174 -74t-68 -192z" />
<glyph unicode="&#xf3;" horiz-adv-x="1259" d="M43 535q0 160 76.5 290.5t210 203.5t297.5 73q259 0 424.5 -159t165.5 -404q0 -160 -76 -289.5t-211 -203t-303 -73.5t-302 72.5t-208 201t-74 288.5zM385 535q0 -116 68.5 -188.5t173.5 -72.5q106 0 176.5 75t70.5 190q0 117 -70.5 189.5t-176.5 72.5t-174 -74t-68 -192 zM457 1188l135 297h354l-205 -297h-284z" />
<glyph unicode="&#xf4;" horiz-adv-x="1259" d="M43 535q0 160 76.5 290.5t210 203.5t297.5 73q259 0 424.5 -159t165.5 -404q0 -160 -76 -289.5t-211 -203t-303 -73.5t-302 72.5t-208 201t-74 288.5zM268 1188l197 297h344l197 -297h-283l-84 133l-86 -133h-285zM385 535q0 -116 68.5 -188.5t173.5 -72.5 q106 0 176.5 75t70.5 190q0 117 -70.5 189.5t-176.5 72.5t-174 -74t-68 -192z" />
<glyph unicode="&#xf5;" horiz-adv-x="1259" d="M43 535q0 160 76.5 290.5t210 203.5t297.5 73q259 0 424.5 -159t165.5 -404q0 -160 -76 -289.5t-211 -203t-303 -73.5t-302 72.5t-208 201t-74 288.5zM252 1186q0 135 66.5 219t175.5 84q65 0 145.5 -34t105.5 -34q29 0 44.5 18.5t15.5 51.5h209q0 -139 -65 -221 t-173 -82q-62 0 -145 33.5t-109 33.5q-61 0 -61 -69h-209zM385 535q0 -116 68.5 -188.5t173.5 -72.5q106 0 176.5 75t70.5 190q0 117 -70.5 189.5t-176.5 72.5t-174 -74t-68 -192z" />
<glyph unicode="&#xf6;" horiz-adv-x="1259" d="M43 535q0 160 76.5 290.5t210 203.5t297.5 73q259 0 424.5 -159t165.5 -404q0 -160 -76 -289.5t-211 -203t-303 -73.5t-302 72.5t-208 201t-74 288.5zM270 1337q0 66 44.5 112t113.5 46q68 0 113 -46t45 -112q0 -65 -45 -111t-113 -46q-69 0 -113.5 45.5t-44.5 111.5z M385 535q0 -116 68.5 -188.5t173.5 -72.5q106 0 176.5 75t70.5 190q0 117 -70.5 189.5t-176.5 72.5t-174 -74t-68 -192zM682 1337q0 66 44.5 112t113.5 46q68 0 112.5 -46t44.5 -112t-44.5 -111.5t-112.5 -45.5q-69 0 -113.5 45.5t-44.5 111.5z" />
<glyph unicode="&#xf7;" horiz-adv-x="1130" d="M74 504v270h985v-270h-985zM397 229q0 71 48.5 120.5t117.5 49.5q71 0 120.5 -49.5t49.5 -120.5q0 -68 -50 -117t-120 -49q-69 0 -117.5 49t-48.5 117zM397 1044q0 71 48.5 120.5t117.5 49.5q71 0 120.5 -50t49.5 -120q0 -68 -50 -116.5t-120 -48.5q-69 0 -117.5 48.5 t-48.5 116.5z" />
<glyph unicode="&#xf8;" horiz-adv-x="1259" d="M43 535q0 160 76.5 290.5t210 203.5t297.5 73q145 0 278 -60l76 97l156 -121l-72 -90q152 -158 152 -389q0 -160 -76 -289.5t-211 -203t-303 -73.5q-146 0 -271 58l-82 -105l-153 121l76 94q-154 157 -154 394zM385 535q0 -65 25 -123l295 376q-41 13 -78 13 q-106 0 -174 -74t-68 -192zM557 283q30 -9 70 -9q106 0 176.5 75t70.5 190q0 63 -24 116z" />
<glyph unicode="&#xf9;" horiz-adv-x="1153" d="M90 479v596h342v-641q0 -73 39 -113t102 -40q69 0 108.5 43t39.5 110v641h342v-1075h-334v111q-36 -55 -106.5 -96.5t-163.5 -41.5q-70 0 -126 17t-94 44.5t-66 69.5t-43.5 83.5t-25 96t-12 98t-2.5 97.5zM270 1485h355l135 -297h-285z" />
<glyph unicode="&#xfa;" horiz-adv-x="1153" d="M90 479v596h342v-641q0 -73 39 -113t102 -40q69 0 108.5 43t39.5 110v641h342v-1075h-334v111q-36 -55 -106.5 -96.5t-163.5 -41.5q-70 0 -126 17t-94 44.5t-66 69.5t-43.5 83.5t-25 96t-12 98t-2.5 97.5zM408 1188l135 297h354l-205 -297h-284z" />
<glyph unicode="&#xfb;" horiz-adv-x="1153" d="M90 479v596h342v-641q0 -73 39 -113t102 -40q69 0 108.5 43t39.5 110v641h342v-1075h-334v111q-36 -55 -106.5 -96.5t-163.5 -41.5q-70 0 -126 17t-94 44.5t-66 69.5t-43.5 83.5t-25 96t-12 98t-2.5 97.5zM213 1188l197 297h344l196 -297h-282l-84 133l-86 -133h-285z " />
<glyph unicode="&#xfc;" horiz-adv-x="1153" d="M90 479v596h342v-641q0 -73 39 -113t102 -40q69 0 108.5 43t39.5 110v641h342v-1075h-334v111q-36 -55 -106.5 -96.5t-163.5 -41.5q-70 0 -126 17t-94 44.5t-66 69.5t-43.5 83.5t-25 96t-12 98t-2.5 97.5zM223 1337q0 66 44.5 112t113.5 46q68 0 113 -46t45 -112 q0 -65 -45 -111t-113 -46q-69 0 -113.5 45.5t-44.5 111.5zM635 1337q0 66 44.5 112t113.5 46q68 0 112.5 -46t44.5 -112t-44.5 -111.5t-112.5 -45.5q-69 0 -113.5 45.5t-44.5 111.5z" />
<glyph unicode="&#xfd;" horiz-adv-x="1138" d="M12 1075h367l190 -618l199 618h356l-532 -1442h-324l146 402zM410 1188l135 297h354l-205 -297h-284z" />
<glyph unicode="&#xfe;" horiz-adv-x="1280" d="M98 -383v1864h342v-469q41 36 110.5 63t158.5 27q232 0 379 -157.5t147 -405.5q0 -253 -138.5 -409.5t-369.5 -156.5q-106 0 -182 37.5t-105 71.5v-465h-342zM430 541q0 -125 64 -196t168 -71t167.5 74t63.5 193t-64 190.5t-167 71.5q-107 0 -169.5 -75.5t-62.5 -186.5z " />
<glyph unicode="&#xff;" horiz-adv-x="1138" d="M12 1075h367l190 -618l199 618h356l-532 -1442h-324l146 402zM213 1337q0 66 44.5 112t113.5 46q68 0 112.5 -46t44.5 -112t-44.5 -111.5t-112.5 -45.5q-69 0 -113.5 45.5t-44.5 111.5zM625 1337q0 66 44 112t113 46q68 0 113 -46t45 -112q0 -65 -45 -111t-113 -46 q-69 0 -113 45.5t-44 111.5z" />
<glyph unicode="&#x100;" horiz-adv-x="1384" d="M12 0l496 1434h369l495 -1434h-352l-102 322h-451l-102 -322h-353zM403 1528v244h576v-244h-576zM557 608h270l-135 455z" />
<glyph unicode="&#x101;" horiz-adv-x="1093" d="M41 334q0 161 114 258.5t304 97.5q112 0 207 -39v39q0 52 -42 84.5t-122 32.5q-132 0 -271 -68l-127 230q201 133 439 133q135 0 228.5 -32.5t144 -94.5t71.5 -136.5t21 -172.5v-666h-306l-18 59q-86 -86 -244 -86q-108 0 -197 40.5t-145.5 124.5t-56.5 196zM270 1210 v244h576v-244h-576zM383 346q0 -52 41 -81t104 -29q64 0 104 29t40 81q0 54 -41 84.5t-105 30.5q-62 0 -102.5 -31.5t-40.5 -83.5z" />
<glyph unicode="&#x102;" horiz-adv-x="1384" d="M12 0l496 1434h369l495 -1434h-352l-102 322h-451l-102 -322h-353zM356 1825h240q0 -117 94 -117q96 0 96 117h240q0 -139 -89.5 -225.5t-246.5 -86.5q-155 0 -244.5 86.5t-89.5 225.5zM557 608h270l-135 455z" />
<glyph unicode="&#x103;" horiz-adv-x="1093" d="M41 334q0 161 114 258.5t304 97.5q112 0 207 -39v39q0 52 -42 84.5t-122 32.5q-132 0 -271 -68l-127 230q201 133 439 133q135 0 228.5 -32.5t144 -94.5t71.5 -136.5t21 -172.5v-666h-306l-18 59q-86 -86 -244 -86q-108 0 -197 40.5t-145.5 124.5t-56.5 196zM211 1495 h240q0 -117 94 -117q96 0 96 117h240q0 -139 -89.5 -225t-246.5 -86q-156 0 -245 86t-89 225zM383 346q0 -52 41 -81t104 -29q64 0 104 29t40 81q0 54 -41 84.5t-105 30.5q-62 0 -102.5 -31.5t-40.5 -83.5z" />
<glyph unicode="&#x104;" horiz-adv-x="1384" d="M12 0l496 1434h369l495 -1434q-96 -43 -96 -113q0 -40 28.5 -58.5t63.5 -18.5v-226q-43 -16 -137 -16q-98 0 -166 51t-68 152q0 81 50.5 141t109.5 88h-137l-102 322h-451l-102 -322h-353zM557 608h270l-135 455z" />
<glyph unicode="&#x105;" horiz-adv-x="1093" d="M41 334q0 161 114 258.5t304 97.5q135 0 207 -39v39q0 52 -42 84.5t-122 32.5q-132 0 -271 -68l-127 230q201 133 439 133q135 0 228.5 -32.5t144 -94.5t71.5 -136.5t21 -172.5v-666q-97 -43 -97 -113q0 -40 29 -58.5t64 -18.5v-226q-43 -16 -138 -16q-98 0 -165.5 51 t-67.5 152q0 81 50.5 141t109.5 88h-91l-18 59q-86 -86 -244 -86q-108 0 -197 40.5t-145.5 124.5t-56.5 196zM383 346q0 -52 41 -81t104 -29q64 0 104 29t40 81q0 54 -41 84.5t-105 30.5q-62 0 -102.5 -31.5t-40.5 -83.5z" />
<glyph unicode="&#x106;" horiz-adv-x="1290" d="M55 719q0 156 56 293t155 235.5t241 155.5t306 57q242 0 418 -121l-98 -307q-151 101 -308 101q-96 0 -173.5 -33t-127.5 -90.5t-77 -132t-27 -158.5q0 -114 45.5 -207.5t139.5 -152t220 -58.5q165 0 314 100l98 -307q-176 -121 -424 -121q-226 0 -400 98.5t-266 267.5 t-92 380zM600 1505l135 297h355l-205 -297h-285z" />
<glyph unicode="&#x107;" horiz-adv-x="980" d="M43 537q0 246 166 405.5t416 159.5q178 0 319 -98l-92 -289q-96 80 -215 80q-118 0 -185 -72.5t-67 -183.5q0 -119 73 -192t191 -73q111 0 203 76l90 -280q-143 -97 -315 -97q-256 0 -420 158t-164 406zM406 1188l135 297h354l-205 -297h-284z" />
<glyph unicode="&#x108;" horiz-adv-x="1290" d="M55 719q0 156 56 293t155 235.5t241 155.5t306 57q242 0 418 -121l-98 -307q-151 101 -308 101q-96 0 -173.5 -33t-127.5 -90.5t-77 -132t-27 -158.5q0 -114 45.5 -207.5t139.5 -152t220 -58.5q165 0 314 100l98 -307q-176 -121 -424 -121q-226 0 -400 98.5t-266 267.5 t-92 380zM430 1505l197 297h344l196 -297h-282l-84 133l-86 -133h-285z" />
<glyph unicode="&#x109;" horiz-adv-x="980" d="M43 537q0 246 166 405.5t416 159.5q178 0 319 -98l-92 -289q-96 80 -215 80q-118 0 -185 -72.5t-67 -183.5q0 -119 73 -192t191 -73q111 0 203 76l90 -280q-143 -97 -315 -97q-256 0 -420 158t-164 406zM238 1188l196 297h344l197 -297h-283l-84 133l-86 -133h-284z" />
<glyph unicode="&#x10a;" horiz-adv-x="1290" d="M55 719q0 156 56 293t155 235.5t241 155.5t306 57q242 0 418 -121l-98 -307q-151 101 -308 101q-96 0 -173.5 -33t-127.5 -90.5t-77 -132t-27 -158.5q0 -114 45.5 -207.5t139.5 -152t220 -58.5q165 0 314 100l98 -307q-176 -121 -424 -121q-226 0 -400 98.5t-266 267.5 t-92 380zM637 1665q0 73 52 125.5t124 52.5q73 0 125.5 -52.5t52.5 -125.5q0 -71 -52.5 -123.5t-125.5 -52.5q-72 0 -124 52.5t-52 123.5z" />
<glyph unicode="&#x10b;" horiz-adv-x="980" d="M39 537q0 246 166 405.5t416 159.5q178 0 319 -98l-92 -289q-96 80 -215 80q-118 0 -185 -72.5t-67 -183.5q0 -119 73 -192t191 -73q111 0 203 76l90 -280q-143 -97 -315 -97q-256 0 -420 158t-164 406zM442 1333q0 73 52 125.5t124 52.5q74 0 126.5 -52.5t52.5 -125.5 q0 -71 -53 -123.5t-126 -52.5q-72 0 -124 52.5t-52 123.5z" />
<glyph unicode="&#x10c;" horiz-adv-x="1290" d="M55 719q0 156 56 293t155 235.5t241 155.5t306 57q242 0 418 -121l-98 -307q-151 101 -308 101q-96 0 -173.5 -33t-127.5 -90.5t-77 -132t-27 -158.5q0 -114 45.5 -207.5t139.5 -152t220 -58.5q165 0 314 100l98 -307q-176 -121 -424 -121q-226 0 -400 98.5t-266 267.5 t-92 380zM436 1802h285l86 -133l84 133h283l-197 -297h-344z" />
<glyph unicode="&#x10d;" horiz-adv-x="980" d="M43 537q0 246 166 405.5t416 159.5q178 0 319 -98l-92 -289q-96 80 -215 80q-118 0 -185 -72.5t-67 -183.5q0 -119 73 -192t191 -73q111 0 203 76l90 -280q-143 -97 -315 -97q-256 0 -420 158t-164 406zM238 1485h284l86 -133l84 133h283l-197 -297h-344z" />
<glyph unicode="&#x10e;" horiz-adv-x="1359" d="M127 0v1434h422q348 0 552 -191t204 -526t-204 -526t-552 -191h-422zM217 1802h285l86 -133l84 133h282l-196 -297h-344zM477 303h72q181 0 286 106.5t105 307.5t-105 307t-286 106h-72v-827z" />
<glyph unicode="&#x10f;" horiz-adv-x="1282" d="M45 537q0 253 138.5 409t369.5 156q106 0 182 -37.5t105 -71.5v488h342v-1481h-320v84q-34 -38 -110.5 -74.5t-180.5 -36.5q-232 0 -379 158t-147 406zM387 535q0 -119 64 -191t167 -72q107 0 169.5 75.5t62.5 187.5q0 125 -64 195.5t-168 70.5t-167.5 -73.5 t-63.5 -192.5zM1249 1124l15 357h282l-94 -357h-203z" />
<glyph unicode="&#x110;" horiz-adv-x="1359" d="M45 567v305h111v562h422q348 0 551.5 -191t203.5 -526t-203.5 -526t-551.5 -191h-422v567h-111zM506 303h72q181 0 286 106.5t105 307.5t-105 307t-286 106h-72v-258h188v-305h-188v-264z" />
<glyph unicode="&#x111;" horiz-adv-x="1280" d="M45 537q0 253 138.5 409t369.5 156q106 0 182 -37.5t105 -71.5v158h-258v211h258v119h342v-119h112v-211h-112v-1151h-320v84q-34 -38 -110.5 -74.5t-180.5 -36.5q-232 0 -379 158t-147 406zM387 535q0 -119 64 -191t167 -72q107 0 169.5 75.5t62.5 187.5 q0 125 -64 195.5t-168 70.5t-167.5 -73.5t-63.5 -192.5z" />
<glyph unicode="&#x112;" horiz-adv-x="993" d="M127 0v1434h764v-314h-414v-239h352v-312h-352v-256h430v-313h-780zM233 1528v244h576v-244h-576z" />
<glyph unicode="&#x113;" horiz-adv-x="1140" d="M45 535q0 157 65.5 286t187 205t275.5 76q255 0 392 -154.5t137 -431.5q0 -42 -2 -67h-705q6 -74 70.5 -126.5t157.5 -52.5q84 0 142.5 38.5t82.5 76.5l225 -174q-14 -29 -46.5 -64.5t-87 -77t-140 -69t-183.5 -27.5q-173 0 -304 74.5t-199 201.5t-68 286zM303 1210v244 h576v-244h-576zM406 666h348q-3 67 -50 113t-124 46q-79 0 -123 -47.5t-51 -111.5z" />
<glyph unicode="&#x114;" horiz-adv-x="993" d="M127 0v1434h764v-314h-414v-239h352v-312h-352v-256h430v-313h-780zM182 1825h240q0 -117 94 -117q96 0 96 117h240q0 -139 -89.5 -225.5t-246.5 -86.5q-155 0 -244.5 86.5t-89.5 225.5z" />
<glyph unicode="&#x115;" horiz-adv-x="1140" d="M45 535q0 157 65.5 286t187 205t275.5 76q255 0 392 -154.5t137 -431.5q0 -42 -2 -67h-705q6 -74 70.5 -126.5t157.5 -52.5q84 0 142.5 38.5t82.5 76.5l225 -174q-14 -29 -46.5 -64.5t-87 -77t-140 -69t-183.5 -27.5q-173 0 -304 74.5t-199 201.5t-68 286zM244 1495h239 q0 -117 95 -117q96 0 96 117h239q0 -139 -89 -225t-246 -86q-156 0 -245 86t-89 225zM406 666h348q-3 67 -50 113t-124 46q-79 0 -123 -47.5t-51 -111.5z" />
<glyph unicode="&#x116;" horiz-adv-x="993" d="M127 0v1434h764v-314h-414v-239h352v-312h-352v-256h430v-313h-780zM348 1665q0 73 52 125.5t124 52.5q74 0 126 -52.5t52 -125.5q0 -71 -52.5 -123.5t-125.5 -52.5q-72 0 -124 52.5t-52 123.5z" />
<glyph unicode="&#x117;" horiz-adv-x="1140" d="M45 535q0 157 65.5 286t187 205t275.5 76q255 0 392 -154.5t137 -431.5q0 -42 -2 -67h-705q6 -74 70.5 -126.5t157.5 -52.5q84 0 142.5 38.5t82.5 76.5l225 -174q-14 -29 -46.5 -64.5t-87 -77t-140 -69t-183.5 -27.5q-173 0 -304 74.5t-199 201.5t-68 286zM406 666h348 q-3 67 -50 113t-124 46q-79 0 -123 -47.5t-51 -111.5zM408 1333q0 73 52 125.5t124 52.5q74 0 126 -52.5t52 -125.5q0 -71 -52.5 -123.5t-125.5 -52.5q-72 0 -124 52.5t-52 123.5z" />
<glyph unicode="&#x118;" horiz-adv-x="993" d="M127 0v1434h764v-314h-414v-239h352v-312h-352v-256h430v-313q-96 -43 -96 -113q0 -40 28.5 -58.5t63.5 -18.5v-226q-43 -16 -137 -16q-98 0 -166 51t-68 152q0 81 50.5 141t109.5 88h-565z" />
<glyph unicode="&#x119;" horiz-adv-x="1140" d="M45 535q0 157 65.5 286t187 205t275.5 76q255 0 392 -154.5t137 -431.5q0 -42 -2 -67h-705q6 -74 70.5 -126.5t157.5 -52.5q84 0 142.5 38.5t82.5 76.5l225 -174q-26 -52 -98 -114.5t-180 -96.5q-97 -43 -97 -113q0 -40 29 -58.5t64 -18.5v-226q-43 -16 -138 -16 q-98 0 -165.5 51t-67.5 152q0 122 119 206q-228 24 -361 178.5t-133 379.5zM406 666h348q-3 67 -50 113t-124 46q-79 0 -123 -47.5t-51 -111.5z" />
<glyph unicode="&#x11a;" horiz-adv-x="993" d="M127 0v1434h764v-314h-414v-239h352v-312h-352v-256h430v-313h-780zM162 1802h284l86 -133l84 133h283l-197 -297h-344z" />
<glyph unicode="&#x11b;" horiz-adv-x="1140" d="M45 535q0 157 65.5 286t187 205t275.5 76q255 0 392 -154.5t137 -431.5q0 -42 -2 -67h-705q6 -74 70.5 -126.5t157.5 -52.5q84 0 142.5 38.5t82.5 76.5l225 -174q-14 -29 -46.5 -64.5t-87 -77t-140 -69t-183.5 -27.5q-173 0 -304 74.5t-199 201.5t-68 286zM211 1485h285 l86 -133l84 133h282l-196 -297h-344zM406 666h348q-3 67 -50 113t-124 46q-79 0 -123 -47.5t-51 -111.5z" />
<glyph unicode="&#x11c;" horiz-adv-x="1542" d="M57 721q0 204 93.5 372.5t266 267.5t390.5 99q97 0 183.5 -17.5t147 -43.5t113.5 -62t83.5 -65.5t56.5 -61.5l-222 -229q-15 19 -41.5 42t-69.5 50.5t-105.5 45.5t-129.5 18q-187 0 -295 -115.5t-108 -294.5q0 -195 114.5 -312.5t288.5 -117.5q117 0 197 30t108 58v127 h-247v293h573v-606q-67 -52 -122.5 -86t-135.5 -69.5t-179.5 -53t-217.5 -17.5q-152 0 -287 52.5t-236 147.5t-160 237t-59 311zM444 1505l197 297h344l197 -297h-283l-84 133l-86 -133h-285z" />
<glyph unicode="&#x11d;" horiz-adv-x="1269" d="M43 539q0 248 147 405.5t379 157.5q104 0 180.5 -36.5t110.5 -74.5v84h320v-946q0 -116 -31.5 -206.5t-86 -149t-131.5 -96.5t-162 -54t-185 -16q-108 0 -214 26t-184 66l101 262q144 -65 297 -65q254 0 254 159v27q-29 -34 -105 -71.5t-182 -37.5q-231 0 -369.5 156.5 t-138.5 409.5zM266 1188l197 297h344l197 -297h-283l-84 133l-86 -133h-285zM385 541q0 -119 63.5 -193t167.5 -74t168 71t64 196q0 111 -63.5 185.5t-170.5 74.5q-103 0 -166 -70.5t-63 -189.5z" />
<glyph unicode="&#x11e;" horiz-adv-x="1542" d="M57 721q0 204 93.5 372.5t266 267.5t390.5 99q97 0 183.5 -17.5t147 -43.5t113.5 -62t83.5 -65.5t56.5 -61.5l-222 -229q-15 19 -41.5 42t-69.5 50.5t-105.5 45.5t-129.5 18q-187 0 -295 -115.5t-108 -294.5q0 -195 114.5 -312.5t288.5 -117.5q117 0 197 30t108 58v127 h-247v293h573v-606q-67 -52 -122.5 -86t-135.5 -69.5t-179.5 -53t-217.5 -17.5q-152 0 -287 52.5t-236 147.5t-160 237t-59 311zM483 1825h240q0 -117 94 -117q96 0 96 117h240q0 -139 -89.5 -225.5t-246.5 -86.5q-155 0 -244.5 86.5t-89.5 225.5z" />
<glyph unicode="&#x11f;" horiz-adv-x="1269" d="M43 539q0 248 147 405.5t379 157.5q104 0 180.5 -36.5t110.5 -74.5v84h320v-946q0 -116 -31.5 -206.5t-86 -149t-131.5 -96.5t-162 -54t-185 -16q-108 0 -214 26t-184 66l101 262q144 -65 297 -65q254 0 254 159v27q-29 -34 -105 -71.5t-182 -37.5q-231 0 -369.5 156.5 t-138.5 409.5zM299 1495h240q0 -117 94 -117q96 0 96 117h240q0 -139 -89.5 -225t-246.5 -86q-156 0 -245 86t-89 225zM385 541q0 -119 63.5 -193t167.5 -74t168 71t64 196q0 111 -63.5 185.5t-170.5 74.5q-103 0 -166 -70.5t-63 -189.5z" />
<glyph unicode="&#x120;" horiz-adv-x="1542" d="M57 721q0 204 93.5 372.5t266 267.5t390.5 99q97 0 183.5 -17.5t147 -43.5t113.5 -62t83.5 -65.5t56.5 -61.5l-222 -229q-15 19 -41.5 42t-69.5 50.5t-105.5 45.5t-129.5 18q-187 0 -295 -115.5t-108 -294.5q0 -195 114.5 -312.5t288.5 -117.5q117 0 197 30t108 58v127 h-247v293h573v-606q-67 -52 -122.5 -86t-135.5 -69.5t-179.5 -53t-217.5 -17.5q-152 0 -287 52.5t-236 147.5t-160 237t-59 311zM647 1665q0 73 52 125.5t124 52.5q73 0 125.5 -52.5t52.5 -125.5q0 -71 -52.5 -123.5t-125.5 -52.5q-72 0 -124 52.5t-52 123.5z" />
<glyph unicode="&#x121;" horiz-adv-x="1269" d="M43 539q0 248 147 405.5t379 157.5q104 0 180.5 -36.5t110.5 -74.5v84h320v-946q0 -116 -31.5 -206.5t-86 -149t-131.5 -96.5t-162 -54t-185 -16q-108 0 -214 26t-184 66l101 262q144 -65 297 -65q254 0 254 159v27q-29 -34 -105 -71.5t-182 -37.5q-231 0 -369.5 156.5 t-138.5 409.5zM385 541q0 -119 63.5 -193t167.5 -74t168 71t64 196q0 111 -63.5 185.5t-170.5 74.5q-103 0 -166 -70.5t-63 -189.5zM459 1333q0 73 52 125.5t124 52.5q73 0 125.5 -52.5t52.5 -125.5q0 -71 -52.5 -123.5t-125.5 -52.5q-72 0 -124 52.5t-52 123.5z" />
<glyph unicode="&#x122;" horiz-adv-x="1542" d="M57 721q0 204 93.5 372.5t266 267.5t390.5 99q97 0 183.5 -17.5t147 -43.5t113.5 -62t83.5 -65.5t56.5 -61.5l-222 -229q-15 19 -41.5 42t-69.5 50.5t-105.5 45.5t-129.5 18q-187 0 -295 -115.5t-108 -294.5q0 -195 114.5 -312.5t288.5 -117.5q117 0 197 30t108 58v127 h-247v293h573v-606q-67 -52 -122.5 -86t-135.5 -69.5t-179.5 -53t-217.5 -17.5q-152 0 -287 52.5t-236 147.5t-160 237t-59 311zM657 -227q0 72 52.5 122t124.5 50q80 0 132 -56t52 -147q0 -115 -61 -222t-158 -171l-113 125q84 60 105 131q-64 14 -99 62t-35 106z" />
<glyph unicode="&#x123;" horiz-adv-x="1269" d="M43 539q0 248 147 405.5t379 157.5q104 0 180.5 -36.5t110.5 -74.5v84h320v-946q0 -116 -31.5 -206.5t-86 -149t-131.5 -96.5t-162 -54t-185 -16q-108 0 -214 26t-184 66l101 262q144 -65 297 -65q254 0 254 159v27q-29 -34 -105 -71.5t-182 -37.5q-231 0 -369.5 156.5 t-138.5 409.5zM385 541q0 -119 63.5 -193t167.5 -74t168 71t64 196q0 111 -63.5 185.5t-170.5 74.5q-103 0 -166 -70.5t-63 -189.5zM446 1366q0 115 61.5 222t158.5 171l112 -125q-83 -59 -104 -131q64 -14 98.5 -62t34.5 -106q0 -72 -52 -122t-124 -50q-81 0 -133 56 t-52 147z" />
<glyph unicode="&#x124;" horiz-adv-x="1466" d="M127 0v1434h350v-557h512v557h350v-1434h-350v561h-512v-561h-350zM373 1505l196 297h344l197 -297h-283l-84 133l-86 -133h-284z" />
<glyph unicode="&#x125;" horiz-adv-x="1165" d="M98 0v1481h342v-516q36 56 105 96.5t162 40.5q70 0 126 -17t94 -44.5t66 -69.5t43.5 -83.5t24.5 -96t11.5 -98t2.5 -97.5v-596h-342v641q0 73 -39 113.5t-102 40.5q-69 0 -110.5 -44t-41.5 -110v-641h-342zM244 1536l196 297h344l197 -297h-283l-84 133l-86 -133h-284z " />
<glyph unicode="&#x126;" horiz-adv-x="1466" d="M12 1042v232h115v160h350v-160h512v160h350v-160h115v-232h-115v-1042h-350v561h-512v-561h-350v1042h-115zM477 877h512v165h-512v-165z" />
<glyph unicode="&#x127;" horiz-adv-x="1165" d="M6 1165v211h92v105h342v-105h269v-211h-269v-200q36 56 105 96.5t162 40.5q70 0 126 -17t94 -44.5t66 -69.5t43.5 -83.5t24.5 -96t11.5 -98t2.5 -97.5v-596h-342v641q0 73 -39 113.5t-102 40.5q-69 0 -110.5 -44t-41.5 -110v-641h-342v1165h-92z" />
<glyph unicode="&#x128;" horiz-adv-x="604" d="M-78 1507q0 135 66.5 219t175.5 84q65 0 146 -33.5t106 -33.5q59 0 59 69h209q0 -139 -65 -221t-173 -82q-62 0 -144.5 34t-108.5 34q-29 0 -45.5 -18t-16.5 -52h-209zM127 0v1434h350v-1434h-350z" />
<glyph unicode="&#x129;" d="M-106 1186q0 135 66.5 219t174.5 84q65 0 146 -34t106 -34q59 0 59 70h209q0 -139 -64.5 -221t-172.5 -82q-62 0 -145 33.5t-109 33.5q-62 0 -62 -69h-208zM98 0v1075h342v-1075h-342z" />
<glyph unicode="&#x12a;" horiz-adv-x="604" d="M12 1528v244h576v-244h-576zM127 0v1434h350v-1434h-350z" />
<glyph unicode="&#x12b;" d="M-16 1210v244h575v-244h-575zM98 0v1075h342v-1075h-342z" />
<glyph unicode="&#x12c;" horiz-adv-x="604" d="M-31 1825h240q0 -117 94 -117q96 0 96 117h240q0 -139 -89.5 -225.5t-246.5 -86.5q-155 0 -244.5 86.5t-89.5 225.5zM127 0v1434h350v-1434h-350z" />
<glyph unicode="&#x12d;" d="M-61 1495h239q0 -117 94 -117q97 0 97 117h239q0 -139 -89.5 -225t-246.5 -86q-155 0 -244 86t-89 225zM98 0v1075h342v-1075h-342z" />
<glyph unicode="&#x12e;" horiz-adv-x="604" d="M102 -229q0 81 50.5 141t109.5 88h-135v1434h350v-1434q-96 -43 -96 -113q0 -40 28.5 -58.5t63.5 -18.5v-226q-43 -16 -137 -16q-98 0 -166 51t-68 152z" />
<glyph unicode="&#x12f;" d="M66 -229q0 81 50 141t109 88h-127v1075h342v-1075q-96 -43 -96 -113q0 -40 28.5 -58.5t63.5 -18.5v-226q-43 -16 -137 -16q-98 0 -165.5 51t-67.5 152zM72 1321q0 82 56.5 139.5t137.5 57.5q82 0 139.5 -57.5t57.5 -139.5q0 -80 -58 -137.5t-139 -57.5t-137.5 57.5 t-56.5 137.5z" />
<glyph unicode="&#x130;" horiz-adv-x="604" d="M127 0v1434h350v-1434h-350zM131 1665q0 73 52 125.5t124 52.5q73 0 125.5 -52.5t52.5 -125.5q0 -71 -52.5 -123.5t-125.5 -52.5q-72 0 -124 52.5t-52 123.5z" />
<glyph unicode="&#x131;" d="M98 0v1075h342v-1075h-342z" />
<glyph unicode="&#x132;" horiz-adv-x="1400" d="M127 0v1434h350v-1434h-350zM643 10l41 309q55 -10 111 -10q64 0 96.5 36t32.5 93v996h350v-1061q0 -105 -34.5 -181.5t-96.5 -120t-137 -63.5t-166 -20q-102 0 -197 22z" />
<glyph unicode="&#x133;" horiz-adv-x="1077" d="M76 1325q0 81 54 133.5t136 52.5t137.5 -52.5t55.5 -133.5q0 -79 -55.5 -131.5t-137.5 -52.5t-136 52.5t-54 131.5zM98 0v1075h342v-1075h-342zM453 -98q26 -4 49 -4q135 0 135 114v1063h342v-1079q0 -105 -33.5 -182t-96 -121.5t-142 -65t-179.5 -20.5l-75 6v289z M614 1325q0 81 54.5 133.5t136.5 52.5t137 -52.5t55 -133.5q0 -79 -55 -131.5t-137 -52.5t-136.5 52.5t-54.5 131.5z" />
<glyph unicode="&#x134;" horiz-adv-x="796" d="M39 10l41 309q55 -10 110 -10q64 0 96.5 36t32.5 93v996h351v-1061q0 -105 -34.5 -181.5t-96.5 -120t-137 -63.5t-166 -20q-102 0 -197 22zM94 1505l197 297h344l196 -297h-282l-84 133l-86 -133h-285z" />
<glyph unicode="&#x135;" d="M-98 1188l196 297h344l197 -297h-283l-84 133l-86 -133h-284zM-86 -98q26 -4 49 -4q135 0 135 114v1063h342v-1079q0 -105 -33.5 -182t-95.5 -121.5t-141.5 -65t-179.5 -20.5l-76 6v289z" />
<glyph unicode="&#x136;" horiz-adv-x="1310" d="M127 0v1434h350v-553l418 553h391l-536 -686l546 -748h-401l-418 578v-578h-350zM475 -227q0 72 52 122t124 50q81 0 133 -56t52 -147q0 -115 -61.5 -222t-158.5 -171l-112 125q83 59 104 131q-64 14 -98.5 62t-34.5 106z" />
<glyph unicode="&#x137;" horiz-adv-x="1144" d="M98 0v1481h342v-838l291 432h383l-346 -491l375 -584h-402l-301 502v-502h-342zM391 -227q0 72 52 122t124 50q81 0 133 -56t52 -147q0 -115 -61.5 -222t-158.5 -171l-112 125q83 59 104 131q-64 14 -98.5 62t-34.5 106z" />
<glyph unicode="&#x138;" horiz-adv-x="1144" d="M98 0v1075h342v-444l291 444h383l-346 -504l375 -571h-402l-301 489v-489h-342z" />
<glyph unicode="&#x139;" horiz-adv-x="937" d="M127 0v1434h350v-1121h430v-313h-780zM158 1505l135 297h354l-205 -297h-284z" />
<glyph unicode="&#x13a;" d="M98 0v1481h342v-1481h-342zM127 1536l135 297h354l-204 -297h-285z" />
<glyph unicode="&#x13b;" horiz-adv-x="937" d="M127 0v1434h350v-1121h430v-313h-780zM311 -227q0 72 52 122t124 50q81 0 133 -56t52 -147q0 -115 -61 -222t-158 -171l-113 125q83 59 104 131q-64 14 -98.5 62t-34.5 106z" />
<glyph unicode="&#x13c;" d="M90 -227q0 72 52 122t124 50q81 0 133 -56t52 -147q0 -115 -61.5 -222t-158.5 -171l-112 125q83 59 104 131q-64 14 -98.5 62t-34.5 106zM98 0v1481h342v-1481h-342z" />
<glyph unicode="&#x13d;" horiz-adv-x="940" d="M127 0v1434h350v-1121h430v-313h-780zM596 1077l14 357h283l-94 -357h-203z" />
<glyph unicode="&#x13e;" horiz-adv-x="544" d="M98 0v1481h342v-1481h-342zM514 1124l14 357h283l-94 -357h-203z" />
<glyph unicode="&#x13f;" horiz-adv-x="937" d="M127 0v1434h350v-1121h430v-313h-780zM575 754q0 85 59 144.5t144 59.5t145 -59.5t60 -144.5q0 -83 -60 -143t-145 -60q-84 0 -143.5 59.5t-59.5 143.5z" />
<glyph unicode="&#x140;" horiz-adv-x="905" d="M98 0v1481h342v-1481h-342zM537 754q0 85 58.5 144.5t143.5 59.5t145 -59.5t60 -144.5q0 -83 -60 -143t-145 -60q-84 0 -143 59.5t-59 143.5z" />
<glyph unicode="&#x141;" horiz-adv-x="937" d="M14 348v320l113 61v705h350v-512l203 112v-329l-203 -109v-283h430v-313h-780v408z" />
<glyph unicode="&#x142;" horiz-adv-x="657" d="M51 426v324l99 55v676h342v-477l116 67v-330l-116 -67v-674h-342v481z" />
<glyph unicode="&#x143;" horiz-adv-x="1470" d="M123 0v1434h356l525 -889v889h344v-1434h-349l-532 879v-879h-344zM588 1505l135 297h354l-205 -297h-284z" />
<glyph unicode="&#x144;" horiz-adv-x="1161" d="M98 0v1075h334v-110q36 55 106.5 96t163.5 41q70 0 126 -17t94 -44.5t66 -69.5t43.5 -83.5t25 -96t12 -98t2.5 -97.5v-596h-342v641q0 73 -39 113.5t-102 40.5q-69 0 -108.5 -43.5t-39.5 -110.5v-641h-342zM428 1188l135 297h355l-205 -297h-285z" />
<glyph unicode="&#x145;" horiz-adv-x="1470" d="M123 0v1434h356l525 -889v889h344v-1434h-349l-532 879v-879h-344zM555 -227q0 72 52 122t124 50q80 0 132 -56t52 -147q0 -115 -61 -222t-158 -171l-112 125q83 59 104 131q-64 14 -98.5 62t-34.5 106z" />
<glyph unicode="&#x146;" horiz-adv-x="1161" d="M98 0v1075h334v-110q36 55 106.5 96t163.5 41q70 0 126 -17t94 -44.5t66 -69.5t43.5 -83.5t25 -96t12 -98t2.5 -97.5v-596h-342v641q0 73 -39 113.5t-102 40.5q-69 0 -108.5 -43.5t-39.5 -110.5v-641h-342zM401 -227q0 72 52.5 122t124.5 50q80 0 132 -56t52 -147 q0 -115 -61 -222t-158 -171l-113 125q84 60 105 131q-64 14 -99 62t-35 106z" />
<glyph unicode="&#x147;" horiz-adv-x="1470" d="M123 0v1434h356l525 -889v889h344v-1434h-349l-532 879v-879h-344zM383 1802h285l86 -133l84 133h282l-196 -297h-344z" />
<glyph unicode="&#x148;" horiz-adv-x="1161" d="M98 0v1075h334v-110q36 55 106.5 96t163.5 41q70 0 126 -17t94 -44.5t66 -69.5t43.5 -83.5t25 -96t12 -98t2.5 -97.5v-596h-342v641q0 73 -39 113.5t-102 40.5q-69 0 -108.5 -43.5t-39.5 -110.5v-641h-342zM211 1485h285l86 -133l84 133h282l-196 -297h-344z" />
<glyph unicode="&#x149;" horiz-adv-x="1368" d="M-86 1331q0 72 52 122t124 50q80 0 132 -56t52 -147q0 -115 -61 -222t-158 -171l-112 125q83 59 104 131q-64 14 -98.5 62t-34.5 106zM305 0v1075h334v-110q36 55 106.5 96t163.5 41q70 0 126 -17t94 -44.5t66 -69.5t43.5 -83.5t25 -96t12 -98t2.5 -97.5v-596h-342v641 q0 73 -39 113.5t-102 40.5q-69 0 -108.5 -43.5t-39.5 -110.5v-641h-342z" />
<glyph unicode="&#x14a;" horiz-adv-x="1470" d="M123 0v1434h356l525 -889v889h344v-1442q0 -105 -35 -181.5t-97 -120t-137 -63.5t-166 -20q-101 0 -196 22l41 310q74 -11 110 -11q110 0 131 72l-532 879v-879h-344z" />
<glyph unicode="&#x14b;" horiz-adv-x="1161" d="M98 0v1075h334v-110q36 55 106.5 96t163.5 41q70 0 126 -17t94 -44.5t66 -69.5t43.5 -83.5t25 -96t12 -98t2.5 -97.5v-600q0 -105 -33.5 -182t-95.5 -121.5t-141.5 -65t-179.5 -20.5q-22 0 -48 2t-28 2v287h49q126 0 135 102v641q0 73 -39 113.5t-102 40.5 q-69 0 -108.5 -43.5t-39.5 -110.5v-641h-342z" />
<glyph unicode="&#x14c;" horiz-adv-x="1613" d="M55 719q0 208 92.5 376t265 266.5t394.5 98.5t394.5 -98.5t265 -266.5t92.5 -376q0 -210 -92.5 -379.5t-265 -268t-394.5 -98.5t-394.5 98.5t-265 268t-92.5 379.5zM420 719q0 -182 108.5 -300t278.5 -118t278.5 118t108.5 300q0 179 -108.5 296.5t-278.5 117.5 t-278.5 -117.5t-108.5 -296.5zM518 1528v244h576v-244h-576z" />
<glyph unicode="&#x14d;" horiz-adv-x="1259" d="M43 535q0 160 76.5 290.5t210 203.5t297.5 73q259 0 424.5 -159t165.5 -404q0 -160 -76 -289.5t-211 -203t-303 -73.5t-302 72.5t-208 201t-74 288.5zM342 1210v244h576v-244h-576zM385 535q0 -116 68.5 -188.5t173.5 -72.5q106 0 176.5 75t70.5 190q0 117 -70.5 189.5 t-176.5 72.5t-174 -74t-68 -192z" />
<glyph unicode="&#x14e;" horiz-adv-x="1613" d="M55 719q0 208 92.5 376t265 266.5t394.5 98.5t394.5 -98.5t265 -266.5t92.5 -376q0 -210 -92.5 -379.5t-265 -268t-394.5 -98.5t-394.5 98.5t-265 268t-92.5 379.5zM420 719q0 -182 108.5 -300t278.5 -118t278.5 118t108.5 300q0 179 -108.5 296.5t-278.5 117.5 t-278.5 -117.5t-108.5 -296.5zM471 1825h240q0 -117 94 -117q96 0 96 117h240q0 -139 -89.5 -225.5t-246.5 -86.5q-155 0 -244.5 86.5t-89.5 225.5z" />
<glyph unicode="&#x14f;" horiz-adv-x="1259" d="M43 535q0 160 76.5 290.5t210 203.5t297.5 73q259 0 424.5 -159t165.5 -404q0 -160 -76 -289.5t-211 -203t-303 -73.5t-302 72.5t-208 201t-74 288.5zM295 1495h240q0 -117 94 -117q96 0 96 117h240q0 -139 -89.5 -225t-246.5 -86q-156 0 -245 86t-89 225zM385 535 q0 -116 68.5 -188.5t173.5 -72.5q106 0 176.5 75t70.5 190q0 117 -70.5 189.5t-176.5 72.5t-174 -74t-68 -192z" />
<glyph unicode="&#x150;" horiz-adv-x="1613" d="M55 719q0 208 92.5 376t265 266.5t394.5 98.5t394.5 -98.5t265 -266.5t92.5 -376q0 -210 -92.5 -379.5t-265 -268t-394.5 -98.5t-394.5 98.5t-265 268t-92.5 379.5zM420 719q0 -182 108.5 -300t278.5 -118t278.5 118t108.5 300q0 179 -108.5 296.5t-278.5 117.5 t-278.5 -117.5t-108.5 -296.5zM465 1505l135 297h322l-205 -297h-252zM860 1505l135 297h322l-205 -297h-252z" />
<glyph unicode="&#x151;" horiz-adv-x="1259" d="M43 535q0 160 76.5 290.5t210 203.5t297.5 73q259 0 424.5 -159t165.5 -404q0 -160 -76 -289.5t-211 -203t-303 -73.5t-302 72.5t-208 201t-74 288.5zM297 1188l135 297h322l-205 -297h-252zM385 535q0 -116 68.5 -188.5t173.5 -72.5q106 0 176.5 75t70.5 190 q0 117 -70.5 189.5t-176.5 72.5t-174 -74t-68 -192zM692 1188l135 297h322l-205 -297h-252z" />
<glyph unicode="&#x152;" horiz-adv-x="2064" d="M55 719q0 208 92.5 376t265 266.5t394.5 98.5q106 0 213 -26h942v-314h-512q69 -116 92 -239h359v-312h-355q-22 -132 -96 -256h528v-313h-958q-111 -27 -213 -27q-222 0 -394.5 98.5t-265 268t-92.5 379.5zM420 719q0 -182 108.5 -300t278.5 -118t278.5 118t108.5 300 q0 179 -108.5 296.5t-278.5 117.5t-278.5 -117.5t-108.5 -296.5z" />
<glyph unicode="&#x153;" horiz-adv-x="1957" d="M43 535q0 160 76.5 290.5t210 203.5t297.5 73q245 0 407 -146q143 146 357 146q254 0 391 -154t137 -432q0 -42 -2 -67h-705q6 -74 70.5 -126.5t157.5 -52.5q84 0 142.5 38.5t82.5 76.5l225 -174q-11 -22 -32.5 -49t-61.5 -61.5t-89.5 -62t-121.5 -46.5t-151 -19 q-249 0 -400 148q-164 -148 -407 -148q-168 0 -302 72.5t-208 201t-74 288.5zM385 535q0 -116 68.5 -188.5t173.5 -72.5q106 0 176.5 75t70.5 190q0 117 -70.5 189.5t-176.5 72.5t-174 -74t-68 -192zM1223 666h348q-3 67 -50 113t-124 46q-79 0 -123 -47.5t-51 -111.5z" />
<glyph unicode="&#x154;" horiz-adv-x="1239" d="M127 0v1434h467q251 0 376.5 -112.5t125.5 -328.5q0 -122 -51.5 -224t-147.5 -155l330 -614h-387l-256 530h-107v-530h-350zM389 1505l135 297h355l-205 -297h-285zM477 823h105q72 0 113.5 42.5t41.5 115.5q0 74 -40 113t-132 39h-88v-310z" />
<glyph unicode="&#x155;" horiz-adv-x="755" d="M98 0v1075h334v-143q39 80 113 125t172 45v-348q-28 4 -55 4q-222 0 -222 -283v-475h-342zM248 1188l135 297h354l-205 -297h-284z" />
<glyph unicode="&#x156;" horiz-adv-x="1239" d="M127 0v1434h467q251 0 376.5 -112.5t125.5 -328.5q0 -122 -51.5 -224t-147.5 -155l330 -614h-387l-256 530h-107v-530h-350zM438 -227q0 72 52 122t124 50q81 0 133 -56t52 -147q0 -115 -61 -222t-158 -171l-113 125q83 59 104 131q-64 14 -98.5 62t-34.5 106zM477 823 h105q72 0 113.5 42.5t41.5 115.5q0 74 -40 113t-132 39h-88v-310z" />
<glyph unicode="&#x157;" horiz-adv-x="755" d="M98 0v1075h334v-143q39 80 113 125t172 45v-348q-28 4 -55 4q-222 0 -222 -283v-475h-342zM145 -227q0 72 52.5 122t124.5 50q80 0 132 -56t52 -147q0 -115 -61 -222t-158 -171l-113 125q84 60 105 131q-64 14 -99 62t-35 106z" />
<glyph unicode="&#x158;" horiz-adv-x="1239" d="M127 0v1434h467q251 0 376.5 -112.5t125.5 -328.5q0 -122 -51.5 -224t-147.5 -155l330 -614h-387l-256 530h-107v-530h-350zM195 1802h284l86 -133l84 133h283l-197 -297h-344zM477 823h105q72 0 113.5 42.5t41.5 115.5q0 74 -40 113t-132 39h-88v-310z" />
<glyph unicode="&#x159;" horiz-adv-x="755" d="M10 1485h285l86 -133l84 133h283l-197 -297h-344zM98 0v1075h334v-143q39 80 113 125t172 45v-348q-28 4 -55 4q-222 0 -222 -283v-475h-342z" />
<glyph unicode="&#x15a;" horiz-adv-x="1083" d="M35 315l293 146q32 -68 89 -114t126 -46q62 0 94.5 26t32.5 74q0 38 -33 70t-85 58.5t-115.5 55t-127 68t-115.5 88t-85 124.5t-33 169q0 193 128.5 309.5t342.5 116.5q87 0 162 -24.5t123 -60t87 -84t58.5 -86.5t32.5 -77l-291 -133q-14 30 -26 50t-33 43.5t-51.5 36 t-69.5 12.5q-50 0 -81.5 -27.5t-31.5 -69.5q0 -39 33 -71.5t85.5 -59t116.5 -54t128 -64.5t116.5 -83.5t85.5 -118.5t33 -161q0 -202 -135.5 -328.5t-366.5 -126.5q-92 0 -170.5 25.5t-129.5 63t-92 87t-61.5 88.5t-33.5 78zM371 1505l135 297h354l-205 -297h-284z" />
<glyph unicode="&#x15b;" horiz-adv-x="909" d="M29 158l192 186q105 -94 238 -94q96 0 96 59q0 24 -27 43t-70.5 34t-96 32.5t-105 45t-96 65t-70.5 99.5t-27 142q0 152 117.5 242t296.5 90q250 0 385 -184l-221 -175q-84 84 -178 84q-37 0 -57.5 -14t-20.5 -39q0 -27 27.5 -46.5t71 -33.5t96.5 -29.5t106 -40.5 t96.5 -60.5t71 -96t27.5 -139.5q0 -161 -125 -258t-314 -97q-141 0 -249.5 55t-163.5 130zM291 1188l135 297h354l-205 -297h-284z" />
<glyph unicode="&#x15c;" horiz-adv-x="1083" d="M35 315l293 146q32 -68 89 -114t126 -46q62 0 94.5 26t32.5 74q0 38 -33 70t-85 58.5t-115.5 55t-127 68t-115.5 88t-85 124.5t-33 169q0 193 128.5 309.5t342.5 116.5q87 0 162 -24.5t123 -60t87 -84t58.5 -86.5t32.5 -77l-291 -133q-14 30 -26 50t-33 43.5t-51.5 36 t-69.5 12.5q-50 0 -81.5 -27.5t-31.5 -69.5q0 -39 33 -71.5t85.5 -59t116.5 -54t128 -64.5t116.5 -83.5t85.5 -118.5t33 -161q0 -202 -135.5 -328.5t-366.5 -126.5q-92 0 -170.5 25.5t-129.5 63t-92 87t-61.5 88.5t-33.5 78zM182 1505l197 297h344l197 -297h-283l-84 133 l-86 -133h-285z" />
<glyph unicode="&#x15d;" horiz-adv-x="909" d="M29 158l192 186q105 -94 238 -94q96 0 96 59q0 24 -27 43t-70.5 34t-96 32.5t-105 45t-96 65t-70.5 99.5t-27 142q0 152 117.5 242t296.5 90q250 0 385 -184l-221 -175q-84 84 -178 84q-37 0 -57.5 -14t-20.5 -39q0 -27 27.5 -46.5t71 -33.5t96.5 -29.5t106 -40.5 t96.5 -60.5t71 -96t27.5 -139.5q0 -161 -125 -258t-314 -97q-141 0 -249.5 55t-163.5 130zM113 1188l196 297h344l197 -297h-283l-84 133l-86 -133h-284z" />
<glyph unicode="&#x15e;" horiz-adv-x="1083" d="M35 315l293 146q32 -68 89 -114t126 -46q62 0 94.5 26t32.5 74q0 38 -33 70t-85 58.5t-115.5 55t-127 68t-115.5 88t-85 124.5t-33 169q0 193 128.5 309.5t342.5 116.5q87 0 162 -24.5t123 -60t87 -84t58.5 -86.5t32.5 -77l-291 -133q-14 30 -26 50t-33 43.5t-51.5 36 t-69.5 12.5q-50 0 -81.5 -27.5t-31.5 -69.5q0 -39 33 -71.5t85.5 -59t116.5 -54t128 -64.5t116.5 -83.5t85.5 -118.5t33 -161q0 -181 -110.5 -303t-301.5 -145l-6 -52q73 -17 112.5 -67t39.5 -127q0 -108 -73 -163.5t-191 -55.5q-66 0 -136 24l41 164q40 -10 70 -10 q33 0 54.5 15.5t21.5 41.5q0 28 -28 40.5t-64 12.5l-37 -2l28 179q-76 9 -141.5 38t-108.5 65t-77.5 81t-52.5 80.5t-29 70.5z" />
<glyph unicode="&#x15f;" horiz-adv-x="909" d="M29 158l192 186q105 -94 238 -94q96 0 96 59q0 24 -27 43t-70.5 34t-96 32.5t-105 45t-96 65t-70.5 99.5t-27 142q0 152 117.5 242t296.5 90q250 0 385 -184l-221 -175q-84 84 -178 84q-37 0 -57.5 -14t-20.5 -39q0 -27 27.5 -46.5t71 -33.5t96.5 -29.5t106 -40.5 t96.5 -60.5t71 -96t27.5 -139.5q0 -141 -97.5 -233.5t-253.5 -114.5l-6 -52q73 -17 112.5 -67t39.5 -127q0 -108 -73 -163.5t-191 -55.5q-66 0 -136 24l41 164q40 -10 70 -10q33 0 54.5 15.5t21.5 41.5q0 28 -28 40.5t-64 12.5l-37 -2l28 179q-114 14 -200.5 64t-132.5 114z " />
<glyph unicode="&#x160;" horiz-adv-x="1083" d="M35 315l293 146q32 -68 89 -114t126 -46q62 0 94.5 26t32.5 74q0 38 -33 70t-85 58.5t-115.5 55t-127 68t-115.5 88t-85 124.5t-33 169q0 193 128.5 309.5t342.5 116.5q87 0 162 -24.5t123 -60t87 -84t58.5 -86.5t32.5 -77l-291 -133q-14 30 -26 50t-33 43.5t-51.5 36 t-69.5 12.5q-50 0 -81.5 -27.5t-31.5 -69.5q0 -39 33 -71.5t85.5 -59t116.5 -54t128 -64.5t116.5 -83.5t85.5 -118.5t33 -161q0 -202 -135.5 -328.5t-366.5 -126.5q-92 0 -170.5 25.5t-129.5 63t-92 87t-61.5 88.5t-33.5 78zM172 1802h285l86 -133l84 133h282l-196 -297 h-344z" />
<glyph unicode="&#x161;" horiz-adv-x="909" d="M29 158l192 186q105 -94 238 -94q96 0 96 59q0 24 -27 43t-70.5 34t-96 32.5t-105 45t-96 65t-70.5 99.5t-27 142q0 152 117.5 242t296.5 90q250 0 385 -184l-221 -175q-84 84 -178 84q-37 0 -57.5 -14t-20.5 -39q0 -27 27.5 -46.5t71 -33.5t96.5 -29.5t106 -40.5 t96.5 -60.5t71 -96t27.5 -139.5q0 -161 -125 -258t-314 -97q-141 0 -249.5 55t-163.5 130zM102 1485h285l86 -133l84 133h283l-197 -297h-344z" />
<glyph unicode="&#x162;" horiz-adv-x="1046" d="M39 1120v314h969v-314h-310v-1120h-137l-10 -72q73 -17 112 -67t39 -127q0 -108 -73 -163.5t-191 -55.5q-65 0 -135 24l41 164q40 -10 70 -10q33 0 54 15.5t21 41.5q0 28 -28 40.5t-64 12.5l-37 -2l33 199h-45v1120h-309z" />
<glyph unicode="&#x163;" horiz-adv-x="720" d="M23 799v276h104v228h342v-228h182v-276h-182v-396q0 -116 133 -116q34 0 57 2v-293q-45 -12 -131 -12q-25 0 -61 4l-8 -60q73 -17 112 -67t39 -127q0 -108 -73 -163.5t-191 -55.5q-65 0 -135 24l41 164q40 -10 70 -10q33 0 54 15.5t21 41.5q0 28 -28 40.5t-64 12.5 l-37 -2l37 228q-178 91 -178 391v379h-104z" />
<glyph unicode="&#x164;" horiz-adv-x="1046" d="M39 1120v314h969v-314h-310v-1120h-350v1120h-309zM160 1802h284l86 -133l84 133h283l-197 -297h-344z" />
<glyph unicode="&#x165;" horiz-adv-x="722" d="M23 799v276h104v228h342v-228h182v-276h-182v-396q0 -116 133 -116q34 0 57 2v-293q-45 -12 -131 -12q-198 0 -299.5 102.5t-101.5 333.5v379h-104zM575 1124l15 357h282l-94 -357h-203z" />
<glyph unicode="&#x166;" horiz-adv-x="1046" d="M39 1120v314h969v-314h-310v-266h234v-252h-234v-602h-350v602h-227v252h227v266h-309z" />
<glyph unicode="&#x167;" horiz-adv-x="720" d="M12 453v219h115v127h-104v276h104v228h342v-228h182v-276h-182v-127h162v-219h-162v-50q0 -69 40.5 -92.5t111.5 -23.5h38v-291q-45 -12 -131 -12q-198 0 -299.5 102.5t-101.5 333.5v33h-115z" />
<glyph unicode="&#x168;" horiz-adv-x="1441" d="M123 551v883h350v-883q0 -117 66.5 -184.5t183.5 -67.5q118 0 182 67.5t64 186.5v881h350v-881q0 -126 -40.5 -232t-116 -183t-188.5 -120t-253 -43q-283 0 -440.5 157t-157.5 419zM354 1507q0 135 66.5 219t175.5 84q65 0 146 -33.5t106 -33.5q59 0 59 69h209 q0 -139 -64.5 -221t-172.5 -82q-61 0 -145 34t-109 34q-29 0 -45.5 -18t-16.5 -52h-209z" />
<glyph unicode="&#x169;" horiz-adv-x="1153" d="M90 479v596h342v-641q0 -73 39 -113t102 -40q69 0 108.5 43t39.5 110v641h342v-1075h-334v111q-36 -55 -106.5 -96.5t-163.5 -41.5q-70 0 -126 17t-94 44.5t-66 69.5t-43.5 83.5t-25 96t-12 98t-2.5 97.5zM201 1186q0 135 66.5 219t174.5 84q65 0 146 -34t106 -34 q29 0 44.5 18.5t15.5 51.5h209q0 -139 -65 -221t-173 -82q-61 0 -145 33.5t-109 33.5q-61 0 -61 -69h-209z" />
<glyph unicode="&#x16a;" horiz-adv-x="1441" d="M123 551v883h350v-883q0 -117 66.5 -184.5t183.5 -67.5q118 0 182 67.5t64 186.5v881h350v-881q0 -126 -40.5 -232t-116 -183t-188.5 -120t-253 -43q-283 0 -440.5 157t-157.5 419zM432 1528v244h576v-244h-576z" />
<glyph unicode="&#x16b;" horiz-adv-x="1153" d="M90 479v596h342v-641q0 -73 39 -113t102 -40q69 0 108.5 43t39.5 110v641h342v-1075h-334v111q-36 -55 -106.5 -96.5t-163.5 -41.5q-70 0 -126 17t-94 44.5t-66 69.5t-43.5 83.5t-25 96t-12 98t-2.5 97.5zM297 1210v244h575v-244h-575z" />
<glyph unicode="&#x16c;" horiz-adv-x="1441" d="M123 551v883h350v-883q0 -117 66.5 -184.5t183.5 -67.5q118 0 182 67.5t64 186.5v881h350v-881q0 -126 -40.5 -232t-116 -183t-188.5 -120t-253 -43q-283 0 -440.5 157t-157.5 419zM401 1825h240q0 -117 94 -117q96 0 96 117h240q0 -139 -89.5 -225.5t-246.5 -86.5 q-155 0 -244.5 86.5t-89.5 225.5z" />
<glyph unicode="&#x16d;" horiz-adv-x="1153" d="M90 479v596h342v-641q0 -73 39 -113t102 -40q69 0 108.5 43t39.5 110v641h342v-1075h-334v111q-36 -55 -106.5 -96.5t-163.5 -41.5q-70 0 -126 17t-94 44.5t-66 69.5t-43.5 83.5t-25 96t-12 98t-2.5 97.5zM248 1495h239q0 -117 95 -117q96 0 96 117h240 q0 -139 -89.5 -225t-246.5 -86q-156 0 -245 86t-89 225z" />
<glyph unicode="&#x16e;" horiz-adv-x="1441" d="M123 551v883h350v-883q0 -117 66.5 -184.5t183.5 -67.5q118 0 182 67.5t64 186.5v881h350v-881q0 -126 -40.5 -232t-116 -183t-188.5 -120t-253 -43q-283 0 -440.5 157t-157.5 419zM487 1706q0 95 68 156t168 61q102 0 170 -60.5t68 -154.5q0 -96 -68 -156.5t-170 -60.5 q-100 0 -168 60.5t-68 154.5zM651 1708q0 -35 20 -56.5t54 -21.5q33 0 53.5 21.5t20.5 56.5q0 34 -21 55t-53 21q-34 0 -54 -21t-20 -55z" />
<glyph unicode="&#x16f;" horiz-adv-x="1153" d="M90 479v596h342v-641q0 -73 39 -113t102 -40q69 0 108.5 43t39.5 110v641h342v-1075h-334v111q-36 -55 -106.5 -96.5t-163.5 -41.5q-70 0 -126 17t-94 44.5t-66 69.5t-43.5 83.5t-25 96t-12 98t-2.5 97.5zM350 1360q0 95 68 156t168 61q102 0 169.5 -60.5t67.5 -154.5 q0 -96 -67.5 -156.5t-169.5 -60.5q-100 0 -168 60.5t-68 154.5zM514 1362q0 -35 20 -56.5t54 -21.5q33 0 53.5 21.5t20.5 56.5q0 34 -21 55t-53 21q-34 0 -54 -21t-20 -55z" />
<glyph unicode="&#x170;" horiz-adv-x="1441" d="M123 551v883h350v-883q0 -117 66.5 -184.5t183.5 -67.5q118 0 182 67.5t64 186.5v881h350v-881q0 -126 -40.5 -232t-116 -183t-188.5 -120t-253 -43q-283 0 -440.5 157t-157.5 419zM387 1505l135 297h322l-205 -297h-252zM782 1505l136 297h321l-205 -297h-252z" />
<glyph unicode="&#x171;" horiz-adv-x="1153" d="M90 479v596h342v-641q0 -73 39 -113t102 -40q69 0 108.5 43t39.5 110v641h342v-1075h-334v111q-36 -55 -106.5 -96.5t-163.5 -41.5q-70 0 -126 17t-94 44.5t-66 69.5t-43.5 83.5t-25 96t-12 98t-2.5 97.5zM207 1188l135 297h322l-205 -297h-252zM602 1188l135 297h322 l-205 -297h-252z" />
<glyph unicode="&#x172;" horiz-adv-x="1441" d="M123 551v883h350v-883q0 -117 66.5 -184.5t183.5 -67.5q118 0 182 67.5t64 186.5v881h350v-881q0 -208 -106 -355t-298 -198q-96 -43 -96 -113q0 -40 28.5 -58.5t63.5 -18.5v-226q-43 -16 -137 -16q-98 0 -165.5 51t-67.5 152q0 123 121 206q-257 17 -398 172t-141 402z " />
<glyph unicode="&#x173;" horiz-adv-x="1153" d="M90 479v596h342v-641q0 -73 39 -113t102 -40q69 0 108.5 43t39.5 110v641h342v-1075q-96 -43 -96 -113q0 -40 28.5 -58.5t63.5 -18.5v-226q-43 -16 -137 -16q-98 0 -166 51t-68 152q0 81 50.5 141t109.5 88h-119v111q-36 -55 -106.5 -96.5t-163.5 -41.5q-70 0 -126 17 t-94 44.5t-66 69.5t-43.5 83.5t-25 96t-12 98t-2.5 97.5z" />
<glyph unicode="&#x174;" horiz-adv-x="2035" d="M16 1434h375l217 -1010l252 1010h316l251 -1010l218 1010h374l-372 -1434h-398l-231 901l-232 -901h-397zM649 1505l197 297h344l196 -297h-282l-84 133l-86 -133h-285z" />
<glyph unicode="&#x175;" horiz-adv-x="1708" d="M14 1075h373l145 -702l162 702h320l162 -702l145 702h373l-301 -1075h-385l-154 608l-154 -608h-385zM485 1188l197 297h344l197 -297h-283l-84 133l-86 -133h-285z" />
<glyph unicode="&#x176;" horiz-adv-x="1249" d="M12 1434h394l219 -469l225 469h387l-438 -787v-647h-348v647zM256 1505l197 297h344l196 -297h-282l-84 133l-86 -133h-285z" />
<glyph unicode="&#x177;" horiz-adv-x="1138" d="M12 1075h367l190 -618l199 618h356l-532 -1442h-324l146 402zM205 1188l196 297h344l197 -297h-283l-84 133l-86 -133h-284z" />
<glyph unicode="&#x178;" horiz-adv-x="1249" d="M12 1434h394l219 -469l225 469h387l-438 -787v-647h-348v647zM262 1665q0 66 44.5 112t113.5 46q68 0 113 -46t45 -112t-45 -112t-113 -46q-69 0 -113.5 46t-44.5 112zM674 1665q0 66 44 112t113 46q68 0 113 -46t45 -112t-45 -112t-113 -46q-69 0 -113 46t-44 112z" />
<glyph unicode="&#x179;" horiz-adv-x="1245" d="M63 0v223l635 901h-618v310h1089v-222l-641 -903h648v-309h-1113zM434 1505l135 297h355l-205 -297h-285z" />
<glyph unicode="&#x17a;" horiz-adv-x="964" d="M55 0v205l418 586h-407v284h837v-207l-420 -583h424v-285h-852zM307 1188l135 297h355l-205 -297h-285z" />
<glyph unicode="&#x17b;" horiz-adv-x="1245" d="M63 0v223l635 901h-618v310h1089v-222l-641 -903h648v-309h-1113zM446 1665q0 73 52.5 125.5t124.5 52.5q73 0 125.5 -52.5t52.5 -125.5q0 -71 -52.5 -123.5t-125.5 -52.5q-72 0 -124.5 52.5t-52.5 123.5z" />
<glyph unicode="&#x17c;" horiz-adv-x="964" d="M55 0v205l418 586h-407v284h837v-207l-420 -583h424v-285h-852zM319 1333q0 73 52.5 125.5t124.5 52.5q74 0 126 -52.5t52 -125.5q0 -71 -52.5 -123.5t-125.5 -52.5q-72 0 -124.5 52.5t-52.5 123.5z" />
<glyph unicode="&#x17d;" horiz-adv-x="1245" d="M63 0v223l635 901h-618v310h1089v-222l-641 -903h648v-309h-1113zM252 1802h285l86 -133l84 133h282l-196 -297h-344z" />
<glyph unicode="&#x17e;" horiz-adv-x="964" d="M55 0v205l418 586h-407v284h837v-207l-420 -583h424v-285h-852zM125 1485h285l86 -133l84 133h282l-196 -297h-344z" />
<glyph unicode="&#x192;" horiz-adv-x="997" d="M-43 -381l37 283q36 -6 61 -6q132 0 148 112l84 625h-113v276h150l22 178q11 86 41.5 152.5t73 107.5t98.5 67t112.5 36t121.5 10q75 0 135 -12l-37 -283q-36 6 -62 6q-131 0 -147 -112l-20 -150h157v-276h-194l-86 -653q-11 -86 -42 -152.5t-73 -107.5t-98.5 -67 t-112.5 -36t-121 -10q-93 0 -135 12z" />
<glyph unicode="&#x1fa;" horiz-adv-x="1384" d="M12 0l484 1397q-39 55 -39 123q0 95 67.5 156t167.5 61q102 0 170 -60.5t68 -154.5q0 -74 -41 -127l483 -1395h-352l-102 322h-451l-102 -322h-353zM526 1786l136 297h354l-205 -297h-285zM557 608h270l-135 455zM621 1522q0 -35 19.5 -56.5t53.5 -21.5q33 0 53.5 21.5 t20.5 56.5q0 34 -21 54.5t-53 20.5q-34 0 -53.5 -20.5t-19.5 -54.5z" />
<glyph unicode="&#x1fb;" horiz-adv-x="1091" d="M41 334q0 161 114 258.5t304 97.5q112 0 207 -39v39q0 52 -42 84.5t-122 32.5q-132 0 -271 -68l-127 230q201 133 439 133q135 0 228.5 -32.5t144 -94.5t71.5 -136.5t21 -172.5v-666h-306l-18 59q-86 -86 -244 -86q-108 0 -197 40.5t-145.5 124.5t-56.5 196zM322 1360 q0 95 67.5 156t167.5 61q102 0 170 -60.5t68 -154.5q0 -96 -68 -156.5t-170 -60.5q-100 0 -167.5 60.5t-67.5 154.5zM383 346q0 -52 41 -81t104 -29q64 0 104 29t40 81q0 54 -41 84.5t-105 30.5q-62 0 -102.5 -31.5t-40.5 -83.5zM424 1612l135 297h354l-204 -297h-285z M485 1362q0 -35 20 -56.5t54 -21.5q33 0 53.5 21.5t20.5 56.5q0 34 -21 55t-53 21q-34 0 -54 -21t-20 -55z" />
<glyph unicode="&#x1fc;" horiz-adv-x="1804" d="M16 0l758 1434h928v-314h-414v-239h352v-312h-352v-256h430v-313h-780v322h-379l-162 -322h-381zM686 608h252v500zM938 1505l135 297h354l-204 -297h-285z" />
<glyph unicode="&#x1fd;" horiz-adv-x="1753" d="M41 334q0 161 114 258.5t304 97.5q112 0 207 -39v39q0 52 -42 84.5t-122 32.5q-132 0 -271 -68l-127 230q201 133 439 133q212 0 331 -101q135 101 312 101q254 0 391 -154t137 -432q0 -42 -2 -67h-704q6 -74 70 -126.5t157 -52.5q84 0 142.5 38.5t82.5 76.5l226 -174 q-14 -29 -46.5 -64.5t-87 -77t-140 -69t-183.5 -27.5q-257 0 -414 154q-58 -75 -146.5 -114.5t-228.5 -39.5q-108 0 -197 40.5t-145.5 124.5t-56.5 196zM383 346q0 -52 41 -81t104 -29q64 0 104 29t40 81q0 54 -41 84.5t-105 30.5q-62 0 -102.5 -31.5t-40.5 -83.5zM696 1188 l135 297h355l-205 -297h-285zM1018 666h348q-3 67 -50 113t-124 46q-79 0 -123 -47.5t-51 -111.5z" />
<glyph unicode="&#x1fe;" horiz-adv-x="1613" d="M55 719q0 208 92.5 376t265 266.5t394.5 98.5q200 0 369 -86l92 115l180 -143l-88 -111q96 -101 147.5 -233t51.5 -283q0 -210 -92.5 -379.5t-265 -268t-394.5 -98.5q-209 0 -381 90l-94 -116l-180 143l92 115q-189 208 -189 514zM420 719q0 -130 53 -225l485 608 q-70 31 -151 31q-170 0 -278.5 -117.5t-108.5 -296.5zM639 1505l135 297h354l-204 -297h-285zM643 336q75 -35 164 -35q170 0 278.5 118t108.5 300q0 128 -61 231z" />
<glyph unicode="&#x1ff;" horiz-adv-x="1261" d="M43 535q0 160 76.5 290.5t210 203.5t297.5 73q145 0 278 -60l76 97l156 -121l-72 -90q152 -158 152 -389q0 -160 -76 -289.5t-211 -203t-303 -73.5q-146 0 -271 58l-82 -105l-153 121l76 94q-154 157 -154 394zM385 535q0 -65 25 -123l295 376q-41 13 -78 13 q-106 0 -174 -74t-68 -192zM457 1188l135 297h354l-205 -297h-284zM557 283q30 -9 70 -9q106 0 176.5 75t70.5 190q0 63 -24 116z" />
<glyph unicode="&#x218;" horiz-adv-x="1083" d="M35 315l293 146q32 -68 89 -114t126 -46q62 0 94.5 26t32.5 74q0 38 -33 70t-85 58.5t-115.5 55t-127 68t-115.5 88t-85 124.5t-33 169q0 193 128.5 309.5t342.5 116.5q87 0 162 -24.5t123 -60t87 -84t58.5 -86.5t32.5 -77l-291 -133q-14 30 -26 50t-33 43.5t-51.5 36 t-69.5 12.5q-50 0 -81.5 -27.5t-31.5 -69.5q0 -39 33 -71.5t85.5 -59t116.5 -54t128 -64.5t116.5 -83.5t85.5 -118.5t33 -161q0 -202 -135.5 -328.5t-366.5 -126.5q-92 0 -170.5 25.5t-129.5 63t-92 87t-61.5 88.5t-33.5 78zM342 -227q0 72 52 122t124 50q80 0 132 -56 t52 -147q0 -115 -61 -222t-158 -171l-112 125q83 59 104 131q-64 14 -98.5 62t-34.5 106z" />
<glyph unicode="&#x219;" horiz-adv-x="909" d="M29 158l192 186q105 -94 238 -94q96 0 96 59q0 24 -27 43t-70.5 34t-96 32.5t-105 45t-96 65t-70.5 99.5t-27 142q0 152 117.5 242t296.5 90q250 0 385 -184l-221 -175q-84 84 -178 84q-37 0 -57.5 -14t-20.5 -39q0 -27 27.5 -46.5t71 -33.5t96.5 -29.5t106 -40.5 t96.5 -60.5t71 -96t27.5 -139.5q0 -161 -125 -258t-314 -97q-141 0 -249.5 55t-163.5 130zM281 -227q0 72 52 122t124 50q80 0 132 -56t52 -147q0 -115 -61 -222t-158 -171l-113 125q84 60 105 131q-64 14 -98.5 62t-34.5 106z" />
<glyph unicode="&#x21a;" horiz-adv-x="1046" d="M39 1120v314h969v-314h-310v-1120h-350v1120h-309zM332 -227q0 72 52 122t124 50q80 0 132 -56t52 -147q0 -115 -61 -222t-158 -171l-113 125q84 60 105 131q-64 14 -98.5 62t-34.5 106z" />
<glyph unicode="&#x21b;" horiz-adv-x="720" d="M23 799v276h104v228h342v-228h182v-276h-182v-396q0 -116 133 -116q34 0 57 2v-293q-45 -12 -131 -12q-198 0 -299.5 102.5t-101.5 333.5v379h-104zM227 -227q0 72 52 122t124 50q81 0 133 -56t52 -147q0 -115 -61 -222t-158 -171l-113 125q83 59 104 131 q-64 14 -98.5 62t-34.5 106z" />
<glyph unicode="&#x237;" d="M-86 -98q26 -4 49 -4q135 0 135 114v1063h342v-1079q0 -105 -33.5 -182t-95.5 -121.5t-141.5 -65t-179.5 -20.5l-76 6v289z" />
<glyph unicode="&#x2c6;" horiz-adv-x="907" d="M84 1188l197 297h344l196 -297h-282l-84 133l-86 -133h-285z" />
<glyph unicode="&#x2c7;" horiz-adv-x="907" d="M84 1485h285l86 -133l84 133h282l-196 -297h-344z" />
<glyph unicode="&#x2d8;" horiz-adv-x="905" d="M117 1495h239q0 -117 95 -117q96 0 96 117h239q0 -139 -89 -225t-246 -86q-156 0 -245 86t-89 225z" />
<glyph unicode="&#x2d9;" horiz-adv-x="905" d="M276 1333q0 73 52.5 125.5t124.5 52.5q73 0 125.5 -52.5t52.5 -125.5q0 -71 -52.5 -123.5t-125.5 -52.5q-72 0 -124.5 52.5t-52.5 123.5z" />
<glyph unicode="&#x2da;" horiz-adv-x="905" d="M215 1360q0 95 68 156t168 61q102 0 169.5 -60.5t67.5 -154.5q0 -96 -67.5 -156.5t-169.5 -60.5q-100 0 -168 60.5t-68 154.5zM379 1362q0 -35 20 -56.5t54 -21.5q32 0 52.5 21.5t20.5 56.5q0 34 -20.5 55t-52.5 21q-34 0 -54 -21t-20 -55z" />
<glyph unicode="&#x2db;" horiz-adv-x="907" d="M266 -229q0 81 50.5 141t109.5 88h215q-96 -43 -96 -113q0 -40 28.5 -58.5t63.5 -18.5v-226q-43 -16 -137 -16q-98 0 -166 51t-68 152z" />
<glyph unicode="&#x2dc;" horiz-adv-x="905" d="M72 1186q0 135 66.5 219t174.5 84q65 0 146 -34t106 -34q29 0 44.5 18.5t15.5 51.5h209q0 -139 -65 -221t-173 -82q-62 0 -145 33.5t-109 33.5q-61 0 -61 -69h-209z" />
<glyph unicode="&#x2dd;" horiz-adv-x="960" d="M53 1188l135 297h322l-205 -297h-252zM449 1188l135 297h321l-205 -297h-251z" />
<glyph unicode="&#x1e80;" horiz-adv-x="2035" d="M16 1434h375l217 -1010l252 1010h316l251 -1010l218 1010h374l-372 -1434h-398l-231 901l-232 -901h-397zM662 1802h354l135 -297h-285z" />
<glyph unicode="&#x1e81;" horiz-adv-x="1708" d="M14 1075h373l145 -702l162 702h320l162 -702l145 702h373l-301 -1075h-385l-154 608l-154 -608h-385zM508 1485h354l135 -297h-284z" />
<glyph unicode="&#x1e82;" horiz-adv-x="2035" d="M16 1434h375l217 -1010l252 1010h316l251 -1010l218 1010h374l-372 -1434h-398l-231 901l-232 -901h-397zM846 1505l135 297h354l-205 -297h-284z" />
<glyph unicode="&#x1e83;" horiz-adv-x="1708" d="M14 1075h373l145 -702l162 702h320l162 -702l145 702h373l-301 -1075h-385l-154 608l-154 -608h-385zM702 1188l136 297h354l-205 -297h-285z" />
<glyph unicode="&#x1e84;" horiz-adv-x="2035" d="M16 1434h375l217 -1010l252 1010h316l251 -1010l218 1010h374l-372 -1434h-398l-231 901l-232 -901h-397zM655 1663q0 66 44.5 112t113.5 46q68 0 113 -46t45 -112t-45 -112t-113 -46q-69 0 -113.5 46t-44.5 112zM1067 1663q0 66 44.5 112t113.5 46q68 0 112.5 -46 t44.5 -112t-44.5 -112t-112.5 -46q-69 0 -113.5 46t-44.5 112z" />
<glyph unicode="&#x1e85;" horiz-adv-x="1708" d="M14 1075h373l145 -702l162 702h320l162 -702l145 702h373l-301 -1075h-385l-154 608l-154 -608h-385zM492 1337q0 66 44 112t113 46q68 0 113 -46t45 -112q0 -65 -45 -111t-113 -46q-69 0 -113 45.5t-44 111.5zM903 1337q0 66 44.5 112t113.5 46q68 0 113 -46t45 -112 q0 -65 -45 -111t-113 -46q-69 0 -113.5 45.5t-44.5 111.5z" />
<glyph unicode="&#x1ef2;" horiz-adv-x="1249" d="M12 1434h394l219 -469l225 469h387l-438 -787v-647h-348v647zM303 1802h354l136 -297h-285z" />
<glyph unicode="&#x1ef3;" horiz-adv-x="1138" d="M12 1075h367l190 -618l199 618h356l-532 -1442h-324l146 402zM248 1485h354l135 -297h-284z" />
<glyph unicode="&#x2000;" horiz-adv-x="1041" />
<glyph unicode="&#x2001;" horiz-adv-x="2083" />
<glyph unicode="&#x2002;" horiz-adv-x="1041" />
<glyph unicode="&#x2003;" horiz-adv-x="2083" />
<glyph unicode="&#x2004;" horiz-adv-x="694" />
<glyph unicode="&#x2005;" horiz-adv-x="520" />
<glyph unicode="&#x2006;" horiz-adv-x="347" />
<glyph unicode="&#x2007;" horiz-adv-x="347" />
<glyph unicode="&#x2008;" horiz-adv-x="260" />
<glyph unicode="&#x2009;" horiz-adv-x="416" />
<glyph unicode="&#x200a;" horiz-adv-x="115" />
<glyph unicode="&#x2010;" horiz-adv-x="788" d="M96 473v307h594v-307h-594z" />
<glyph unicode="&#x2011;" horiz-adv-x="788" d="M96 473v307h594v-307h-594z" />
<glyph unicode="&#x2012;" horiz-adv-x="788" d="M96 473v307h594v-307h-594z" />
<glyph unicode="&#x2013;" horiz-adv-x="1376" d="M96 498v278h1184v-278h-1184z" />
<glyph unicode="&#x2014;" horiz-adv-x="1935" d="M96 498v278h1741v-278h-1741z" />
<glyph unicode="&#x2018;" horiz-adv-x="501" d="M45 1010q0 153 71 288t191 218l133 -148q-48 -27 -92.5 -76t-52.5 -100q76 -18 119 -74.5t43 -124.5q0 -85 -59 -145t-144 -60q-89 0 -149 59t-60 163z" />
<glyph unicode="&#x2019;" horiz-adv-x="501" d="M45 1311q0 85 59 145t144 60q89 0 149 -59t60 -163q0 -153 -71 -288t-191 -218l-134 148q49 27 93.5 76t52.5 100q-76 18 -119 74.5t-43 124.5z" />
<glyph unicode="&#x201a;" horiz-adv-x="534" d="M63 176q0 85 59 145t144 60q89 0 149 -58.5t60 -162.5q0 -153 -71 -288t-191 -218l-133 147q48 27 92.5 76t52.5 100q-76 18 -119 74.5t-43 124.5z" />
<glyph unicode="&#x201c;" horiz-adv-x="964" d="M45 1010q0 153 71 288t191 218l133 -148q-48 -27 -92.5 -76t-52.5 -100q76 -18 119 -74.5t43 -124.5q0 -85 -59 -145t-144 -60q-89 0 -149 59t-60 163zM508 1010q0 153 71 288t191 218l133 -148q-48 -27 -92.5 -76t-52.5 -100q76 -18 119 -74.5t43 -124.5q0 -85 -59 -145 t-144 -60q-89 0 -149 59t-60 163z" />
<glyph unicode="&#x201d;" horiz-adv-x="964" d="M45 1311q0 85 59 145t144 60q89 0 149 -59t60 -163q0 -153 -71 -288t-191 -218l-134 148q49 27 93.5 76t52.5 100q-76 18 -119 74.5t-43 124.5zM508 1311q0 85 59 145t144 60q89 0 149 -59t60 -163q0 -153 -71.5 -288t-191.5 -218l-133 148q49 27 93.5 76t52.5 100 q-76 18 -119 74.5t-43 124.5z" />
<glyph unicode="&#x201e;" horiz-adv-x="964" d="M45 176q0 85 59 145t144 60q89 0 149 -58.5t60 -162.5q0 -153 -71 -288t-191 -218l-134 147q49 27 93.5 76t52.5 100q-76 18 -119 74.5t-43 124.5zM508 176q0 85 59 145t144 60q89 0 149 -58.5t60 -162.5q0 -153 -71.5 -288t-191.5 -218l-133 147q49 27 93.5 76t52.5 100 q-76 18 -119 74.5t-43 124.5z" />
<glyph unicode="&#x2020;" horiz-adv-x="917" d="M49 811v297h242v326h336v-326h243v-297h-243v-811h-336v811h-242z" />
<glyph unicode="&#x2021;" horiz-adv-x="919" d="M49 326v295h242v190h-242v297h242v326h336v-326h243v-297h-243v-190h243v-295h-243v-326h-336v326h-242z" />
<glyph unicode="&#x2022;" horiz-adv-x="831" d="M63 635q0 148 101 250t252 102t251.5 -102t100.5 -250t-100.5 -250t-251.5 -102t-252 102t-101 250z" />
<glyph unicode="&#x202f;" horiz-adv-x="416" />
<glyph unicode="&#x2030;" horiz-adv-x="2512" d="M45 1106q0 149 103.5 251.5t259.5 102.5q159 0 263.5 -102.5t104.5 -251.5q0 -150 -103.5 -251t-262.5 -101t-262 100t-103 252zM143 0l1082 1434h327l-1081 -1434h-328zM299 1108q0 -49 32 -82t79 -33q51 0 81.5 33t30.5 82q0 47 -31.5 79t-80.5 32t-80 -32.5t-31 -78.5 zM918 326q0 149 103.5 251.5t258.5 102.5q160 0 264.5 -102.5t104.5 -251.5q0 -150 -104 -251.5t-263 -101.5t-261.5 100.5t-102.5 252.5zM1171 328q0 -49 32 -82t79 -33q51 0 82 33t31 82q0 46 -32 78t-81 32q-50 0 -80.5 -32t-30.5 -78zM1737 326q0 149 103.5 251.5 t258.5 102.5q160 0 264.5 -102.5t104.5 -251.5q0 -150 -104 -251.5t-263 -101.5t-261.5 100.5t-102.5 252.5zM1991 328q0 -49 31.5 -82t78.5 -33q51 0 82 33t31 82q0 46 -32 78t-81 32t-79.5 -32t-30.5 -78z" />
<glyph unicode="&#x2039;" horiz-adv-x="651" d="M51 606l248 389h301l-250 -389l250 -389h-301z" />
<glyph unicode="&#x203a;" horiz-adv-x="651" d="M51 217l250 389l-250 389h301l248 -389l-248 -389h-301z" />
<glyph unicode="&#x2044;" horiz-adv-x="983" d="M-29 -84l752 1602h291l-754 -1602h-289z" />
<glyph unicode="&#x205f;" horiz-adv-x="520" />
<glyph unicode="&#x20ac;" horiz-adv-x="1339" d="M47 455v219h98q-2 14 -2 43q0 35 2 53h-98v219h141q71 207 252.5 339t421.5 132q223 0 375 -92l-143 -287q-40 23 -105 41.5t-125 18.5q-95 0 -173.5 -40.5t-119.5 -111.5h396l-21 -219h-436q-2 -16 -2 -51q0 -25 4 -45h424l-21 -219h-331q44 -73 124.5 -112.5 t178.5 -39.5q69 0 131.5 19.5t99.5 44.5l131 -285q-45 -43 -143.5 -76t-218.5 -33q-260 0 -444 131.5t-257 350.5h-139z" />
<glyph unicode="&#x2116;" horiz-adv-x="2361" d="M123 0v1434h356l525 -889v889h344v-1434h-349l-532 879v-879h-344zM1485 1079q0 100 47.5 186.5t138.5 140.5t205 54t205 -54t138.5 -140.5t47.5 -186.5q0 -154 -109.5 -264t-281.5 -110t-281.5 110t-109.5 264zM1524 348v264h700v-264h-700zM1724 1079q0 -62 41 -104.5 t111 -42.5q67 0 108 42.5t41 104.5q0 64 -40 109t-109 45t-110.5 -45.5t-41.5 -108.5z" />
<glyph unicode="&#x2122;" horiz-adv-x="1642" d="M70 1231v203h575v-203h-172v-537h-229v537h-174zM709 694v740h292l138 -396l141 396h293v-740h-221v379l-109 -297h-205l-108 297v-379h-221z" />
<glyph unicode="&#x2212;" horiz-adv-x="1128" d="M72 504v270h985v-270h-985z" />
<glyph unicode="&#x25fc;" horiz-adv-x="1075" d="M0 0v1075h1075v-1075h-1075z" />
<glyph unicode="&#xf6c3;" horiz-adv-x="661" d="M150 -227q0 72 52 122t124 50q80 0 132 -56t52 -147q0 -115 -61 -222t-158 -171l-113 125q84 60 105 131q-64 14 -98.5 62t-34.5 106z" />
<glyph horiz-adv-x="788" d="M96 569v308h594v-308h-594z" />
<glyph horiz-adv-x="1376" d="M96 588v278h1184v-278h-1184z" />
<glyph horiz-adv-x="1935" d="M96 588v278h1741v-278h-1741z" />
<glyph horiz-adv-x="1067" d="M51 731l248 389h301l-250 -389l250 -389h-301zM467 731l250 389h299l-250 -389l250 -389h-299z" />
<glyph horiz-adv-x="1067" d="M51 342l250 389l-250 389h299l250 -389l-250 -389h-299zM467 342l250 389l-250 389h301l248 -389l-248 -389h-301z" />
<glyph horiz-adv-x="651" d="M51 731l248 389h301l-250 -389l250 -389h-301z" />
<glyph horiz-adv-x="651" d="M51 342l250 389l-250 389h299l250 -389l-250 -389h-299z" />
<glyph horiz-adv-x="716" d="M72 162v1089q0 228 128.5 350.5t389.5 122.5v-294q-180 0 -180 -173v-1101q0 -172 180 -172v-295q-262 0 -390 122t-128 351z" />
<glyph horiz-adv-x="716" d="M127 -16q180 0 180 172v1101q0 173 -180 173v294q261 0 389.5 -122.5t128.5 -350.5v-1089q0 -229 -128 -351t-390 -122v295z" />
<glyph horiz-adv-x="716" d="M72 -311v2035h518v-294h-180v-1446h180v-295h-518z" />
<glyph horiz-adv-x="716" d="M127 -16h180v1446h-180v294h518v-2035h-518v295z" />
<glyph horiz-adv-x="843" d="M51 545v323q24 0 47 6.5t47 23.5t39 53t15 87v213q0 228 128.5 350.5t389.5 122.5v-294q-180 0 -180 -173v-284q0 -65 -21.5 -118t-52.5 -82.5t-57.5 -45.5t-45.5 -20q19 -4 45.5 -20t57.5 -46t52.5 -83t21.5 -118v-284q0 -172 180 -172v-295q-261 0 -389.5 122.5 t-128.5 350.5v213q0 51 -15 87t-39 53t-47 23.5t-47 6.5z" />
<glyph horiz-adv-x="608" d="M143 -459v2243h322v-2243h-322z" />
<glyph horiz-adv-x="843" d="M127 -16q180 0 180 172v284q0 65 21 118t52 83t57.5 46t45.5 20q-19 4 -45.5 20t-57.5 45.5t-52 82.5t-21 118v284q0 173 -180 173v294q261 0 389.5 -122.5t128.5 -350.5v-213q0 -51 15 -87t39 -53t47 -23.5t47 -6.5v-323q-24 0 -47 -6.5t-47 -23.5t-39 -53t-15 -87v-213 q0 -228 -128.5 -350.5t-389.5 -122.5v295z" />
<glyph horiz-adv-x="954" d="M23 -166l612 1757h297l-613 -1757h-296z" />
<glyph horiz-adv-x="954" d="M23 1591h296l613 -1757h-297z" />
<glyph horiz-adv-x="632" d="M113 1257q0 84 59 143.5t143 59.5q85 0 145 -60t60 -143q0 -85 -60 -144.5t-145 -59.5t-143.5 59.5t-58.5 144.5zM135 0l27 1001h309l27 -1001h-363z" />
<glyph horiz-adv-x="1003" d="M49 377q0 69 24.5 129t61 101t79.5 82.5t79.5 74t61 74t24.5 84.5v79h332v-102q0 -76 -32.5 -141t-78.5 -109t-92 -82.5t-78.5 -81t-32.5 -86.5q0 -52 34.5 -87.5t100.5 -35.5q35 0 62 11t45 32.5t27 36t20 37.5l268 -121q-13 -40 -33 -76.5t-56.5 -78.5t-83.5 -72.5 t-117.5 -51t-153.5 -20.5q-202 0 -331.5 112t-129.5 292zM342 1257q0 83 60 143t145 60q84 0 143.5 -59.5t59.5 -143.5q0 -85 -59 -144.5t-144 -59.5t-145 59.5t-60 144.5z" />
<glyph horiz-adv-x="534" d="M63 721q0 85 59 145t144 60t145 -60t60 -145q0 -83 -60 -143t-145 -60q-84 0 -143.5 59.5t-59.5 143.5z" />
<glyph horiz-adv-x="831" d="M63 725q0 148 101 250t252 102t251.5 -102t100.5 -250t-100.5 -250t-251.5 -102t-252 102t-101 250z" />
<glyph horiz-adv-x="1232" d="M106 717q0 379 121.5 561t388.5 182t388.5 -182t121.5 -561t-122 -561.5t-388 -182.5t-388 182.5t-122 561.5zM461 717q0 -114 6.5 -187.5t23.5 -127.5t47.5 -77.5t77.5 -23.5q92 0 124 94.5t32 321.5t-32 321.5t-124 94.5q-47 0 -77.5 -23.5t-47.5 -77.5t-23.5 -127.5 t-6.5 -187.5z" />
<glyph horiz-adv-x="1232" d="M117 1239l442 195h287v-1129h270v-305h-969v305h353v787l-258 -119z" />
<glyph horiz-adv-x="1232" d="M121 1087q12 51 33.5 99t61.5 99t92 89t130.5 62t171.5 24q216 0 352 -118.5t136 -323.5q0 -74 -26.5 -143.5t-70.5 -124.5t-97.5 -105.5t-110 -94.5t-105.5 -83.5t-87 -81.5t-52 -80h563v-305h-981v125q0 84 33.5 167t87.5 151t119 133t130 122.5t119 109t87.5 102.5 t33.5 94q0 64 -39 99.5t-106 35.5q-126 0 -172 -142z" />
<glyph horiz-adv-x="1232" d="M119 346l303 90q20 -63 65.5 -102t112.5 -39q72 0 115 42t43 112q0 63 -44 105t-124 42h-199v268l256 264h-469v306h871v-304l-261 -247q324 -67 324 -420q0 -218 -142 -354t-362 -136q-93 0 -171.5 24t-130.5 62t-92 89t-61.5 99t-33.5 99z" />
<glyph horiz-adv-x="1232" d="M51 319v248l557 867h412v-820h160v-295h-160v-319h-342v319h-627zM408 614h270v445z" />
<glyph horiz-adv-x="1232" d="M109 346l303 90q17 -66 65.5 -103.5t118.5 -37.5q73 0 122.5 50t49.5 130q0 70 -47 125t-141 55q-50 0 -86.5 -20.5t-53.5 -44.5l-286 45l28 799h848v-306h-536l-11 -215q79 37 185 37q87 0 168.5 -31t145 -87t102 -141.5t38.5 -186.5q0 -232 -144.5 -381.5 t-363.5 -149.5q-93 0 -173 24t-134.5 62t-96.5 88.5t-65.5 99.5t-35.5 99z" />
<glyph horiz-adv-x="1232" d="M106 637q0 130 17 243.5t60.5 222.5t111 186t176 124t248.5 47q197 0 344 -90l-133 -285q-84 48 -187 48q-63 0 -112.5 -18t-76.5 -44t-44.5 -59t-23 -57.5t-5.5 -45.5q82 60 224 60q187 0 304 -124.5t117 -357.5q0 -226 -138 -370t-359 -144q-120 0 -211 31.5 t-149.5 87.5t-95.5 141t-52 182.5t-15 221.5zM461 586q0 -43 1.5 -72.5t7 -66t17 -60t29.5 -45t47 -31.5t68 -10q74 0 112.5 46.5t38.5 127.5q0 82 -41.5 132t-117.5 50q-88 0 -162 -71z" />
<glyph horiz-adv-x="1232" d="M117 1128v306h999v-246l-471 -1188h-379l461 1128h-610z" />
<glyph horiz-adv-x="1232" d="M96 432q0 111 50 197t124 131q-58 42 -98.5 115t-40.5 167q0 182 132 300t353 118t353.5 -117.5t132.5 -300.5q0 -94 -41 -167.5t-100 -114.5q77 -46 126.5 -131t49.5 -197q0 -210 -142.5 -334.5t-380.5 -124.5q-239 0 -378.5 123.5t-139.5 335.5zM453 438 q0 -66 42.5 -106.5t120.5 -40.5q79 0 121.5 40t42.5 107q0 64 -43.5 107t-120.5 43q-75 0 -119 -43t-44 -107zM477 1020q0 -61 37.5 -95t101.5 -34t102 34t38 95q0 56 -37 91.5t-103 35.5q-67 0 -103 -35.5t-36 -91.5z" />
<glyph horiz-adv-x="1232" d="M106 946q0 226 138.5 370t359.5 144q120 0 210.5 -31.5t149.5 -87.5t95.5 -140.5t51.5 -182t15 -221.5q0 -92 -8.5 -175t-28.5 -167t-51.5 -154.5t-80 -132t-110.5 -104t-147 -67t-186 -24.5q-197 0 -344 90l133 285q82 -47 186 -47q63 0 112.5 18t77 44t45 58.5t23 57 t5.5 45.5q-81 -59 -224 -59q-90 0 -166.5 30.5t-133.5 89t-89.5 151t-32.5 210.5zM451 958q0 -82 41.5 -132t117.5 -50q87 0 162 72q0 43 -1.5 72.5t-7 66t-17 60t-29.5 45t-47 31.5t-68 10q-74 0 -112.5 -47t-38.5 -128z" />
</font>
</defs>
</svg>
