<?xml version="1.0" standalone="no"?>
<!DOCTYPE svg PUBLIC "-//W3C//DTD SVG 1.1//EN" "http://www.w3.org/Graphics/SVG/1.1/DTD/svg11.dtd" >
<svg xmlns="http://www.w3.org/2000/svg">
<metadata></metadata>
<defs>
<font id="geomanistitalic" horiz-adv-x="538" >
<font-face units-per-em="2048" ascent="1536" descent="-512" />
<missing-glyph horiz-adv-x="401" />
<glyph unicode="&#x2e;&#x2e;&#x2e;" horiz-adv-x="1673" d="M90 150q0 93 72.5 162t167.5 69q76 0 125 -51t49 -127q0 -91 -74.5 -160.5t-167.5 -69.5q-75 0 -123.5 51t-48.5 126zM659 150q0 93 72.5 162t167.5 69q76 0 125 -51t49 -127q0 -91 -74.5 -160.5t-167.5 -69.5q-75 0 -123.5 51t-48.5 126zM1229 150q0 93 72.5 162 t166.5 69q75 0 124.5 -51.5t49.5 -126.5q0 -91 -74 -160.5t-167 -69.5q-75 0 -123.5 51t-48.5 126z" />
<glyph unicode="&#xd;" horiz-adv-x="401" />
<glyph unicode=" "  horiz-adv-x="401" />
<glyph unicode="&#x09;" horiz-adv-x="401" />
<glyph unicode="&#xa0;" horiz-adv-x="401" />
<glyph unicode="!" horiz-adv-x="632" d="M139 150q0 93 72.5 162t167.5 69q75 0 124.5 -51.5t49.5 -126.5q0 -91 -74.5 -160.5t-167.5 -69.5q-75 0 -123.5 51t-48.5 126zM233 432l142 1002h362l-194 -1002h-310z" />
<glyph unicode="&#x22;" horiz-adv-x="833" d="M246 907l78 527h272l-98 -527h-252zM641 907l78 527h272l-98 -527h-252z" />
<glyph unicode="#" horiz-adv-x="1361" d="M109 350l94 254h182l82 223h-180l94 254h182l133 353h283l-133 -353h192l133 353h283l-133 -353h174l-94 -254h-176l-82 -223h174l-94 -254h-176l-132 -350h-282l131 350h-193l-131 -350h-282l131 350h-180zM668 604h192l82 223h-192z" />
<glyph unicode="$" horiz-adv-x="1083" d="M88 315l318 146q20 -68 69.5 -114t118.5 -46q67 0 106 31t39 82q0 33 -27.5 63.5t-71 56.5t-97 54.5t-106.5 65t-96.5 81t-71 109.5t-27.5 143q0 185 124.5 315.5t329.5 153.5l19 113h203l-21 -123q74 -18 133.5 -57.5t93.5 -87.5t52.5 -91t25.5 -82l-303 -133 q-41 142 -170 142q-55 0 -92 -31.5t-37 -77.5q0 -34 27.5 -64.5t72 -57t98 -54.5t107 -63.5t98 -78t72 -105.5t27.5 -138q0 -189 -119 -322.5t-330 -162.5l-26 -158h-203l27 158q-71 11 -131.5 40.5t-100 65.5t-68.5 79t-43.5 79.5t-19.5 68.5z" />
<glyph unicode="%" horiz-adv-x="1695" d="M139 0l1321 1434h336l-1321 -1434h-336zM225 1055q0 109 58 202.5t156 148t212 54.5q142 0 229 -86.5t87 -218.5q0 -166 -126.5 -283.5t-303.5 -117.5q-140 0 -226 85t-86 216zM483 1090q0 -42 25.5 -69.5t66.5 -27.5q57 0 95.5 38.5t38.5 92.5q0 40 -26.5 67.5 t-68.5 27.5q-56 0 -93.5 -38.5t-37.5 -90.5zM967 274q0 165 127 285.5t301 120.5q142 0 227.5 -86.5t85.5 -218.5q0 -166 -126.5 -284t-303.5 -118q-140 0 -225.5 85t-85.5 216zM1225 309q0 -42 25.5 -69t66.5 -27q59 0 97 38.5t38 92.5q0 41 -26.5 67.5t-69.5 26.5 q-56 0 -93.5 -38.5t-37.5 -90.5z" />
<glyph unicode="&#x26;" horiz-adv-x="1370" d="M109 371q0 148 76 256t233 200q-62 100 -62 209q0 180 141 302t357 122q183 0 282 -90t99 -235q0 -256 -303 -433l125 -143q32 51 43 129h317q-37 -216 -172 -377l115 -151l-262 -213l-115 147q-172 -121 -395 -121q-227 0 -353 111.5t-126 286.5zM463 434 q0 -70 51.5 -111.5t124.5 -41.5q49 0 94 15.5t68 37.5l-219 272q-58 -30 -88.5 -75.5t-30.5 -96.5zM668 1047q0 -77 96 -166q78 48 120 97t42 107q0 45 -29.5 74t-81.5 29q-60 0 -103.5 -41.5t-43.5 -99.5z" />
<glyph unicode="'" horiz-adv-x="440" d="M246 907l78 527h272l-98 -527h-252z" />
<glyph unicode="(" horiz-adv-x="716" d="M92 115l180 1089q38 228 187 350.5t411 122.5l-49 -295q-179 0 -209 -172l-184 -1101q-30 -172 152 -172l-50 -295q-262 0 -369.5 122t-68.5 351z" />
<glyph unicode=")" horiz-adv-x="716" d="M68 -358l49 295q183 0 209 172l184 1101q30 172 -152 172l50 295q261 0 369.5 -122.5t70.5 -350.5l-182 -1089q-38 -229 -187 -351t-411 -122z" />
<glyph unicode="*" horiz-adv-x="894" d="M221 969l176 88l-147 88l145 190l148 -88l30 187h226l-31 -187l176 88l78 -190l-174 -88l147 -86l-145 -193l-145 90l-33 -188h-226l33 188l-178 -90z" />
<glyph unicode="+" horiz-adv-x="1128" d="M156 504l45 270h350l63 373h285l-63 -373h350l-45 -270h-350l-64 -375h-285l64 375h-350z" />
<glyph unicode="," horiz-adv-x="534" d="M39 -199q50 28 104 77t78 99q-63 14 -97 63t-34 110q0 93 73.5 162t166.5 69q78 0 127 -47.5t49 -134.5q0 -147 -97.5 -298t-252.5 -247z" />
<glyph unicode="-" horiz-adv-x="788" d="M176 473l51 307h594l-51 -307h-594z" />
<glyph unicode="." horiz-adv-x="534" d="M90 150q0 93 72.5 162t167.5 69q76 0 125 -51t49 -127q0 -91 -74.5 -160.5t-167.5 -69.5q-75 0 -123.5 51t-48.5 126z" />
<glyph unicode="/" horiz-adv-x="954" d="M-18 -221l907 1757h305l-907 -1757h-305z" />
<glyph unicode="0" horiz-adv-x="1202" d="M213 717q59 378 209.5 560.5t417.5 182.5t359.5 -182t33.5 -561q-61 -379 -212 -561.5t-417 -182.5q-267 0 -359.5 182.5t-31.5 561.5zM542.5 529q-5.5 -74 3 -127.5t35.5 -77t74 -23.5q92 0 139.5 94.5t84.5 321.5q37 217 19 316.5t-110 99.5t-139 -94.5t-82 -321.5 q-19 -114 -24.5 -188z" />
<glyph unicode="1" horiz-adv-x="729" d="M240 1339l309 95h287l-240 -1434h-346l182 1092l-145 -43z" />
<glyph unicode="2" horiz-adv-x="1140" d="M84 0l22 131q14 86 63.5 171t117.5 153.5t146.5 134.5t154.5 123.5t138 110t100 104.5t38 98q0 50 -34.5 81.5t-92.5 31.5q-123 0 -194 -142l-289 90q21 52 49 99.5t75.5 99t104 88.5t138 61.5t174.5 24.5q188 0 311 -103.5t123 -269.5q0 -86 -31.5 -164.5t-84 -139.5 t-117 -115.5t-133.5 -102t-129.5 -89.5t-110 -86.5t-70.5 -84.5h563l-51 -305h-981z" />
<glyph unicode="3" horiz-adv-x="1124" d="M125 346l315 90q10 -62 50.5 -101.5t107.5 -39.5q82 0 133 49t51 127q0 55 -38 90t-115 35h-191l45 268l301 264h-469l52 306h870l-51 -304l-301 -247q262 -58 262 -334q0 -255 -166.5 -415.5t-427.5 -160.5q-89 0 -162.5 24t-120 62t-79.5 88.5t-48 99.5t-18 99z" />
<glyph unicode="4" horiz-adv-x="1232" d="M104 319l41 248l703 867h412l-138 -820h160l-49 -295h-160l-53 -319h-342l53 319h-627zM510 614h270l74 445z" />
<glyph unicode="5" horiz-adv-x="1128" d="M125 346l317 90q6 -66 49 -103.5t113 -37.5q84 0 144.5 59t60.5 148q0 62 -39.5 107.5t-122.5 45.5q-89 0 -149 -65l-279 45l162 799h848l-51 -306h-537l-47 -215q86 37 190 37q163 0 275 -104t112 -277q0 -123 -48.5 -234t-130 -190t-192.5 -125.5t-231 -46.5 q-93 0 -169 24t-124.5 62t-82.5 88.5t-49.5 99.5t-18.5 99z" />
<glyph unicode="6" horiz-adv-x="1167" d="M158 446q0 84 8.5 169.5t31.5 187.5t59 192.5t96 177.5t137.5 149t189 100t244.5 38q200 0 336 -90l-177 -285q-84 48 -180 48q-63 0 -117 -19t-87.5 -46.5t-59 -61.5t-36.5 -60.5t-15 -46.5q106 70 246 70q159 0 255.5 -99t96.5 -284q0 -130 -46 -244t-125.5 -195 t-190 -127.5t-234.5 -46.5q-118 0 -203 34t-134.5 98t-72 148t-22.5 193zM509 447q-1 -36 7 -59.5t22.5 -44.5t42 -31.5t66.5 -10.5q89 0 136.5 59t47.5 152q0 67 -33.5 106t-99.5 39q-87 0 -174 -71q-7 -43 -10.5 -73t-4.5 -66z" />
<glyph unicode="7" horiz-adv-x="1073" d="M193 0l628 1128h-585l51 306h979l-41 -246l-650 -1188h-382z" />
<glyph unicode="8" horiz-adv-x="1171" d="M129 358q0 141 69 244.5t169 157.5q-42 34 -70.5 95t-28.5 138q0 95 41 180t113.5 148.5t178.5 101t228 37.5q197 0 309.5 -99.5t112.5 -258.5q0 -116 -57 -203.5t-137 -138.5q57 -39 92 -108.5t35 -159.5q0 -229 -169.5 -374t-436.5 -145q-212 0 -330.5 102.5 t-118.5 282.5zM492 414q0 -56 36.5 -89.5t104.5 -33.5q90 0 140 48t50 122q0 55 -35.5 91t-103.5 36q-85 0 -138.5 -50.5t-53.5 -123.5zM614 997q0 -51 31.5 -78.5t87.5 -27.5q72 0 118 40.5t46 108.5q0 46 -31.5 76.5t-89.5 30.5q-75 0 -118.5 -43t-43.5 -107z" />
<glyph unicode="9" horiz-adv-x="1167" d="M147 63l177 285q82 -47 180 -47q63 0 117 19t87.5 46.5t59 61.5t36.5 60.5t15 46.5q-106 -70 -246 -70q-159 0 -255.5 99t-96.5 284q0 173 78.5 313.5t215 219.5t302.5 79q118 0 203 -34t134.5 -98t72 -148t22.5 -193q0 -84 -8.5 -169.5t-31.5 -187.5t-59 -192.5 t-96 -177.5t-137.5 -149t-189 -100t-244.5 -38q-200 0 -336 90zM575 922q0 -67 34 -106.5t100 -39.5q86 0 174 72q7 43 10.5 73t4.5 66t-7 59.5t-22.5 44.5t-42 31.5t-66.5 10.5q-89 0 -137 -59t-48 -152z" />
<glyph unicode=":" horiz-adv-x="534" d="M90 150q0 93 72.5 162t167.5 69q76 0 125 -51t49 -127q0 -91 -74.5 -160.5t-167.5 -69.5q-75 0 -123.5 51t-48.5 126zM207 844q0 93 72.5 162t166.5 69q74 0 123 -51t49 -127q0 -91 -73 -160t-166 -69q-75 0 -123.5 50.5t-48.5 125.5z" />
<glyph unicode=";" horiz-adv-x="534" d="M39 -199q50 28 104 77t78 99q-63 14 -97 63t-34 110q0 93 73.5 162t166.5 69q78 0 127 -47.5t49 -134.5q0 -147 -97.5 -298t-252.5 -247zM207 844q0 93 72.5 162t166.5 69q75 0 125 -51.5t50 -126.5q0 -91 -74.5 -160t-167.5 -69q-75 0 -123.5 50.5t-48.5 125.5z" />
<glyph unicode="&#x3c;" horiz-adv-x="1056" d="M180 518l41 244l934 389l-51 -299l-588 -217l514 -217l-47 -289z" />
<glyph unicode="=" horiz-adv-x="1128" d="M121 289l45 270h985l-45 -270h-985zM190 700l46 271h985l-45 -271h-986z" />
<glyph unicode="&#x3e;" horiz-adv-x="1056" d="M117 129l49 301l588 217l-514 217l49 287l803 -389l-41 -244z" />
<glyph unicode="?" horiz-adv-x="1003" d="M238 1161q20 40 45.5 76.5t68.5 79t94 72.5t124.5 50.5t156.5 20.5q181 0 295.5 -97t114.5 -249q0 -70 -21.5 -130t-57 -104t-78.5 -82.5t-87.5 -72t-82.5 -65.5t-65 -70t-34 -78l-15 -80h-329l16 103q10 59 37 110.5t63 88.5t77 70.5t80 62t71 57t51.5 61t19.5 68.5 q0 45 -29 74.5t-87 29.5q-28 0 -53.5 -9t-41.5 -19t-34 -30t-24.5 -29.5t-20.5 -29.5zM281 150q0 93 72.5 162t166.5 69q75 0 124.5 -51.5t49.5 -126.5q0 -91 -74 -160.5t-167 -69.5q-74 0 -123 51.5t-49 125.5z" />
<glyph unicode="@" horiz-adv-x="1867" d="M145 406q0 210 83.5 394.5t223.5 311t327.5 199.5t391.5 73q344 0 545 -176t201 -458q0 -272 -138 -446.5t-354 -174.5q-84 0 -140.5 34.5t-80.5 94.5q-22 -26 -52.5 -51.5t-95.5 -52.5t-136 -27q-152 0 -237 92t-85 242q0 199 130 336t316 137q110 0 183 -64l8 52h250 l-78 -467q-9 -57 8 -84t66 -27q84 0 138 109t54 272q0 219 -137 331.5t-391 112.5q-212 0 -383 -98t-266 -265.5t-95 -369.5q0 -238 149 -377t413 -139q206 0 407 107l82 -177q-232 -147 -524 -147q-361 0 -572 193t-211 510zM870 502q0 -63 34 -102.5t91 -39.5q75 0 130 56 t55 143q0 60 -34 100.5t-93 40.5q-74 0 -128.5 -57t-54.5 -141z" />
<glyph unicode="A" horiz-adv-x="1384" d="M12 0l736 1434h368l256 -1434h-352l-49 322h-451l-155 -322h-353zM659 608h271l-60 455z" />
<glyph unicode="B" horiz-adv-x="1202" d="M127 0l240 1434h512q195 0 301 -84t106 -238q0 -115 -58.5 -212.5t-154.5 -147.5q154 -69 154 -260q0 -119 -46 -214.5t-125.5 -155t-181.5 -91t-219 -31.5h-528zM526 301h170q76 0 123 50.5t47 123.5q0 55 -30.5 87t-87.5 32h-173zM621 874h149q68 0 109 45t41 113 q0 47 -27.5 75t-81.5 28h-145z" />
<glyph unicode="C" horiz-adv-x="1290" d="M164 602q0 176 70.5 335t190 273.5t285 182t349.5 67.5q238 0 397 -121l-149 -307q-135 101 -291 101q-143 0 -255.5 -68.5t-170.5 -178t-58 -235.5q0 -150 90 -250t255 -100q164 0 329 100l47 -307q-199 -121 -444 -121q-151 0 -273.5 48t-203.5 132.5t-124.5 199.5 t-43.5 249z" />
<glyph unicode="D" horiz-adv-x="1359" d="M127 0l240 1434h421q306 0 478 -157.5t172 -436.5q0 -252 -112.5 -443.5t-314 -294t-462.5 -102.5h-422zM528 303h72q211 0 340 131t129 367q0 160 -88 244.5t-244 84.5h-71z" />
<glyph unicode="E" horiz-adv-x="993" d="M127 0l240 1434h763l-51 -314h-413l-41 -239h352l-51 -312h-353l-43 -256h431l-54 -313h-780z" />
<glyph unicode="F" horiz-adv-x="966" d="M127 0l240 1434h757l-51 -314h-407l-45 -262h356l-51 -311h-357l-92 -547h-350z" />
<glyph unicode="G" horiz-adv-x="1542" d="M166 602q0 173 69 331.5t187 274t283 184t348 68.5q97 0 180.5 -17.5t139.5 -43.5t102.5 -62t72 -65.5t45.5 -61.5l-260 -229q-11 19 -33.5 42t-61 50.5t-98 45.5t-126.5 18q-213 0 -346 -139.5t-133 -344.5q0 -164 93 -260t244 -96q117 0 203 30t119 58l20 127h-247 l49 293h573l-102 -606q-74 -51 -136 -86t-147.5 -70t-188 -52.5t-220.5 -17.5q-134 0 -250 44.5t-199.5 124.5t-131.5 199t-48 261z" />
<glyph unicode="H" horiz-adv-x="1466" d="M127 0l240 1434h350l-92 -557h512l92 557h350l-240 -1434h-350l94 561h-512l-94 -561h-350z" />
<glyph unicode="I" horiz-adv-x="604" d="M127 0l240 1434h350l-240 -1434h-350z" />
<glyph unicode="J" horiz-adv-x="796" d="M41 10l92 309q55 -10 109 -10q64 0 102.5 36t48.5 93l166 996h352l-178 -1061q-18 -105 -65.5 -181.5t-117 -120t-148 -63.5t-169.5 -20q-102 0 -192 22z" />
<glyph unicode="K" horiz-adv-x="1310" d="M127 0l240 1434h350l-92 -553l510 553h391l-652 -705l422 -729h-401l-322 578l-96 -578h-350z" />
<glyph unicode="L" horiz-adv-x="937" d="M127 0l240 1434h350l-187 -1121h431l-54 -313h-780z" />
<glyph unicode="M" horiz-adv-x="1869" d="M123 0l239 1434h455l205 -908l510 908h455l-240 -1434h-336l158 940l-453 -823h-321l-179 823l-157 -940h-336z" />
<glyph unicode="N" horiz-adv-x="1470" d="M123 0l239 1434h357l377 -889l147 889h344l-239 -1434h-349l-385 879l-147 -879h-344z" />
<glyph unicode="O" horiz-adv-x="1613" d="M164 604q0 174 68 331.5t185 273t282.5 183.5t351.5 68q196 0 343 -83.5t222.5 -225t75.5 -320.5q0 -174 -68 -332t-185.5 -274t-283 -184t-352.5 -68q-196 0 -342.5 83t-221.5 225t-75 323zM532 649q0 -154 88.5 -251t237.5 -97q193 0 328 141t135 344q0 152 -88 249.5 t-236 97.5q-128 0 -235 -64.5t-168.5 -176t-61.5 -243.5z" />
<glyph unicode="P" horiz-adv-x="1144" d="M127 0l240 1434h516q188 0 291.5 -101.5t103.5 -277.5q0 -119 -41.5 -222t-114.5 -175.5t-174.5 -114t-218.5 -41.5h-168l-84 -502h-350zM612 803h115q87 0 136.5 56t49.5 142q0 60 -33.5 96t-93.5 36h-118z" />
<glyph unicode="Q" horiz-adv-x="1613" d="M164 604q0 174 68 331.5t185 273t282.5 183.5t351.5 68q196 0 343 -83.5t222.5 -225t75.5 -320.5q0 -304 -193 -538l100 -100l-233 -226l-119 117q-205 -111 -444 -111q-196 0 -342.5 83t-221.5 225t-75 323zM532 649q0 -154 88.5 -251t237.5 -97q83 0 162 29l-105 106 l238 221l109 -110q59 112 59 239q0 152 -88 249.5t-236 97.5q-128 0 -235 -64.5t-168.5 -176t-61.5 -243.5z" />
<glyph unicode="R" horiz-adv-x="1239" d="M127 0l240 1434h467q219 0 328.5 -91.5t109.5 -265.5q0 -148 -73 -273.5t-200 -189.5l195 -525q16 -43 33 -89h-387l-168 530h-107l-88 -530h-350zM614 823h105q84 0 135 52t51 139q0 119 -149 119h-88z" />
<glyph unicode="S" horiz-adv-x="1083" d="M88 315l318 146q20 -68 69.5 -114t118.5 -46q67 0 106 31t39 82q0 33 -27.5 63.5t-71 56.5t-97 54.5t-106.5 65t-96.5 81t-71 109.5t-27.5 143q0 99 38.5 186t106.5 150.5t168 100t217 36.5q88 0 160.5 -24.5t118.5 -60.5t80 -83t49.5 -87t21.5 -77l-303 -133 q-41 142 -170 142q-55 0 -92 -31.5t-37 -77.5q0 -34 27.5 -64.5t72 -57t98 -54.5t107 -63.5t98 -78t72 -105.5t27.5 -138q0 -103 -37.5 -193t-107 -157t-175.5 -105.5t-235 -38.5q-92 0 -169.5 25.5t-126.5 63.5t-86 86t-54 89t-23 78z" />
<glyph unicode="T" horiz-adv-x="1046" d="M227 1120l54 314h968l-53 -314h-309l-189 -1120h-350l189 1120h-310z" />
<glyph unicode="U" horiz-adv-x="1441" d="M215 551l147 883h351l-148 -883q-5 -31 -5 -59q0 -76 40 -126q55 -68 172 -67q118 0 193.5 67.5t95.5 186.5l147 881h351l-148 -881q-42 -257 -228.5 -417.5t-465.5 -160.5q-283 0 -415 157q-99 118 -98 294q0 59 11 125z" />
<glyph unicode="V" horiz-adv-x="1437" d="M250 1434h385l153 -1020l494 1020h385l-758 -1434h-381z" />
<glyph unicode="W" horiz-adv-x="2035" d="M256 1434h375l49 -1010l420 1010h315l84 -1010l385 1010h375l-612 -1434h-398l-82 901l-381 -901h-397z" />
<glyph unicode="X" horiz-adv-x="1343" d="M8 0l576 723l-330 711h408l167 -439l316 439h416l-568 -711l334 -723h-383l-192 461l-349 -461h-395z" />
<glyph unicode="Y" horiz-adv-x="1249" d="M252 1434h389l141 -469l303 469h392l-570 -787l-108 -647h-348l108 647z" />
<glyph unicode="Z" horiz-adv-x="1245" d="M63 0l37 223l787 901h-619l51 310h1090l-37 -222l-792 -903h647l-51 -309h-1113z" />
<glyph unicode="[" horiz-adv-x="716" d="M12 -358l340 2035h518l-49 -295h-180l-242 -1445h181l-50 -295h-518z" />
<glyph unicode="\" horiz-adv-x="954" d="M279 1536h303l317 -1757h-303z" />
<glyph unicode="]" horiz-adv-x="716" d="M68 -358l49 295h180l242 1445h-181l50 295h518l-340 -2035h-518z" />
<glyph unicode="^" horiz-adv-x="1177" d="M182 651l508 783h277l243 -783h-311l-123 459l-274 -459h-320z" />
<glyph unicode="_" horiz-adv-x="1265" d="M-12 -324l45 265h1184l-46 -265h-1183z" />
<glyph unicode="`" horiz-adv-x="983" d="M498 1485h352l86 -297h-262z" />
<glyph unicode="a" horiz-adv-x="1093" d="M90 281q0 181 135 295t348 114q116 0 201 -39l6 39q1 10 1 18q-1 40 -29 66q-36 32 -115 33q-124 0 -277 -68l-104 230q222 133 471 133q100 0 175.5 -21.5t121 -61t72.5 -93.5q28 -54 30 -120v-27q0 -54 -8 -113l-110 -666h-306l-8 59q-103 -86 -258 -86 q-149 0 -247.5 82t-98.5 226zM440 332q0 -45 35.5 -70.5t91.5 -25.5q71 0 117.5 33.5t46.5 92.5q0 46 -35 72.5t-92 26.5q-69 0 -116.5 -36t-47.5 -93z" />
<glyph unicode="b" horiz-adv-x="1280" d="M98 0l248 1481h342l-82 -488q34 34 116 71.5t189 37.5q199 0 311.5 -126.5t112.5 -334.5q0 -189 -84 -342.5t-228.5 -239.5t-317.5 -86q-104 0 -175 36.5t-98 74.5l-14 -84h-320zM514 487q0 -93 50.5 -154t142.5 -61q120 0 200 87.5t80 224.5q0 98 -51 157.5t-141 59.5 q-120 0 -200.5 -86t-80.5 -228z" />
<glyph unicode="c" horiz-adv-x="980" d="M123 451q0 183 92 333t247 234t339 84q97 0 178.5 -28.5t132.5 -69.5l-141 -289q-83 80 -203 80q-133 0 -216 -87t-83 -212q0 -100 60.5 -161t164.5 -61q112 0 215 76l43 -280q-158 -97 -331 -97q-225 0 -361.5 132.5t-136.5 345.5z" />
<glyph unicode="d" horiz-adv-x="1280" d="M125 442q0 184 77.5 334.5t218 238t316.5 87.5q107 0 176.5 -37.5t92.5 -71.5l81 488h343l-248 -1481h-320l15 84q-40 -38 -123 -74.5t-187 -36.5q-202 0 -322 130t-120 339zM471 485q0 -97 52 -155t141 -58q124 0 202 93t78 223q0 100 -51.5 156.5t-140.5 56.5 q-120 0 -200.5 -90.5t-80.5 -225.5z" />
<glyph unicode="e" horiz-adv-x="1140" d="M125 446q0 130 49.5 250.5t133.5 209.5t202 142.5t248 53.5q216 0 330 -121.5t114 -339.5q0 -84 -26 -192h-705q-1 -7 -1 -14q0 -65 50 -113q55 -52 148 -52q84 0 148 38.5t95 76.5l197 -174q-14 -22 -40 -49t-72 -61.5t-100 -62t-129.5 -46.5t-154.5 -19 q-153 0 -264.5 62.5t-167 168.5t-55.5 242zM516 666h348q1 11 1 22q0 53 -32 91q-39 46 -116 46q-79 0 -131.5 -47.5t-69.5 -111.5z" />
<glyph unicode="f" horiz-adv-x="700" d="M154 0l133 799h-113l47 276h111l6 31q19 102 66.5 177t114.5 118t143.5 63.5t164.5 20.5q27 0 105 -4l-47 -287q-24 4 -56 4q-134 0 -149 -100l-4 -23h168l-47 -276h-168l-133 -799h-342z" />
<glyph unicode="g" horiz-adv-x="1269" d="M123 434q0 189 85 342.5t229.5 239.5t316.5 86q104 0 174.5 -36.5t97.5 -74.5l14 84h320l-158 -946q-19 -116 -66 -206.5t-111 -149t-147.5 -96.5t-171.5 -54t-188 -16q-108 0 -209 26t-172 66l144 262q135 -65 286 -65q253 0 281 159l4 27q-34 -34 -116 -71.5 t-189 -37.5q-199 0 -311.5 126.5t-112.5 334.5zM471 492q0 -98 51.5 -158t141.5 -60q120 0 200 86t80 226q0 94 -51 154.5t-143 60.5q-121 0 -200 -86t-79 -223z" />
<glyph unicode="h" horiz-adv-x="1165" d="M98 0l248 1481h342l-86 -516q45 55 120.5 96t168.5 41q70 0 123.5 -17t87 -44.5t54.5 -69t29.5 -83.5t8.5 -96t-4.5 -98.5t-13.5 -97.5l-101 -596h-342l107 641q3 20 3 37q0 46 -23 76q-32 40 -95 41q-69 0 -118 -44t-60 -110l-107 -641h-342z" />
<glyph unicode="i" d="M98 0l181 1075h342l-181 -1075h-342zM295 1298q0 89 66 151t157 62q74 0 120 -44.5t46 -114.5q0 -88 -67.5 -149.5t-159.5 -61.5q-72 0 -117 44t-45 113z" />
<glyph unicode="j" d="M-152 -387l50 289q24 -4 47 -4q138 0 155 114l179 1063h339l-180 -1079q-18 -105 -64.5 -182t-116 -121.5t-152.5 -65t-183 -20.5zM295 1298q0 90 65.5 151.5t157.5 61.5q73 0 118.5 -44t45.5 -115q0 -88 -66.5 -149.5t-158.5 -61.5q-73 0 -117.5 43.5t-44.5 113.5z" />
<glyph unicode="k" horiz-adv-x="1144" d="M98 0l248 1481h342l-139 -838l354 432h391l-430 -504l277 -571h-381l-236 502l-84 -502h-342z" />
<glyph unicode="l" d="M98 0l248 1481h342l-248 -1481h-342z" />
<glyph unicode="m" horiz-adv-x="1736" d="M98 0l181 1075h333l-18 -110q40 57 115 97t174 40q188 0 254 -141q134 141 329 141q180 0 254 -105q53 -75 54 -186q0 -45 -9 -96l-118 -715h-342l106 641q4 22 4 41q1 44 -19 72q-28 41 -89 41q-60 0 -103 -42.5t-55 -111.5l-107 -641h-342l107 641q4 23 4 42 q-1 43 -19 71q-26 40 -87 40.5t-103.5 -40t-54.5 -113.5l-107 -641h-342z" />
<glyph unicode="n" horiz-adv-x="1161" d="M98 0l181 1075h333l-18 -110q44 55 122 96t171 41q70 0 123.5 -17t86.5 -44.5t54 -69t29 -83.5q10 -42 10 -96q0 -5 -1 -10q0 -48 -4 -88q-5 -44 -14 -98l-100 -596h-342l107 641q3 20 3 37q0 46 -23 76q-32 40 -95 41q-69 0 -116 -43.5t-58 -110.5l-107 -641h-342z" />
<glyph unicode="o" horiz-adv-x="1259" d="M123 451q0 179 94.5 329.5t252.5 236t341 85.5q229 0 366.5 -133.5t137.5 -345.5q0 -179 -94 -329t-253 -235.5t-345 -85.5q-226 0 -363 134t-137 344zM469 489q0 -97 56 -156t147 -59q121 0 209 89.5t88 218.5q0 98 -58 158.5t-151 60.5q-121 0 -206 -90t-85 -222z" />
<glyph unicode="p" horiz-adv-x="1280" d="M35 -383l244 1458h319l-14 -84q40 38 122.5 74.5t186.5 36.5q202 0 322 -130t120 -339q0 -184 -77.5 -334.5t-218 -238t-316.5 -87.5q-107 0 -176 37.5t-92 71.5l-78 -465h-342zM516 487q0 -100 52 -156.5t141 -56.5q120 0 200 90.5t80 225.5q0 97 -51.5 155t-140.5 58 q-123 0 -202 -93t-79 -223z" />
<glyph unicode="q" horiz-adv-x="1280" d="M125 434q0 189 85 342.5t229.5 239.5t316.5 86q104 0 174.5 -36.5t97.5 -74.5l14 84h320l-244 -1458h-342l78 465q-34 -34 -116 -71.5t-189 -37.5q-199 0 -311.5 126.5t-112.5 334.5zM473 492q0 -98 51.5 -158t141.5 -60q120 0 200 86t80 228q0 94 -50 154.5t-142 60.5 q-120 0 -200.5 -87.5t-80.5 -223.5z" />
<glyph unicode="r" horiz-adv-x="755" d="M98 0l181 1075h333l-24 -143q54 80 134.5 125t178.5 45l-57 -348q-28 4 -56 4q-221 0 -268 -283l-80 -475h-342z" />
<glyph unicode="s" horiz-adv-x="909" d="M55 158l224 186q90 -94 219 -94q52 0 81 17t29 48q0 22 -23.5 40t-60.5 33t-82 32.5t-90 43t-82 58.5t-60.5 86t-23.5 119q0 168 130.5 271.5t326.5 103.5q137 0 231 -53.5t142 -130.5l-250 -175q-69 84 -164 84q-40 0 -64 -16.5t-24 -42.5q0 -24 23.5 -42.5t61.5 -33.5 t83.5 -31t91 -40t83.5 -55.5t61.5 -83t23.5 -117.5q0 -183 -137.5 -287.5t-347.5 -104.5q-140 0 -241 53.5t-161 131.5z" />
<glyph unicode="t" horiz-adv-x="720" d="M156 799l47 276h104l37 228h342l-37 -228h182l-47 -276h-182l-65 -396q-3 -15 -3 -29q0 -87 115 -87q35 0 58 2l-50 -293q-47 -12 -133 -12q-198 0 -282 102q-57 70 -57 202q0 60 12 132l63 379h-104z" />
<glyph unicode="u" horiz-adv-x="1153" d="M152 283q0 54 4.5 98.5t13.5 97.5l100 596h342l-106 -641q-3 -20 -3 -37q0 -47 23 -76q32 -40 95 -40q69 0 116 43.5t58 109.5l106 641h342l-180 -1075h-334l19 111q-45 -55 -122.5 -96.5t-170.5 -41.5q-70 0 -123.5 17t-87 44.5t-54.5 69t-29.5 83.5t-8.5 96z" />
<glyph unicode="v" horiz-adv-x="1142" d="M186 1075h361l84 -713l321 713h363l-543 -1075h-397z" />
<glyph unicode="w" horiz-adv-x="1708" d="M195 1075h372l29 -702l278 702h320l45 -702l262 702h373l-481 -1075h-385l-52 608l-256 -608h-385z" />
<glyph unicode="x" horiz-adv-x="1118" d="M4 0l457 553l-266 522h376l113 -289l211 289h389l-444 -538l274 -537h-366l-138 289l-223 -289h-383z" />
<glyph unicode="y" horiz-adv-x="1138" d="M193 1075h364l86 -618l303 618h359l-775 -1442h-323l213 402z" />
<glyph unicode="z" horiz-adv-x="964" d="M55 0l35 205l512 586h-403l47 284h837l-34 -207l-512 -583h417l-47 -285h-852z" />
<glyph unicode="{" horiz-adv-x="843" d="M135 498l53 323q24 0 48 6.5t51 23.5t48 53t30 87l36 213q39 229 187 351t409 122l-49 -295q-179 0 -209 -172l-47 -284q-11 -65 -41 -118t-66 -83t-65 -46t-49 -20q14 -3 32 -13t40.5 -30.5t37.5 -51t23 -73.5t-2 -98l-47 -284q-30 -172 152 -172l-50 -295 q-261 0 -368.5 122.5t-69.5 350.5l35 213q9 51 0.5 87t-30.5 53t-43.5 23.5t-45.5 6.5z" />
<glyph unicode="|" horiz-adv-x="608" d="M57 -512l375 2243h322l-375 -2243h-322z" />
<glyph unicode="}" horiz-adv-x="843" d="M68 -358l49 295q183 0 209 172l47 284q11 65 41 118t66 82.5t65 45.5t49 20q-14 3 -31.5 13t-40 31t-38 51t-23.5 73.5t2 98.5l47 284q30 172 -152 172l50 295q262 0 370.5 -122.5t69.5 -350.5l-37 -213q-9 -51 -0.5 -87t30.5 -53t43.5 -23.5t45.5 -6.5l-53 -323 q-24 0 -48 -6.5t-51 -23.5t-48 -53t-30 -87l-34 -213q-38 -228 -187 -350.5t-411 -122.5z" />
<glyph unicode="~" horiz-adv-x="1128" d="M129 424q28 180 135.5 289.5t255.5 109.5q58 0 118.5 -21.5t113 -43t92.5 -21.5q39 0 64.5 23.5t33.5 64.5h266q-28 -180 -135.5 -289.5t-255.5 -109.5q-68 0 -174.5 43t-148.5 43q-40 0 -66.5 -24t-32.5 -64h-266z" />
<glyph unicode="&#xa1;" horiz-adv-x="632" d="M82 -313l194 1001h310l-142 -1001h-362zM266 915q0 93 73.5 162.5t166.5 69.5q76 0 125 -51t49 -125q0 -93 -73.5 -162.5t-168.5 -69.5q-74 0 -123 51t-49 125z" />
<glyph unicode="&#xa2;" horiz-adv-x="980" d="M150 604q0 126 46 239t125 196.5t187 139t231 70.5l31 185h203l-33 -191q116 -22 199 -86l-142 -289q-83 80 -202 80q-133 0 -216 -87t-83 -212q0 -100 60.5 -160.5t164.5 -60.5q112 0 215 76l43 -281q-102 -66 -225 -88l-21 -135h-203l21 133q-185 28 -293 155.5 t-108 315.5z" />
<glyph unicode="&#xa3;" horiz-adv-x="1191" d="M68 0l51 305h110l45 270h-98l43 259h98l31 180q35 200 179.5 323t365.5 123q80 0 146.5 -22t108.5 -55t72 -77t43.5 -84t18.5 -79l-299 -121q-8 45 -39.5 80t-93.5 35t-105.5 -39.5t-54.5 -102.5l-26 -161h305l-43 -259h-305l-46 -270h601l-52 -305h-1056z" />
<glyph unicode="&#xa5;" horiz-adv-x="1249" d="M203 303l37 219h299l20 127h-299l37 219h176l-221 566h393l141 -469l304 469h387l-410 -566h176l-37 -219h-299l-20 -127h299l-37 -219h-299l-51 -303h-348l51 303h-299z" />
<glyph unicode="&#xa7;" horiz-adv-x="1081" d="M41 -135l303 125q14 -55 58.5 -98.5t111.5 -43.5q49 0 86 25.5t37 71.5q0 34 -23.5 61t-72.5 60l-215 143q-174 118 -174 287q0 210 223 319q-113 104 -113 244q0 191 141 316.5t369 125.5q85 0 158 -24.5t120 -61t83 -83t53.5 -86.5t25.5 -77l-303 -125 q-14 55 -58.5 98.5t-111.5 43.5q-49 0 -86 -28t-37 -75q0 -33 22 -56t75 -58l215 -144q172 -117 172 -286q0 -212 -221 -320q112 -108 112 -244q0 -191 -141 -316.5t-369 -125.5q-85 0 -158 24.5t-120 61t-83 83t-53.5 86.5t-25.5 77zM477 543q0 -45 37 -66l143 -84 q55 0 87 29.5t32 69.5q0 44 -37 65l-143 84q-55 0 -87 -29t-32 -69z" />
<glyph unicode="&#xa8;" horiz-adv-x="983" d="M348 1315q0 73 55 126.5t132 53.5q60 0 96.5 -39t36.5 -96q0 -72 -55.5 -126t-131.5 -54q-61 0 -97 38t-36 97zM760 1315q0 73 54.5 126.5t131.5 53.5q60 0 96.5 -39t36.5 -96q0 -72 -55 -126t-131 -54q-60 0 -96.5 38.5t-36.5 96.5z" />
<glyph unicode="&#xa9;" horiz-adv-x="1605" d="M174 604q0 116 31.5 227t88 204.5t137.5 173t176.5 134.5t207.5 86t229 31q186 0 329.5 -83.5t220.5 -227.5t77 -324q0 -173 -69.5 -331t-186.5 -272.5t-277.5 -182.5t-334.5 -68q-186 0 -330 83.5t-221.5 227.5t-77.5 322zM393 627q0 -204 118.5 -331.5t319.5 -127.5 q130 0 245.5 50t198.5 135.5t131 204t48 251.5q0 200 -118.5 327.5t-319.5 127.5q-130 0 -245.5 -50t-198.5 -135t-131 -203t-48 -249zM551 655q0 188 130 321.5t314 133.5q193 0 275 -162l-199 -139q-12 28 -39.5 50t-73.5 22q-66 0 -110.5 -57t-44.5 -142 q0 -58 26.5 -93.5t73.5 -35.5q80 0 137 72l152 -140q-133 -161 -328 -161q-143 0 -228 93.5t-85 237.5z" />
<glyph unicode="&#xaa;" horiz-adv-x="845" d="M203 844q0 137 101 222t261 85q85 0 152 -29l4 29q6 39 -22 63.5t-87 24.5q-99 0 -211 -51l-77 172q168 100 356 100q350 0 295 -327l-84 -498h-229l-9 43q-73 -64 -192 -64q-111 0 -184.5 61t-73.5 169zM463 883q0 -34 27 -53t69 -19q53 0 89 25t36 69q0 34 -27 54 t-69 20q-52 0 -88.5 -27t-36.5 -69z" />
<glyph unicode="&#xab;" horiz-adv-x="1067" d="M154 614l301 381h303l-309 -405l198 -373h-289zM575 614l302 381h303l-310 -405l199 -373h-289z" />
<glyph unicode="&#xad;" horiz-adv-x="788" d="M176 473l51 307h594l-51 -307h-594z" />
<glyph unicode="&#xae;" horiz-adv-x="925" d="M205 1026q0 133 66 246.5t181.5 180.5t254.5 67q174 0 276 -102.5t102 -258.5q0 -98 -38.5 -188t-105.5 -157.5t-162.5 -107.5t-203.5 -40q-169 0 -269.5 102t-100.5 258zM330 1040q0 -116 69.5 -189t192.5 -73q163 0 264.5 106t101.5 263q0 118 -69.5 188t-196.5 70 q-157 0 -259.5 -105t-102.5 -260zM436 874l76 443h201q64 0 98.5 -32.5t34.5 -88.5q0 -111 -92 -149l51 -173h-137l-37 148h-35l-27 -148h-133zM612 1126h47q19 0 33.5 14t14.5 34q0 15 -9.5 23.5t-23.5 8.5h-47z" />
<glyph unicode="&#xaf;" horiz-adv-x="905" d="M367 1210l41 244h575l-41 -244h-575z" />
<glyph unicode="&#xb0;" horiz-adv-x="798" d="M229 1067q0 105 56.5 195.5t152.5 144t207 53.5q134 0 216.5 -85t82.5 -212q0 -158 -122 -272.5t-292 -114.5q-134 0 -217.5 83t-83.5 208zM471 1100q0 -42 25 -69t71 -27q61 0 99.5 38.5t38.5 94.5q0 42 -25.5 69t-73.5 27q-61 0 -98 -39t-37 -94z" />
<glyph unicode="&#xb2;" horiz-adv-x="757" d="M168 616l18 105q11 62 49 116.5t86.5 91t102.5 71t99 60t74.5 54.5t29.5 57q0 25 -18.5 40.5t-47.5 15.5q-37 0 -66.5 -26.5t-43.5 -59.5l-201 71q12 29 31 58t50.5 62.5t69 58.5t91 42t112.5 17q122 0 205.5 -65t83.5 -171q0 -57 -24 -106.5t-60 -82.5t-82 -64t-87 -52 t-77 -44t-51 -42h328l-35 -207h-637z" />
<glyph unicode="&#xb3;" horiz-adv-x="749" d="M195 838l206 71q10 -36 34.5 -61t62.5 -25q39 0 63.5 23t24.5 59q0 28 -20.5 46t-59.5 18h-100l26 157l119 103h-254l35 205h571l-26 -160l-195 -160q73 -8 116.5 -60t43.5 -134q0 -100 -53 -174.5t-136 -110t-182 -35.5q-69 0 -122.5 23.5t-84 62t-47 76t-22.5 76.5z " />
<glyph unicode="&#xb4;" horiz-adv-x="983" d="M444 1188l185 297h354l-254 -297h-285z" />
<glyph unicode="&#xb6;" horiz-adv-x="1159" d="M238 989q0 122 63 225t169.5 161.5t231.5 58.5h252l-256 -1526h-260l125 747q-144 1 -234.5 95t-90.5 239zM815 -92l256 1526h260l-256 -1526h-260z" />
<glyph unicode="&#xb7;" horiz-adv-x="534" d="M168 616q0 93 73 162.5t167 69.5q75 0 124.5 -51.5t49.5 -126.5q0 -91 -74.5 -160.5t-167.5 -69.5q-75 0 -123.5 50.5t-48.5 125.5z" />
<glyph unicode="&#xb8;" horiz-adv-x="905" d="M160 -461l67 164q40 -10 70 -10q35 0 60.5 18t25.5 45q0 25 -25 36t-59 11l-39 -2l76 226h168l-31 -99q55 -12 89 -56.5t34 -102.5q0 -123 -86 -188.5t-219 -65.5q-66 0 -131 24z" />
<glyph unicode="&#xb9;" horiz-adv-x="618" d="M303 1372l201 62h209l-138 -818h-251l96 570l-90 -27z" />
<glyph unicode="&#xba;" horiz-adv-x="997" d="M225 971q0 135 71 248t189.5 177t255.5 64q171 0 274 -99.5t103 -258.5q0 -101 -41.5 -191.5t-111 -155.5t-165 -103t-200.5 -38q-170 0 -272.5 100t-102.5 257zM487 1001q0 -72 41.5 -115.5t110.5 -43.5q89 0 154 66t65 161q0 73 -42.5 118.5t-110.5 45.5 q-93 0 -155.5 -66.5t-62.5 -165.5z" />
<glyph unicode="&#xbb;" horiz-adv-x="1067" d="M94 217l309 406l-198 372h289l204 -397l-301 -381h-303zM516 217l309 406l-198 372h288l205 -397l-301 -381h-303z" />
<glyph unicode="&#xbc;" horiz-adv-x="1746" d="M303 1372l201 62h209l-138 -818h-251l96 570l-90 -27zM311 -84l1020 1602h291l-1022 -1602h-289zM1001 143l31 187l428 487h277l-78 -461h92l-35 -213h-92l-25 -143h-243l24 143h-379zM1270 356h145l37 217z" />
<glyph unicode="&#xbd;" horiz-adv-x="1771" d="M287 -84l1020 1602h290l-1022 -1602h-288zM303 1372l201 62h209l-138 -818h-251l96 570l-90 -27zM1055 0l18 104q13 73 63.5 135.5t112.5 103.5t122.5 76t101 69t40.5 67q0 25 -18 40t-47 15q-38 0 -67.5 -26.5t-43.5 -59.5l-200 72q12 29 31 58t50.5 62.5t69 58.5t91 42 t112.5 17q122 0 205.5 -65t83.5 -171q0 -57 -24 -106.5t-60 -82.5t-82 -64t-87 -52t-77 -44t-51 -42h327l-34 -207h-637z" />
<glyph unicode="&#xbe;" horiz-adv-x="1828" d="M195 838l206 71q10 -36 34.5 -61t62.5 -25q39 0 63.5 23t24.5 59q0 28 -20.5 46t-59.5 18h-100l26 157l119 103h-254l35 205h571l-26 -160l-195 -160q73 -8 116.5 -60t43.5 -134q0 -100 -53 -174.5t-136 -110t-182 -35.5q-69 0 -122.5 23.5t-84 62t-47 76t-22.5 76.5z M397 -84l1020 1602h291l-1022 -1602h-289zM1075 143l31 187l428 487h276l-77 -461h92l-35 -213h-92l-25 -143h-243l24 143h-379zM1343 356h146l37 217z" />
<glyph unicode="&#xbf;" horiz-adv-x="1003" d="M55 6q0 70 21.5 130t57 104t78.5 82.5t87.5 72t82.5 65.5t65 70t34 78l15 80h329l-16 -102q-10 -59 -37 -110.5t-63 -88.5t-77 -70.5t-80 -62t-71 -57t-51.5 -61t-19.5 -68.5q0 -45 29 -75t87 -30q28 0 53.5 9t41.5 19t34 30t24.5 29.5t20.5 29.5l254 -121 q-20 -40 -45.5 -76.5t-68.5 -79t-94 -72.5t-124.5 -50.5t-156.5 -20.5q-181 0 -295.5 97t-114.5 249zM498 918q0 91 74 160t167 69q74 0 123 -51t49 -125q0 -93 -72.5 -162.5t-166.5 -69.5q-75 0 -124.5 51.5t-49.5 127.5z" />
<glyph unicode="&#xc0;" horiz-adv-x="1384" d="M12 0l736 1434h368l256 -1434h-352l-49 322h-451l-155 -322h-353zM659 608h271l-60 455zM662 1802h352l86 -297h-262z" />
<glyph unicode="&#xc1;" horiz-adv-x="1384" d="M12 0l736 1434h368l256 -1434h-352l-49 322h-451l-155 -322h-353zM659 608h271l-60 455zM774 1505l184 297h355l-254 -297h-285z" />
<glyph unicode="&#xc2;" horiz-adv-x="1384" d="M12 0l736 1434h368l256 -1434h-352l-49 322h-451l-155 -322h-353zM578 1505l245 297h344l148 -297h-279l-61 133l-109 -133h-288zM659 608h271l-60 455z" />
<glyph unicode="&#xc3;" horiz-adv-x="1384" d="M12 0l736 1434h368l256 -1434h-352l-49 322h-451l-155 -322h-353zM559 1507q20 134 103.5 218.5t193.5 84.5q50 0 96.5 -17t82.5 -33.5t61 -16.5q56 0 69 69h215q-20 -137 -102 -220t-191 -83q-61 0 -138 34t-103 34q-60 0 -72 -70h-215zM659 608h271l-60 455z" />
<glyph unicode="&#xc4;" horiz-adv-x="1384" d="M12 0l736 1434h368l256 -1434h-352l-49 322h-451l-155 -322h-353zM604 1642q0 73 55 127t132 54q60 0 96.5 -39t36.5 -96q0 -72 -55.5 -126.5t-131.5 -54.5q-61 0 -97 38t-36 97zM659 608h271l-60 455zM1016 1642q0 73 54.5 127t131.5 54q60 0 96.5 -39t36.5 -96 q0 -73 -55 -127t-131 -54q-60 0 -96.5 38.5t-36.5 96.5z" />
<glyph unicode="&#xc5;" horiz-adv-x="1384" d="M12 0l736 1434h368l256 -1434h-352l-49 322h-451l-155 -322h-353zM659 608h271l-60 455zM737 1675q0 106 81.5 177t193.5 71q92 0 148.5 -51t56.5 -133q0 -107 -81 -177.5t-196 -70.5q-89 0 -146 51t-57 133zM903 1694q0 -29 16.5 -46.5t45.5 -17.5q37 0 62.5 25.5 t25.5 64.5q0 29 -16.5 46.5t-45.5 17.5q-38 0 -63 -25t-25 -65z" />
<glyph unicode="&#xc6;" horiz-adv-x="1804" d="M16 0l994 1434h932l-52 -314h-413l-41 -239h352l-51 -312h-353l-43 -256h431l-54 -313h-780l53 322h-379l-215 -322h-381zM788 608h252l84 500z" />
<glyph unicode="&#xc7;" horiz-adv-x="1290" d="M164 602q0 176 70.5 335t190 273.5t285 182t349.5 67.5q238 0 397 -121l-149 -307q-135 101 -291 101q-143 0 -255.5 -68.5t-170.5 -178t-58 -235.5q0 -150 90 -250t255 -100q164 0 329 100l47 -307q-199 -121 -444 -121h-29l-14 -45q55 -12 89 -56.5t34 -102.5 q0 -123 -86 -188.5t-219 -65.5q-66 0 -131 24l67 164q40 -10 70 -10q35 0 60.5 18t25.5 45q0 25 -25 36t-59 11l-39 -2l65 195q-215 52 -334.5 215t-119.5 391z" />
<glyph unicode="&#xc8;" horiz-adv-x="993" d="M127 0l240 1434h763l-51 -314h-413l-41 -239h352l-51 -312h-353l-43 -256h431l-54 -313h-780zM516 1802h352l86 -297h-262z" />
<glyph unicode="&#xc9;" horiz-adv-x="993" d="M127 0l240 1434h763l-51 -314h-413l-41 -239h352l-51 -312h-353l-43 -256h431l-54 -313h-780zM590 1505l184 297h354l-254 -297h-284z" />
<glyph unicode="&#xca;" horiz-adv-x="993" d="M127 0l240 1434h763l-51 -314h-413l-41 -239h352l-51 -312h-353l-43 -256h431l-54 -313h-780zM395 1505l246 297h344l148 -297h-279l-61 133l-109 -133h-289z" />
<glyph unicode="&#xcb;" horiz-adv-x="993" d="M127 0l240 1434h763l-51 -314h-413l-41 -239h352l-51 -312h-353l-43 -256h431l-54 -313h-780zM420 1642q0 73 54.5 127t131.5 54q60 0 96.5 -39t36.5 -96q0 -73 -55 -127t-131 -54q-61 0 -97 38t-36 97zM831 1642q0 73 55 127t132 54q60 0 96.5 -39t36.5 -96 q0 -73 -55 -127t-131 -54q-60 0 -97 38.5t-37 96.5z" />
<glyph unicode="&#xcc;" horiz-adv-x="604" d="M127 0l240 1434h350l-240 -1434h-350zM305 1802h352l86 -297h-262z" />
<glyph unicode="&#xcd;" horiz-adv-x="604" d="M127 0l240 1434h350l-240 -1434h-350zM385 1505l184 297h355l-254 -297h-285z" />
<glyph unicode="&#xce;" horiz-adv-x="604" d="M127 0l240 1434h350l-240 -1434h-350zM186 1505l246 297h344l148 -297h-279l-61 133l-109 -133h-289z" />
<glyph unicode="&#xcf;" horiz-adv-x="604" d="M127 0l240 1434h350l-240 -1434h-350zM225 1642q0 73 55 127t132 54q60 0 96.5 -39t36.5 -96q0 -72 -55.5 -126.5t-131.5 -54.5q-61 0 -97 38t-36 97zM637 1642q0 73 54.5 127t131.5 54q60 0 96.5 -39t36.5 -96q0 -73 -55 -127t-131 -54q-60 0 -96.5 38.5t-36.5 96.5z " />
<glyph unicode="&#xd0;" horiz-adv-x="1388" d="M139 567l51 305h111l94 562h422q304 0 476.5 -158t172.5 -436q0 -252 -113 -443.5t-314 -294t-461 -102.5h-422l94 567h-111zM555 303h72q211 0 341 131t130 367q0 160 -88 244.5t-244 84.5h-72l-43 -258h189l-52 -305h-188z" />
<glyph unicode="&#xd1;" horiz-adv-x="1470" d="M123 0l239 1434h357l377 -889l147 889h344l-239 -1434h-349l-385 879l-147 -879h-344zM602 1507q20 134 103.5 218.5t193.5 84.5q50 0 96.5 -17t82.5 -33.5t61 -16.5q56 0 69 69h215q-20 -137 -102 -220t-191 -83q-48 0 -94.5 17t-84 34t-62.5 17q-60 0 -72 -70h-215z " />
<glyph unicode="&#xd2;" horiz-adv-x="1613" d="M164 604q0 174 68 331.5t185 273t282.5 183.5t351.5 68q196 0 343 -83.5t222.5 -225t75.5 -320.5q0 -174 -68 -332t-185.5 -274t-283 -184t-352.5 -68q-196 0 -342.5 83t-221.5 225t-75 323zM532 649q0 -154 88.5 -251t237.5 -97q193 0 328 141t135 344q0 152 -88 249.5 t-236 97.5q-128 0 -235 -64.5t-168.5 -176t-61.5 -243.5zM788 1802h353l86 -297h-262z" />
<glyph unicode="&#xd3;" horiz-adv-x="1613" d="M164 604q0 174 68 331.5t185 273t282.5 183.5t351.5 68q196 0 343 -83.5t222.5 -225t75.5 -320.5q0 -174 -68 -332t-185.5 -274t-283 -184t-352.5 -68q-196 0 -342.5 83t-221.5 225t-75 323zM532 649q0 -154 88.5 -251t237.5 -97q193 0 328 141t135 344q0 152 -88 249.5 t-236 97.5q-128 0 -235 -64.5t-168.5 -176t-61.5 -243.5zM891 1505l184 297h355l-254 -297h-285z" />
<glyph unicode="&#xd4;" horiz-adv-x="1613" d="M164 604q0 174 68 331.5t185 273t282.5 183.5t351.5 68q196 0 343 -83.5t222.5 -225t75.5 -320.5q0 -174 -68 -332t-185.5 -274t-283 -184t-352.5 -68q-196 0 -342.5 83t-221.5 225t-75 323zM532 649q0 -154 88.5 -251t237.5 -97q193 0 328 141t135 344q0 152 -88 249.5 t-236 97.5q-128 0 -235 -64.5t-168.5 -176t-61.5 -243.5zM686 1505l246 297h344l147 -297h-278l-62 133l-108 -133h-289z" />
<glyph unicode="&#xd5;" horiz-adv-x="1613" d="M164 604q0 174 68 331.5t185 273t282.5 183.5t351.5 68q196 0 343 -83.5t222.5 -225t75.5 -320.5q0 -174 -68 -332t-185.5 -274t-283 -184t-352.5 -68q-196 0 -342.5 83t-221.5 225t-75 323zM532 649q0 -154 88.5 -251t237.5 -97q193 0 328 141t135 344q0 152 -88 249.5 t-236 97.5q-128 0 -235 -64.5t-168.5 -176t-61.5 -243.5zM674 1507q20 134 103.5 218.5t193.5 84.5q50 0 96.5 -17t82 -33.5t60.5 -16.5q57 0 70 69h215q-20 -137 -102 -220t-191 -83q-48 0 -94.5 17t-84 34t-62.5 17q-60 0 -72 -70h-215z" />
<glyph unicode="&#xd6;" horiz-adv-x="1613" d="M164 604q0 174 68 331.5t185 273t282.5 183.5t351.5 68q196 0 343 -83.5t222.5 -225t75.5 -320.5q0 -174 -68 -332t-185.5 -274t-283 -184t-352.5 -68q-196 0 -342.5 83t-221.5 225t-75 323zM532 649q0 -154 88.5 -251t237.5 -97q193 0 328 141t135 344q0 152 -88 249.5 t-236 97.5q-128 0 -235 -64.5t-168.5 -176t-61.5 -243.5zM719 1642q0 73 54.5 127t131.5 54q60 0 96.5 -39t36.5 -96q0 -73 -55 -127t-131 -54q-61 0 -97 38t-36 97zM1130 1642q0 73 55 127t132 54q60 0 96.5 -39t36.5 -96q0 -73 -55 -127t-131 -54q-60 0 -97 38.5t-37 96.5 z" />
<glyph unicode="&#xd7;" horiz-adv-x="1081" d="M111 326l354 315l-266 328l207 170l258 -322l362 322l158 -191l-365 -323l262 -322l-204 -168l-256 314l-353 -314z" />
<glyph unicode="&#xd8;" horiz-adv-x="1613" d="M164 604q0 174 68 331.5t185 273t282.5 183.5t351.5 68q200 0 352 -90l115 119l155 -143l-110 -115q129 -163 129 -400q0 -174 -68 -332t-185.5 -274t-283 -184t-352.5 -68q-210 0 -363 95l-116 -121l-156 143l117 121q-121 160 -121 393zM532 649q0 -77 27 -153l584 606 q-71 31 -146 31q-128 0 -235 -64.5t-168.5 -176t-61.5 -243.5zM700 336q68 -35 158 -35q193 0 328 141t135 344q0 89 -31 162z" />
<glyph unicode="&#xd9;" horiz-adv-x="1441" d="M215 551l147 883h351l-148 -883q-20 -117 35 -184.5t172 -67.5q118 0 193.5 67.5t95.5 186.5l147 881h351l-148 -881q-42 -257 -228.5 -417.5t-465.5 -160.5q-283 0 -414.5 157t-87.5 419zM702 1802h353l86 -297h-262z" />
<glyph unicode="&#xda;" horiz-adv-x="1441" d="M215 551l147 883h351l-148 -883q-20 -117 35 -184.5t172 -67.5q118 0 193.5 67.5t95.5 186.5l147 881h351l-148 -881q-42 -257 -228.5 -417.5t-465.5 -160.5q-283 0 -414.5 157t-87.5 419zM813 1505l184 297h355l-254 -297h-285z" />
<glyph unicode="&#xdb;" horiz-adv-x="1441" d="M215 551l147 883h351l-148 -883q-20 -117 35 -184.5t172 -67.5q118 0 193.5 67.5t95.5 186.5l147 881h351l-148 -881q-42 -257 -228.5 -417.5t-465.5 -160.5q-283 0 -414.5 157t-87.5 419zM604 1505l246 297h344l147 -297h-278l-62 133l-108 -133h-289z" />
<glyph unicode="&#xdc;" horiz-adv-x="1441" d="M215 551l147 883h351l-148 -883q-20 -117 35 -184.5t172 -67.5q118 0 193.5 67.5t95.5 186.5l147 881h351l-148 -881q-42 -257 -228.5 -417.5t-465.5 -160.5q-283 0 -414.5 157t-87.5 419zM639 1642q0 73 54.5 127t131.5 54q60 0 96.5 -39t36.5 -96q0 -73 -55 -127 t-131 -54q-61 0 -97 38t-36 97zM1051 1642q0 73 54.5 127t131.5 54q60 0 96.5 -39t36.5 -96q0 -73 -55 -127t-131 -54q-60 0 -96.5 38.5t-36.5 96.5z" />
<glyph unicode="&#xdd;" horiz-adv-x="1249" d="M252 1434h389l141 -469l303 469h392l-570 -787l-108 -647h-348l108 647zM723 1505l184 297h355l-254 -297h-285z" />
<glyph unicode="&#xde;" horiz-adv-x="1191" d="M127 0l240 1434h350l-39 -238h196q186 0 290 -105.5t104 -273.5q0 -161 -71.5 -288.5t-197 -198t-282.5 -70.5h-197l-43 -260h-350zM571 565h146q88 0 137 55.5t49 141.5q0 61 -32.5 97t-94.5 36h-149z" />
<glyph unicode="&#xdf;" horiz-adv-x="1169" d="M98 0l185 1106q17 102 66 178t120 118.5t151.5 62.5t172.5 20q199 0 313.5 -83.5t114.5 -219.5q0 -103 -50.5 -178t-111.5 -107q160 -108 160 -319q0 -263 -188 -420.5t-499 -157.5l46 274q133 2 214.5 72.5t81.5 185.5q0 86 -59.5 133.5t-163.5 47.5l45 266 q94 0 139.5 34.5t45.5 94.5q0 36 -29 63t-86 27q-63 0 -99 -31.5t-44 -83.5l-183 -1083h-342z" />
<glyph unicode="&#xe0;" horiz-adv-x="1093" d="M90 281q0 181 135 295t348 114q116 0 201 -39l6 39q8 52 -27.5 84.5t-115.5 32.5q-124 0 -277 -68l-104 230q222 133 471 133q100 0 175.5 -21.5t121 -61t72.5 -94t29.5 -120t-7.5 -139.5l-110 -666h-306l-8 59q-103 -86 -258 -86q-149 0 -247.5 82t-98.5 226zM440 332 q0 -45 35.5 -70.5t91.5 -25.5q71 0 117.5 33.5t46.5 92.5q0 46 -35 72.5t-92 26.5q-69 0 -116.5 -36t-47.5 -93zM498 1485h352l86 -297h-262z" />
<glyph unicode="&#xe1;" horiz-adv-x="1093" d="M90 281q0 181 135 295t348 114q116 0 201 -39l6 39q8 52 -27.5 84.5t-115.5 32.5q-124 0 -277 -68l-104 230q222 133 471 133q100 0 175.5 -21.5t121 -61t72.5 -94t29.5 -120t-7.5 -139.5l-110 -666h-306l-8 59q-103 -86 -258 -86q-149 0 -247.5 82t-98.5 226zM440 332 q0 -45 35.5 -70.5t91.5 -25.5q71 0 117.5 33.5t46.5 92.5q0 46 -35 72.5t-92 26.5q-69 0 -116.5 -36t-47.5 -93zM586 1188l184 297h354l-254 -297h-284z" />
<glyph unicode="&#xe2;" horiz-adv-x="1093" d="M90 281q0 181 135 295t348 114q116 0 201 -39l6 39q8 52 -27.5 84.5t-115.5 32.5q-124 0 -277 -68l-104 230q222 133 471 133q100 0 175.5 -21.5t121 -61t72.5 -94t29.5 -120t-7.5 -139.5l-110 -666h-306l-8 59q-103 -86 -258 -86q-149 0 -247.5 82t-98.5 226zM377 1188 l246 297h344l147 -297h-278l-62 133l-108 -133h-289zM440 332q0 -45 35.5 -70.5t91.5 -25.5q71 0 117.5 33.5t46.5 92.5q0 46 -35 72.5t-92 26.5q-69 0 -116.5 -36t-47.5 -93z" />
<glyph unicode="&#xe3;" horiz-adv-x="1093" d="M90 281q0 181 135 295t348 114q116 0 201 -39l6 39q8 52 -27.5 84.5t-115.5 32.5q-124 0 -277 -68l-104 230q222 133 471 133q100 0 175.5 -21.5t121 -61t72.5 -94t29.5 -120t-7.5 -139.5l-110 -666h-306l-8 59q-103 -86 -258 -86q-149 0 -247.5 82t-98.5 226zM348 1186 q20 134 103.5 218.5t193.5 84.5q50 0 96.5 -17t82.5 -34t61 -17q56 0 69 70h215q-20 -138 -101.5 -220.5t-190.5 -82.5q-61 0 -138.5 33.5t-103.5 33.5q-60 0 -72 -69h-215zM440 332q0 -45 35.5 -70.5t91.5 -25.5q71 0 117.5 33.5t46.5 92.5q0 46 -35 72.5t-92 26.5 q-69 0 -116.5 -36t-47.5 -93z" />
<glyph unicode="&#xe4;" horiz-adv-x="1093" d="M90 281q0 181 135 295t348 114q116 0 201 -39l6 39q8 52 -27.5 84.5t-115.5 32.5q-124 0 -277 -68l-104 230q222 133 471 133q100 0 175.5 -21.5t121 -61t72.5 -94t29.5 -120t-7.5 -139.5l-110 -666h-306l-8 59q-103 -86 -258 -86q-149 0 -247.5 82t-98.5 226zM412 1315 q0 73 54.5 126.5t131.5 53.5q60 0 96.5 -39t36.5 -96q0 -72 -55 -126t-131 -54q-61 0 -97 38t-36 97zM440 332q0 -45 35.5 -70.5t91.5 -25.5q71 0 117.5 33.5t46.5 92.5q0 46 -35 72.5t-92 26.5q-69 0 -116.5 -36t-47.5 -93zM823 1315q0 73 55 126.5t132 53.5q60 0 96.5 -39 t36.5 -96q0 -72 -55.5 -126t-131.5 -54q-60 0 -96.5 38.5t-36.5 96.5z" />
<glyph unicode="&#xe5;" horiz-adv-x="1093" d="M90 281q0 181 135 295t348 114q116 0 201 -39l6 39q8 52 -27.5 84.5t-115.5 32.5q-124 0 -277 -68l-104 230q222 133 471 133q100 0 175.5 -21.5t121 -61t72.5 -94t29.5 -120t-7.5 -139.5l-110 -666h-306l-8 59q-103 -86 -258 -86q-149 0 -247.5 82t-98.5 226zM440 332 q0 -45 35.5 -70.5t91.5 -25.5q71 0 117.5 33.5t46.5 92.5q0 46 -35 72.5t-92 26.5q-69 0 -116.5 -36t-47.5 -93zM551 1329q0 106 81.5 177t192.5 71q92 0 148.5 -51t56.5 -133q0 -107 -80.5 -177.5t-195.5 -70.5q-89 0 -146 51t-57 133zM717 1348q0 -30 16 -47t45 -17 q37 0 62.5 25.5t25.5 64.5q0 30 -16 47t-45 17q-38 0 -63 -25t-25 -65z" />
<glyph unicode="&#xe6;" horiz-adv-x="1753" d="M90 281q0 181 135 295t348 114q111 0 201 -39l6 39q8 52 -28.5 84.5t-116.5 32.5q-124 0 -277 -68l-104 230q222 133 471 133q208 0 315 -107q152 107 330 107q215 0 328.5 -121.5t113.5 -339.5q0 -84 -26 -192h-705q-6 -74 50 -126.5t149 -52.5q59 0 114.5 24t82.5 46 t47 45l196 -174q-14 -22 -40 -49t-72.5 -61.5t-100.5 -62t-129.5 -46.5t-154.5 -19q-249 0 -381 154q-147 -154 -408 -154q-148 0 -246 82t-98 226zM438 332q0 -45 36 -70.5t93 -25.5q71 0 117.5 33.5t46.5 92.5q0 46 -36 72.5t-93 26.5q-69 0 -116.5 -36t-47.5 -93z M1128 666h349q8 67 -31.5 113t-116.5 46q-79 0 -131.5 -47.5t-69.5 -111.5z" />
<glyph unicode="&#xe7;" horiz-adv-x="980" d="M123 451q0 183 92 333t247 234t339 84q97 0 178.5 -28.5t132.5 -69.5l-141 -289q-83 80 -203 80q-133 0 -216 -87t-83 -212q0 -100 60.5 -161t164.5 -61q112 0 215 76l43 -280q-158 -97 -329 -97l-15 -45q55 -12 89 -56.5t34 -102.5q0 -123 -86 -188.5t-219 -65.5 q-66 0 -131 24l67 164q40 -10 70 -10q35 0 60.5 18t25.5 45q0 25 -25 36t-59 11l-39 -2l64 193q-157 43 -246.5 165t-89.5 292z" />
<glyph unicode="&#xe8;" horiz-adv-x="1140" d="M125 446q0 130 49.5 250.5t133.5 209.5t202 142.5t248 53.5q216 0 330 -121.5t114 -339.5q0 -84 -26 -192h-705q-6 -74 49 -126.5t148 -52.5q84 0 148 38.5t95 76.5l197 -174q-14 -22 -40 -49t-72 -61.5t-100 -62t-129.5 -46.5t-154.5 -19q-153 0 -264.5 62.5t-167 168.5 t-55.5 242zM516 666h348q8 67 -31 113t-116 46q-79 0 -131.5 -47.5t-69.5 -111.5zM516 1485h352l86 -297h-262z" />
<glyph unicode="&#xe9;" horiz-adv-x="1140" d="M125 446q0 130 49.5 250.5t133.5 209.5t202 142.5t248 53.5q216 0 330 -121.5t114 -339.5q0 -84 -26 -192h-705q-6 -74 49 -126.5t148 -52.5q84 0 148 38.5t95 76.5l197 -174q-14 -22 -40 -49t-72 -61.5t-100 -62t-129.5 -46.5t-154.5 -19q-153 0 -264.5 62.5t-167 168.5 t-55.5 242zM516 666h348q8 67 -31 113t-116 46q-79 0 -131.5 -47.5t-69.5 -111.5zM606 1188l185 297h354l-254 -297h-285z" />
<glyph unicode="&#xea;" horiz-adv-x="1140" d="M125 446q0 130 49.5 250.5t133.5 209.5t202 142.5t248 53.5q216 0 330 -121.5t114 -339.5q0 -84 -26 -192h-705q-6 -74 49 -126.5t148 -52.5q84 0 148 38.5t95 76.5l197 -174q-14 -22 -40 -49t-72 -61.5t-100 -62t-129.5 -46.5t-154.5 -19q-153 0 -264.5 62.5t-167 168.5 t-55.5 242zM416 1188l246 297h344l147 -297h-279l-61 133l-108 -133h-289zM516 666h348q8 67 -31 113t-116 46q-79 0 -131.5 -47.5t-69.5 -111.5z" />
<glyph unicode="&#xeb;" horiz-adv-x="1140" d="M125 446q0 130 49.5 250.5t133.5 209.5t202 142.5t248 53.5q216 0 330 -121.5t114 -339.5q0 -84 -26 -192h-705q-6 -74 49 -126.5t148 -52.5q84 0 148 38.5t95 76.5l197 -174q-14 -22 -40 -49t-72 -61.5t-100 -62t-129.5 -46.5t-154.5 -19q-153 0 -264.5 62.5t-167 168.5 t-55.5 242zM442 1315q0 73 55 126.5t132 53.5q60 0 96.5 -39t36.5 -96q0 -72 -55.5 -126t-131.5 -54q-61 0 -97 38t-36 97zM516 666h348q8 67 -31 113t-116 46q-79 0 -131.5 -47.5t-69.5 -111.5zM854 1315q0 73 54.5 126.5t131.5 53.5q60 0 97 -39t37 -96q0 -72 -55.5 -126 t-131.5 -54q-60 0 -96.5 38.5t-36.5 96.5z" />
<glyph unicode="&#xec;" d="M98 0l181 1075h342l-181 -1075h-342zM217 1485h352l86 -297h-262z" />
<glyph unicode="&#xed;" d="M98 0l181 1075h342l-181 -1075h-342zM281 1188l184 297h354l-254 -297h-284z" />
<glyph unicode="&#xee;" d="M98 0l181 1075h342l-181 -1075h-342zM106 1188l246 297h344l148 -297h-279l-61 133l-109 -133h-289z" />
<glyph unicode="&#xef;" d="M98 0l181 1075h342l-181 -1075h-342zM135 1315q0 73 55 126.5t132 53.5q60 0 96.5 -39t36.5 -96q0 -72 -55.5 -126t-131.5 -54q-61 0 -97 38t-36 97zM547 1315q0 73 54.5 126.5t131.5 53.5q60 0 96.5 -39t36.5 -96q0 -72 -55 -126t-131 -54q-60 0 -96.5 38.5t-36.5 96.5z " />
<glyph unicode="&#xf0;" horiz-adv-x="1202" d="M119 432q0 131 50.5 242.5t135 185t195.5 115t233 41.5q35 0 53 -2q-27 53 -69 100l-342 -110l6 208l172 58q-69 55 -133 96l219 172q140 -64 256 -154l303 101l-6 -215l-133 -43q201 -247 201 -547q0 -103 -25.5 -203t-80.5 -191.5t-132 -161t-189 -110.5t-243 -41 q-110 0 -200 36t-149 98.5t-90.5 145.5t-31.5 179zM465 469q0 -86 45 -140.5t129 -54.5q124 0 193 82t69 197q0 82 -46 137t-128 55q-119 0 -190.5 -79.5t-71.5 -196.5z" />
<glyph unicode="&#xf1;" horiz-adv-x="1161" d="M98 0l181 1075h333l-18 -110q44 55 122 96t171 41q70 0 123.5 -17t86.5 -44.5t54 -69t29.5 -83.5t9 -96t-4.5 -98.5t-14 -97.5l-100 -596h-342l107 641q12 73 -20 113.5t-95 40.5q-69 0 -116 -43.5t-58 -110.5l-107 -641h-342zM393 1186q20 134 103.5 218.5t193.5 84.5 q50 0 96.5 -17t82.5 -34t61 -17q56 0 69 70h215q-20 -138 -101.5 -220.5t-190.5 -82.5q-62 0 -139 33.5t-103 33.5q-60 0 -72 -69h-215z" />
<glyph unicode="&#xf2;" horiz-adv-x="1259" d="M123 451q0 179 94.5 329.5t252.5 236t341 85.5q229 0 366.5 -133.5t137.5 -345.5q0 -179 -94 -329t-253 -235.5t-345 -85.5q-226 0 -363 134t-137 344zM469 489q0 -97 56 -156t147 -59q121 0 209 89.5t88 218.5q0 98 -58 158.5t-151 60.5q-121 0 -206 -90t-85 -222z M561 1485h352l86 -297h-262z" />
<glyph unicode="&#xf3;" horiz-adv-x="1259" d="M123 451q0 179 94.5 329.5t252.5 236t341 85.5q229 0 366.5 -133.5t137.5 -345.5q0 -179 -94 -329t-253 -235.5t-345 -85.5q-226 0 -363 134t-137 344zM469 489q0 -97 56 -156t147 -59q121 0 209 89.5t88 218.5q0 98 -58 158.5t-151 60.5q-121 0 -206 -90t-85 -222z M655 1188l185 297h354l-254 -297h-285z" />
<glyph unicode="&#xf4;" horiz-adv-x="1259" d="M123 451q0 179 94.5 329.5t252.5 236t341 85.5q229 0 366.5 -133.5t137.5 -345.5q0 -179 -94 -329t-253 -235.5t-345 -85.5q-226 0 -363 134t-137 344zM467 1188l246 297h344l147 -297h-278l-62 133l-108 -133h-289zM469 489q0 -97 56 -156t147 -59q121 0 209 89.5 t88 218.5q0 98 -58 158.5t-151 60.5q-121 0 -206 -90t-85 -222z" />
<glyph unicode="&#xf5;" horiz-adv-x="1259" d="M123 451q0 179 94.5 329.5t252.5 236t341 85.5q229 0 366.5 -133.5t137.5 -345.5q0 -179 -94 -329t-253 -235.5t-345 -85.5q-226 0 -363 134t-137 344zM446 1186q20 134 103.5 218.5t193.5 84.5q50 0 96.5 -17t82.5 -34t61 -17q57 0 70 70h215q-20 -137 -102 -220 t-191 -83q-48 0 -95 17t-84.5 33.5t-62.5 16.5q-59 0 -71 -69h-216zM469 489q0 -97 56 -156t147 -59q121 0 209 89.5t88 218.5q0 98 -58 158.5t-151 60.5q-121 0 -206 -90t-85 -222z" />
<glyph unicode="&#xf6;" horiz-adv-x="1259" d="M123 451q0 179 94.5 329.5t252.5 236t341 85.5q229 0 366.5 -133.5t137.5 -345.5q0 -179 -94 -329t-253 -235.5t-345 -85.5q-226 0 -363 134t-137 344zM469 489q0 -97 56 -156t147 -59q121 0 209 89.5t88 218.5q0 98 -58 158.5t-151 60.5q-121 0 -206 -90t-85 -222z M492 1315q0 73 54.5 126.5t131.5 53.5q60 0 96.5 -39t36.5 -96q0 -72 -55 -126t-131 -54q-61 0 -97 38t-36 97zM903 1315q0 73 55 126.5t132 53.5q60 0 96.5 -39t36.5 -96q0 -72 -55.5 -126t-131.5 -54q-60 0 -96.5 38.5t-36.5 96.5z" />
<glyph unicode="&#xf7;" horiz-adv-x="1130" d="M158 504l45 270h985l-45 -270h-985zM432 207q0 77 60 134.5t137 57.5q63 0 104 -42t41 -105q0 -75 -61.5 -132t-139.5 -57q-61 0 -101 42t-40 102zM569 1022q0 77 60 134.5t137 57.5q63 0 103 -42t40 -105q0 -75 -60 -131.5t-138 -56.5q-61 0 -101.5 42t-40.5 101z" />
<glyph unicode="&#xf8;" horiz-adv-x="1259" d="M123 451q0 179 94.5 329.5t252.5 236t341 85.5q145 0 266 -62l94 99l136 -121l-90 -94q98 -124 98 -301q0 -179 -94 -329t-253 -235.5t-345 -85.5q-141 0 -261 60l-100 -107l-133 121l94 98q-100 124 -100 306zM469 489q0 -46 10 -75l357 374q-37 13 -76 13 q-121 0 -206 -90t-85 -222zM604 285q27 -11 68 -11q121 0 209 89.5t88 218.5q0 31 -11 73z" />
<glyph unicode="&#xf9;" horiz-adv-x="1153" d="M152 283q0 54 4.5 98.5t13.5 97.5l100 596h342l-106 -641q-12 -73 20 -113t95 -40q69 0 116 43.5t58 109.5l106 641h342l-180 -1075h-334l19 111q-45 -55 -122.5 -96.5t-170.5 -41.5q-70 0 -123.5 17t-87 44.5t-54.5 69t-29.5 83.5t-8.5 96zM520 1485h352l86 -297h-262z " />
<glyph unicode="&#xfa;" horiz-adv-x="1153" d="M152 283q0 54 4.5 98.5t13.5 97.5l100 596h342l-106 -641q-12 -73 20 -113t95 -40q69 0 116 43.5t58 109.5l106 641h342l-180 -1075h-334l19 111q-45 -55 -122.5 -96.5t-170.5 -41.5q-70 0 -123.5 17t-87 44.5t-54.5 69t-29.5 83.5t-8.5 96zM606 1188l185 297h354 l-254 -297h-285z" />
<glyph unicode="&#xfb;" horiz-adv-x="1153" d="M152 283q0 54 4.5 98.5t13.5 97.5l100 596h342l-106 -641q-12 -73 20 -113t95 -40q69 0 116 43.5t58 109.5l106 641h342l-180 -1075h-334l19 111q-45 -55 -122.5 -96.5t-170.5 -41.5q-70 0 -123.5 17t-87 44.5t-54.5 69t-29.5 83.5t-8.5 96zM412 1188l245 297h344 l148 -297h-279l-61 133l-109 -133h-288z" />
<glyph unicode="&#xfc;" horiz-adv-x="1153" d="M152 283q0 54 4.5 98.5t13.5 97.5l100 596h342l-106 -641q-12 -73 20 -113t95 -40q69 0 116 43.5t58 109.5l106 641h342l-180 -1075h-334l19 111q-45 -55 -122.5 -96.5t-170.5 -41.5q-70 0 -123.5 17t-87 44.5t-54.5 69t-29.5 83.5t-8.5 96zM444 1315q0 73 55 126.5 t132 53.5q60 0 96.5 -39t36.5 -96q0 -72 -55 -126t-131 -54q-62 0 -98 38t-36 97zM856 1315q0 73 54.5 126.5t131.5 53.5q60 0 97 -39t37 -96q0 -72 -55.5 -126t-131.5 -54q-60 0 -96.5 38.5t-36.5 96.5z" />
<glyph unicode="&#xfd;" horiz-adv-x="1138" d="M193 1075h364l86 -618l303 618h359l-775 -1442h-323l213 402zM608 1188l185 297h354l-254 -297h-285z" />
<glyph unicode="&#xfe;" horiz-adv-x="1280" d="M35 -383l311 1864h342l-78 -469q47 36 120.5 63t162.5 27q202 0 322 -130t120 -339q0 -184 -77.5 -334.5t-218 -238t-316.5 -87.5q-107 0 -176 37.5t-92 71.5l-78 -465h-342zM516 487q0 -100 52 -156.5t141 -56.5q120 0 200 90.5t80 225.5q0 97 -51.5 155t-140.5 58 q-123 0 -202 -93t-79 -223z" />
<glyph unicode="&#xff;" horiz-adv-x="1138" d="M193 1075h364l86 -618l303 618h359l-775 -1442h-323l213 402zM434 1315q0 73 55 126.5t132 53.5q60 0 96.5 -39t36.5 -96q0 -72 -55.5 -126t-131.5 -54q-61 0 -97 38t-36 97zM846 1315q0 73 54.5 126.5t131.5 53.5q60 0 96.5 -39t36.5 -96q0 -72 -55 -126t-131 -54 q-60 0 -96.5 38.5t-36.5 96.5z" />
<glyph unicode="&#x100;" horiz-adv-x="1384" d="M12 0l736 1434h368l256 -1434h-352l-49 322h-451l-155 -322h-353zM659 608h271l-60 455zM659 1528l41 244h576l-41 -244h-576z" />
<glyph unicode="&#x101;" horiz-adv-x="1093" d="M90 281q0 181 135 295t348 114q116 0 201 -39l6 39q8 52 -27.5 84.5t-115.5 32.5q-124 0 -277 -68l-104 230q222 133 471 133q100 0 175.5 -21.5t121 -61t72.5 -94t29.5 -120t-7.5 -139.5l-110 -666h-306l-8 59q-103 -86 -258 -86q-149 0 -247.5 82t-98.5 226zM440 332 q0 -45 35.5 -70.5t91.5 -25.5q71 0 117.5 33.5t46.5 92.5q0 46 -35 72.5t-92 26.5q-69 0 -116.5 -36t-47.5 -93zM473 1210l41 244h576l-41 -244h-576z" />
<glyph unicode="&#x102;" horiz-adv-x="1384" d="M12 0l736 1434h368l256 -1434h-352l-49 322h-451l-155 -322h-353zM659 608h271l-60 455zM662 1825h231q-21 -117 74 -117t116 117h248q-24 -139 -128 -225.5t-261 -86.5q-155 0 -229.5 86.5t-50.5 225.5z" />
<glyph unicode="&#x103;" horiz-adv-x="1093" d="M90 281q0 181 135 295t348 114q116 0 201 -39l6 39q8 52 -27.5 84.5t-115.5 32.5q-124 0 -277 -68l-104 230q222 133 471 133q100 0 175.5 -21.5t121 -61t72.5 -94t29.5 -120t-7.5 -139.5l-110 -666h-306l-8 59q-103 -86 -258 -86q-149 0 -247.5 82t-98.5 226zM440 332 q0 -45 35.5 -70.5t91.5 -25.5q71 0 117.5 33.5t46.5 92.5q0 46 -35 72.5t-92 26.5q-69 0 -116.5 -36t-47.5 -93zM498 1495h231q-21 -117 74 -117q96 0 117 117h247q-24 -139 -128 -225t-261 -86q-155 0 -229.5 86t-50.5 225z" />
<glyph unicode="&#x104;" horiz-adv-x="1384" d="M12 0l736 1434h368l256 -1434q-117 -47 -117 -125q0 -33 25 -49t55 -16l-37 -226q-43 -16 -139 -16q-88 0 -145.5 42.5t-57.5 127.5q0 50 20.5 95.5t53 77.5t64.5 54t63 35h-137l-49 322h-451l-155 -322h-353zM659 608h271l-60 455z" />
<glyph unicode="&#x105;" horiz-adv-x="1093" d="M90 281q0 181 135 295t348 114q116 0 201 -39l6 39q8 52 -27.5 84.5t-115.5 32.5q-124 0 -277 -68l-104 230q222 133 471 133q100 0 175.5 -21.5t121 -61t72.5 -94t29.5 -120t-7.5 -139.5l-110 -666q-14 -5 -29 -12.5t-37.5 -22.5t-36.5 -38.5t-14 -51.5q0 -33 24.5 -49 t55.5 -16l-37 -226q-48 -16 -141 -16q-86 0 -144.5 43t-58.5 127q0 50 20.5 95.5t53.5 77.5t65.5 54t63.5 35h-91l-8 59q-103 -86 -258 -86q-149 0 -247.5 82t-98.5 226zM440 332q0 -45 35.5 -70.5t91.5 -25.5q71 0 117.5 33.5t46.5 92.5q0 46 -35 72.5t-92 26.5 q-69 0 -116.5 -36t-47.5 -93z" />
<glyph unicode="&#x106;" horiz-adv-x="1290" d="M164 602q0 176 70.5 335t190 273.5t285 182t349.5 67.5q238 0 397 -121l-149 -307q-135 101 -291 101q-143 0 -255.5 -68.5t-170.5 -178t-58 -235.5q0 -150 90 -250t255 -100q164 0 329 100l47 -307q-199 -121 -444 -121q-151 0 -273.5 48t-203.5 132.5t-124.5 199.5 t-43.5 249zM852 1505l184 297h355l-254 -297h-285z" />
<glyph unicode="&#x107;" horiz-adv-x="980" d="M123 451q0 183 92 333t247 234t339 84q97 0 178.5 -28.5t132.5 -69.5l-141 -289q-83 80 -203 80q-133 0 -216 -87t-83 -212q0 -100 60.5 -161t164.5 -61q112 0 215 76l43 -280q-158 -97 -331 -97q-225 0 -361.5 132.5t-136.5 345.5zM604 1188l184 297h355l-254 -297h-285 z" />
<glyph unicode="&#x108;" horiz-adv-x="1290" d="M164 602q0 176 70.5 335t190 273.5t285 182t349.5 67.5q238 0 397 -121l-149 -307q-135 101 -291 101q-143 0 -255.5 -68.5t-170.5 -178t-58 -235.5q0 -150 90 -250t255 -100q164 0 329 100l47 -307q-199 -121 -444 -121q-151 0 -273.5 48t-203.5 132.5t-124.5 199.5 t-43.5 249zM682 1505l246 297h344l147 -297h-278l-62 133l-108 -133h-289z" />
<glyph unicode="&#x109;" horiz-adv-x="980" d="M123 451q0 183 92 333t247 234t339 84q97 0 178.5 -28.5t132.5 -69.5l-141 -289q-83 80 -203 80q-133 0 -216 -87t-83 -212q0 -100 60.5 -161t164.5 -61q112 0 215 76l43 -280q-158 -97 -331 -97q-225 0 -361.5 132.5t-136.5 345.5zM436 1188l246 297h344l148 -297h-279 l-61 133l-109 -133h-289z" />
<glyph unicode="&#x10a;" horiz-adv-x="1290" d="M164 602q0 176 70.5 335t190 273.5t285 182t349.5 67.5q238 0 397 -121l-149 -307q-135 101 -291 101q-143 0 -255.5 -68.5t-170.5 -178t-58 -235.5q0 -150 90 -250t255 -100q164 0 329 100l47 -307q-199 -121 -444 -121q-151 0 -273.5 48t-203.5 132.5t-124.5 199.5 t-43.5 249zM913 1642q0 80 64 140.5t143 60.5q67 0 109.5 -44t42.5 -109q0 -79 -64.5 -140t-144.5 -61q-65 0 -107.5 44.5t-42.5 108.5z" />
<glyph unicode="&#x10b;" horiz-adv-x="980" d="M123 451q0 183 92 333t247 234t339 84q97 0 178.5 -28.5t132.5 -69.5l-141 -289q-83 80 -203 80q-133 0 -216 -87t-83 -212q0 -100 60.5 -161t164.5 -61q112 0 215 76l43 -280q-158 -97 -331 -97q-225 0 -361.5 132.5t-136.5 345.5zM664 1311q0 80 63.5 140t142.5 60 q67 0 109.5 -44t42.5 -109q0 -79 -64.5 -140t-144.5 -61q-65 0 -107 45t-42 109z" />
<glyph unicode="&#x10c;" horiz-adv-x="1290" d="M164 602q0 176 70.5 335t190 273.5t285 182t349.5 67.5q238 0 397 -121l-149 -307q-135 101 -291 101q-143 0 -255.5 -68.5t-170.5 -178t-58 -235.5q0 -150 90 -250t255 -100q164 0 329 100l47 -307q-199 -121 -444 -121q-151 0 -273.5 48t-203.5 132.5t-124.5 199.5 t-43.5 249zM737 1802h281l63 -133l107 133h287l-246 -297h-344z" />
<glyph unicode="&#x10d;" horiz-adv-x="980" d="M123 451q0 183 92 333t247 234t339 84q97 0 178.5 -28.5t132.5 -69.5l-141 -289q-83 80 -203 80q-133 0 -216 -87t-83 -212q0 -100 60.5 -161t164.5 -61q112 0 215 76l43 -280q-158 -97 -331 -97q-225 0 -361.5 132.5t-136.5 345.5zM485 1485h281l63 -133l107 133h287 l-246 -297h-344z" />
<glyph unicode="&#x10e;" horiz-adv-x="1359" d="M127 0l240 1434h421q306 0 478 -157.5t172 -436.5q0 -252 -112.5 -443.5t-314 -294t-462.5 -102.5h-422zM518 1802h281l63 -133l107 133h286l-245 -297h-344zM528 303h72q211 0 340 131t129 367q0 160 -88 244.5t-244 84.5h-71z" />
<glyph unicode="&#x10f;" horiz-adv-x="1282" d="M125 442q0 184 77.5 334.5t218 238t316.5 87.5q107 0 176.5 -37.5t92.5 -71.5l81 488h343l-248 -1481h-320l15 84q-40 -38 -123 -74.5t-187 -36.5q-202 0 -322 130t-120 339zM471 485q0 -97 52 -155t141 -58q124 0 202 93t78 223q0 100 -51.5 156.5t-140.5 56.5 q-120 0 -200.5 -90.5t-80.5 -225.5zM1438 1124l73 357h283l-154 -357h-202z" />
<glyph unicode="&#x110;" horiz-adv-x="1359" d="M139 567l51 305h111l94 562h422q304 0 476.5 -158t172.5 -436q0 -252 -113 -443.5t-314 -294t-461 -102.5h-422l94 567h-111zM555 303h72q211 0 341 131t130 367q0 160 -88 244.5t-244 84.5h-72l-43 -258h189l-52 -305h-188z" />
<glyph unicode="&#x111;" horiz-adv-x="1280" d="M125 442q0 184 77.5 334.5t218 238t316.5 87.5q107 0 176.5 -37.5t92.5 -71.5l26 158h-258l35 211h258l20 119h343l-21 -119h113l-35 -211h-113l-192 -1151h-320l15 84q-40 -38 -123 -74.5t-187 -36.5q-202 0 -322 130t-120 339zM471 485q0 -97 52 -155t141 -58 q124 0 202 93t78 223q0 100 -51.5 156.5t-140.5 56.5q-120 0 -200.5 -90.5t-80.5 -225.5z" />
<glyph unicode="&#x112;" horiz-adv-x="993" d="M127 0l240 1434h763l-51 -314h-413l-41 -239h352l-51 -312h-353l-43 -256h431l-54 -313h-780zM489 1528l41 244h576l-41 -244h-576z" />
<glyph unicode="&#x113;" horiz-adv-x="1140" d="M125 446q0 130 49.5 250.5t133.5 209.5t202 142.5t248 53.5q216 0 330 -121.5t114 -339.5q0 -84 -26 -192h-705q-6 -74 49 -126.5t148 -52.5q84 0 148 38.5t95 76.5l197 -174q-14 -22 -40 -49t-72 -61.5t-100 -62t-129.5 -46.5t-154.5 -19q-153 0 -264.5 62.5t-167 168.5 t-55.5 242zM506 1210l41 244h575l-41 -244h-575zM516 666h348q8 67 -31 113t-116 46q-79 0 -131.5 -47.5t-69.5 -111.5z" />
<glyph unicode="&#x114;" horiz-adv-x="993" d="M127 0l240 1434h763l-51 -314h-413l-41 -239h352l-51 -312h-353l-43 -256h431l-54 -313h-780zM487 1825h232q-21 -117 74 -117t116 117h248q-24 -139 -128 -225.5t-261 -86.5q-155 0 -230 86.5t-51 225.5z" />
<glyph unicode="&#x115;" horiz-adv-x="1140" d="M125 446q0 130 49.5 250.5t133.5 209.5t202 142.5t248 53.5q216 0 330 -121.5t114 -339.5q0 -84 -26 -192h-705q-6 -74 49 -126.5t148 -52.5q84 0 148 38.5t95 76.5l197 -174q-14 -22 -40 -49t-72 -61.5t-100 -62t-129.5 -46.5t-154.5 -19q-153 0 -264.5 62.5t-167 168.5 t-55.5 242zM494 1495h231q-21 -117 74 -117t116 117h248q-24 -139 -128 -225t-261 -86q-155 0 -229.5 86t-50.5 225zM516 666h348q8 67 -31 113t-116 46q-79 0 -131.5 -47.5t-69.5 -111.5z" />
<glyph unicode="&#x116;" horiz-adv-x="993" d="M127 0l240 1434h763l-51 -314h-413l-41 -239h352l-51 -312h-353l-43 -256h431l-54 -313h-780zM625 1642q0 80 63.5 140.5t142.5 60.5q67 0 109.5 -44t42.5 -109q0 -79 -64.5 -140t-144.5 -61q-65 0 -107 44.5t-42 108.5z" />
<glyph unicode="&#x117;" horiz-adv-x="1140" d="M125 446q0 130 49.5 250.5t133.5 209.5t202 142.5t248 53.5q216 0 330 -121.5t114 -339.5q0 -84 -26 -192h-705q-6 -74 49 -126.5t148 -52.5q84 0 148 38.5t95 76.5l197 -174q-14 -22 -40 -49t-72 -61.5t-100 -62t-129.5 -46.5t-154.5 -19q-153 0 -264.5 62.5t-167 168.5 t-55.5 242zM516 666h348q8 67 -31 113t-116 46q-79 0 -131.5 -47.5t-69.5 -111.5zM629 1311q0 80 63.5 140t143.5 60q67 0 109 -44t42 -109q0 -79 -64.5 -140t-144.5 -61q-65 0 -107 45t-42 109z" />
<glyph unicode="&#x118;" horiz-adv-x="993" d="M127 0l240 1434h763l-51 -314h-413l-41 -239h352l-51 -312h-353l-43 -256h431l-54 -313q-116 -46 -116 -125q0 -33 24.5 -49t54.5 -16l-36 -226q-43 -16 -140 -16q-86 0 -144 43t-58 127q0 50 20.5 95.5t52.5 77.5t64 54t63 35h-565z" />
<glyph unicode="&#x119;" horiz-adv-x="1140" d="M125 446q0 130 49.5 250.5t133.5 209.5t202 142.5t248 53.5q216 0 330 -121.5t114 -339.5q0 -84 -26 -192h-705q-6 -74 49 -126.5t148 -52.5q84 0 148 38.5t95 76.5l197 -174q-31 -50 -114.5 -113.5t-196.5 -97.5q-115 -46 -115 -125q0 -33 24.5 -49t55.5 -16l-39 -226 q-43 -16 -139 -16q-86 0 -144.5 43t-58.5 127q0 143 156 239q-195 21 -303.5 149.5t-108.5 319.5zM516 666h348q8 67 -31 113t-116 46q-79 0 -131.5 -47.5t-69.5 -111.5z" />
<glyph unicode="&#x11a;" horiz-adv-x="993" d="M127 0l240 1434h763l-51 -314h-413l-41 -239h352l-51 -312h-353l-43 -256h431l-54 -313h-780zM463 1802h280l64 -133l106 133h287l-246 -297h-344z" />
<glyph unicode="&#x11b;" horiz-adv-x="1140" d="M125 446q0 130 49.5 250.5t133.5 209.5t202 142.5t248 53.5q216 0 330 -121.5t114 -339.5q0 -84 -26 -192h-705q-6 -74 49 -126.5t148 -52.5q84 0 148 38.5t95 76.5l197 -174q-14 -22 -40 -49t-72 -61.5t-100 -62t-129.5 -46.5t-154.5 -19q-153 0 -264.5 62.5t-167 168.5 t-55.5 242zM459 1485h280l64 -133l106 133h287l-246 -297h-344zM516 666h348q8 67 -31 113t-116 46q-79 0 -131.5 -47.5t-69.5 -111.5z" />
<glyph unicode="&#x11c;" horiz-adv-x="1542" d="M166 602q0 173 69 331.5t187 274t283 184t348 68.5q97 0 180.5 -17.5t139.5 -43.5t102.5 -62t72 -65.5t45.5 -61.5l-260 -229q-11 19 -33.5 42t-61 50.5t-98 45.5t-126.5 18q-213 0 -346 -139.5t-133 -344.5q0 -164 93 -260t244 -96q117 0 203 30t119 58l20 127h-247 l49 293h573l-102 -606q-74 -51 -136 -86t-147.5 -70t-188 -52.5t-220.5 -17.5q-134 0 -250 44.5t-199.5 124.5t-131.5 199t-48 261zM696 1505l246 297h344l148 -297h-279l-61 133l-109 -133h-289z" />
<glyph unicode="&#x11d;" horiz-adv-x="1269" d="M123 434q0 189 85 342.5t229.5 239.5t316.5 86q104 0 174.5 -36.5t97.5 -74.5l14 84h320l-158 -946q-19 -116 -66 -206.5t-111 -149t-147.5 -96.5t-171.5 -54t-188 -16q-108 0 -209 26t-172 66l144 262q135 -65 286 -65q253 0 281 159l4 27q-34 -34 -116 -71.5 t-189 -37.5q-199 0 -311.5 126.5t-112.5 334.5zM465 1188l246 297h344l147 -297h-278l-62 133l-108 -133h-289zM471 492q0 -98 51.5 -158t141.5 -60q120 0 200 86t80 226q0 94 -51 154.5t-143 60.5q-121 0 -200 -86t-79 -223z" />
<glyph unicode="&#x11e;" horiz-adv-x="1542" d="M166 602q0 173 69 331.5t187 274t283 184t348 68.5q97 0 180.5 -17.5t139.5 -43.5t102.5 -62t72 -65.5t45.5 -61.5l-260 -229q-11 19 -33.5 42t-61 50.5t-98 45.5t-126.5 18q-213 0 -346 -139.5t-133 -344.5q0 -164 93 -260t244 -96q117 0 203 30t119 58l20 127h-247 l49 293h573l-102 -606q-74 -51 -136 -86t-147.5 -70t-188 -52.5t-220.5 -17.5q-134 0 -250 44.5t-199.5 124.5t-131.5 199t-48 261zM788 1825h232q-21 -117 74 -117t116 117h248q-24 -139 -128 -225.5t-261 -86.5q-155 0 -230 86.5t-51 225.5z" />
<glyph unicode="&#x11f;" horiz-adv-x="1269" d="M123 434q0 189 85 342.5t229.5 239.5t316.5 86q104 0 174.5 -36.5t97.5 -74.5l14 84h320l-158 -946q-19 -116 -66 -206.5t-111 -149t-147.5 -96.5t-171.5 -54t-188 -16q-108 0 -209 26t-172 66l144 262q135 -65 286 -65q253 0 281 159l4 27q-34 -34 -116 -71.5 t-189 -37.5q-199 0 -311.5 126.5t-112.5 334.5zM471 492q0 -98 51.5 -158t141.5 -60q120 0 200 86t80 226q0 94 -51 154.5t-143 60.5q-121 0 -200 -86t-79 -223zM549 1495h231q-21 -117 74 -117q96 0 117 117h248q-24 -139 -128.5 -225t-261.5 -86q-155 0 -229.5 86 t-50.5 225z" />
<glyph unicode="&#x120;" horiz-adv-x="1542" d="M166 602q0 173 69 331.5t187 274t283 184t348 68.5q97 0 180.5 -17.5t139.5 -43.5t102.5 -62t72 -65.5t45.5 -61.5l-260 -229q-11 19 -33.5 42t-61 50.5t-98 45.5t-126.5 18q-213 0 -346 -139.5t-133 -344.5q0 -164 93 -260t244 -96q117 0 203 30t119 58l20 127h-247 l49 293h573l-102 -606q-74 -51 -136 -86t-147.5 -70t-188 -52.5t-220.5 -17.5q-134 0 -250 44.5t-199.5 124.5t-131.5 199t-48 261zM924 1642q0 80 63.5 140.5t142.5 60.5q67 0 109.5 -44t42.5 -109q0 -79 -64.5 -140t-144.5 -61q-65 0 -107 44.5t-42 108.5z" />
<glyph unicode="&#x121;" horiz-adv-x="1269" d="M123 434q0 189 85 342.5t229.5 239.5t316.5 86q104 0 174.5 -36.5t97.5 -74.5l14 84h320l-158 -946q-19 -116 -66 -206.5t-111 -149t-147.5 -96.5t-171.5 -54t-188 -16q-108 0 -209 26t-172 66l144 262q135 -65 286 -65q253 0 281 159l4 27q-34 -34 -116 -71.5 t-189 -37.5q-199 0 -311.5 126.5t-112.5 334.5zM471 492q0 -98 51.5 -158t141.5 -60q120 0 200 86t80 226q0 94 -51 154.5t-143 60.5q-121 0 -200 -86t-79 -223zM680 1311q0 80 63.5 140t143.5 60q67 0 109 -44t42 -109q0 -79 -64.5 -140t-144.5 -61q-65 0 -107 45t-42 109z " />
<glyph unicode="&#x122;" horiz-adv-x="1542" d="M166 602q0 173 69 331.5t187 274t283 184t348 68.5q97 0 180.5 -17.5t139.5 -43.5t102.5 -62t72 -65.5t45.5 -61.5l-260 -229q-11 19 -33.5 42t-61 50.5t-98 45.5t-126.5 18q-213 0 -346 -139.5t-133 -344.5q0 -164 93 -260t244 -96q117 0 203 30t119 58l20 127h-247 l49 293h573l-102 -606q-74 -51 -136 -86t-147.5 -70t-188 -52.5t-220.5 -17.5q-134 0 -250 44.5t-199.5 124.5t-131.5 199t-48 261zM588 -526q97 62 137 131q-54 13 -81.5 53t-27.5 90q0 80 63.5 138.5t143.5 58.5q70 0 113 -45.5t43 -120.5q0 -117 -82.5 -236.5 t-206.5 -193.5z" />
<glyph unicode="&#x123;" horiz-adv-x="1269" d="M123 434q0 189 85 342.5t229.5 239.5t316.5 86q104 0 174.5 -36.5t97.5 -74.5l14 84h320l-158 -946q-19 -116 -66 -206.5t-111 -149t-147.5 -96.5t-171.5 -54t-188 -16q-108 0 -209 26t-172 66l144 262q135 -65 286 -65q253 0 281 159l4 27q-34 -34 -116 -71.5 t-189 -37.5q-199 0 -311.5 126.5t-112.5 334.5zM471 492q0 -98 51.5 -158t141.5 -60q120 0 200 86t80 226q0 94 -51 154.5t-143 60.5q-121 0 -200 -86t-79 -223zM670 1329q0 117 82.5 236.5t205.5 193.5l103 -125q-97 -62 -137 -131q54 -13 81 -53t27 -90 q0 -80 -63.5 -138.5t-143.5 -58.5q-70 0 -112.5 45.5t-42.5 120.5z" />
<glyph unicode="&#x124;" horiz-adv-x="1466" d="M127 0l240 1434h350l-92 -557h512l92 557h350l-240 -1434h-350l94 561h-512l-94 -561h-350zM625 1505l245 297h344l148 -297h-279l-61 133l-109 -133h-288z" />
<glyph unicode="&#x125;" horiz-adv-x="1165" d="M98 0l248 1481h342l-86 -516q45 55 120.5 96t168.5 41q70 0 123.5 -17t87 -44.5t54.5 -69t29.5 -83.5t8.5 -96t-4.5 -98.5t-13.5 -97.5l-101 -596h-342l107 641q12 73 -20 113.5t-95 40.5q-69 0 -118 -44t-60 -110l-107 -641h-342zM502 1536l246 297h344l147 -297h-278 l-62 133l-108 -133h-289z" />
<glyph unicode="&#x126;" horiz-adv-x="1466" d="M127 0l174 1042h-115l39 232h115l27 160h350l-27 -160h512l27 160h350l-27 -160h115l-39 -232h-115l-174 -1042h-350l94 561h-512l-94 -561h-350zM625 877h512l26 165h-512z" />
<glyph unicode="&#x127;" horiz-adv-x="1165" d="M98 0l195 1165h-92l35 211h92l18 105h342l-18 -105h268l-35 -211h-268l-33 -200q45 55 120.5 96t168.5 41q70 0 123.5 -17t87 -44.5t54.5 -69t29.5 -83.5t8.5 -96t-4.5 -98.5t-13.5 -97.5l-101 -596h-342l107 641q12 73 -20 113.5t-95 40.5q-69 0 -118 -44t-60 -110 l-107 -641h-342z" />
<glyph unicode="&#x128;" horiz-adv-x="604" d="M127 0l240 1434h350l-240 -1434h-350zM170 1507q20 134 103.5 218.5t193.5 84.5q50 0 96.5 -17t82.5 -33.5t61 -16.5q56 0 69 69h215q-20 -137 -102 -220t-191 -83q-48 0 -94.5 17t-84 34t-62.5 17q-60 0 -72 -70h-215z" />
<glyph unicode="&#x129;" d="M88 1186q20 134 103.5 218.5t193.5 84.5q50 0 96.5 -17t82.5 -34t61 -17q56 0 69 70h215q-20 -137 -102 -220t-191 -83q-48 0 -94.5 17t-84 33.5t-62.5 16.5q-60 0 -72 -69h-215zM98 0l181 1075h342l-181 -1075h-342z" />
<glyph unicode="&#x12a;" horiz-adv-x="604" d="M127 0l240 1434h350l-240 -1434h-350zM268 1528l41 244h576l-41 -244h-576z" />
<glyph unicode="&#x12b;" d="M98 0l181 1075h342l-181 -1075h-342zM186 1210l41 244h576l-41 -244h-576z" />
<glyph unicode="&#x12c;" horiz-adv-x="604" d="M127 0l240 1434h350l-240 -1434h-350zM274 1825h232q-21 -117 74 -117t116 117h248q-24 -139 -128 -225.5t-261 -86.5q-155 0 -230 86.5t-51 225.5z" />
<glyph unicode="&#x12d;" d="M98 0l181 1075h342l-181 -1075h-342zM188 1495h232q-21 -117 74 -117t116 117h248q-24 -139 -128 -225t-261 -86q-156 0 -230.5 86t-50.5 225z" />
<glyph unicode="&#x12e;" horiz-adv-x="604" d="M61 -262q0 50 20.5 95.5t53.5 77.5t64.5 54t62.5 35h-135l242 1434h350l-242 -1434q-115 -46 -115 -125q0 -33 24.5 -49t55.5 -16l-39 -226q-43 -16 -139 -16q-86 0 -144.5 43t-58.5 127z" />
<glyph unicode="&#x12f;" d="M25 -262q0 50 20.5 95.5t53 77.5t64 54t62.5 35h-127l181 1075h342l-181 -1075q-114 -46 -114 -125q0 -33 24.5 -49t55.5 -16l-39 -226q-43 -16 -140 -16q-86 0 -144 43t-58 127zM291 1294q0 90 69 157t160 67q73 0 120.5 -49.5t47.5 -120.5q0 -88 -71.5 -155t-161.5 -67 q-72 0 -118 49t-46 119z" />
<glyph unicode="&#x130;" horiz-adv-x="604" d="M127 0l240 1434h350l-240 -1434h-350zM408 1642q0 80 63.5 140.5t142.5 60.5q67 0 109.5 -44t42.5 -109q0 -79 -64.5 -140t-144.5 -61q-65 0 -107 44.5t-42 108.5z" />
<glyph unicode="&#x131;" d="M98 0l181 1075h342l-181 -1075h-342z" />
<glyph unicode="&#x132;" horiz-adv-x="1400" d="M127 0l240 1434h350l-240 -1434h-350zM645 10l92 309q55 -10 109 -10q64 0 102.5 36t48.5 93l166 996h353l-179 -1061q-18 -105 -65.5 -181.5t-116.5 -120t-147.5 -63.5t-169.5 -20q-103 0 -193 22z" />
<glyph unicode="&#x133;" horiz-adv-x="1077" d="M98 0l181 1075h342l-181 -1075h-342zM295 1298q0 89 66 151t157 62q74 0 120 -44.5t46 -114.5q0 -88 -67.5 -149.5t-159.5 -61.5q-72 0 -117 44t-45 113zM387 -387l49 289q24 -4 47 -4q139 0 156 114l178 1063h340l-180 -1079q-18 -105 -64.5 -182t-116 -121.5 t-152.5 -65t-183 -20.5zM834 1298q0 90 65.5 151.5t157.5 61.5q73 0 118.5 -44t45.5 -115q0 -88 -67 -149.5t-159 -61.5q-73 0 -117 43.5t-44 113.5z" />
<glyph unicode="&#x134;" horiz-adv-x="796" d="M41 10l92 309q55 -10 109 -10q64 0 102.5 36t48.5 93l166 996h352l-178 -1061q-18 -105 -65.5 -181.5t-117 -120t-148 -63.5t-169.5 -20q-102 0 -192 22zM346 1505l246 297h344l147 -297h-278l-62 133l-108 -133h-289z" />
<glyph unicode="&#x135;" d="M-152 -387l50 289q24 -4 47 -4q138 0 155 114l179 1063h339l-180 -1079q-18 -105 -64.5 -182t-116 -121.5t-152.5 -65t-183 -20.5zM100 1188l246 297h344l148 -297h-279l-61 133l-109 -133h-289z" />
<glyph unicode="&#x136;" horiz-adv-x="1310" d="M127 0l240 1434h350l-92 -553l510 553h391l-652 -705l422 -729h-401l-322 578l-96 -578h-350zM406 -526q97 62 137 131q-54 13 -81.5 53t-27.5 90q0 80 63.5 138.5t143.5 58.5q70 0 113 -45.5t43 -120.5q0 -117 -82.5 -236.5t-206.5 -193.5z" />
<glyph unicode="&#x137;" horiz-adv-x="1144" d="M98 0l248 1481h342l-139 -838l354 432h391l-430 -504l277 -571h-381l-236 502l-84 -502h-342zM322 -526q97 62 137 131q-54 13 -81.5 53t-27.5 90q0 80 63.5 138.5t143.5 58.5q70 0 113 -45.5t43 -120.5q0 -117 -82.5 -236.5t-206.5 -193.5z" />
<glyph unicode="&#x138;" horiz-adv-x="1144" d="M98 0l181 1075h342l-72 -432l354 432h391l-430 -504l277 -571h-381l-236 502l-84 -502h-342z" />
<glyph unicode="&#x139;" horiz-adv-x="937" d="M127 0l240 1434h350l-187 -1121h431l-54 -313h-780zM410 1505l184 297h354l-254 -297h-284z" />
<glyph unicode="&#x13a;" d="M98 0l248 1481h342l-248 -1481h-342zM385 1536l184 297h355l-254 -297h-285z" />
<glyph unicode="&#x13b;" horiz-adv-x="937" d="M127 0l240 1434h350l-187 -1121h431l-54 -313h-780zM242 -526q97 62 137 131q-54 13 -81.5 53t-27.5 90q0 80 63.5 138.5t143.5 58.5q70 0 113 -45.5t43 -120.5q0 -117 -82.5 -236.5t-206.5 -193.5z" />
<glyph unicode="&#x13c;" d="M20 -526q99 63 138 131q-54 13 -81.5 53t-27.5 90q0 80 63.5 138.5t143.5 58.5q70 0 113 -45.5t43 -120.5q0 -117 -82.5 -236.5t-206.5 -193.5zM98 0l248 1481h342l-248 -1481h-342z" />
<glyph unicode="&#x13d;" horiz-adv-x="940" d="M127 0l240 1434h350l-187 -1121h431l-54 -313h-780zM776 1077l74 357h283l-154 -357h-203z" />
<glyph unicode="&#x13e;" horiz-adv-x="544" d="M98 0l248 1481h342l-248 -1481h-342zM702 1124l74 357h283l-154 -357h-203z" />
<glyph unicode="&#x13f;" horiz-adv-x="937" d="M127 0l240 1434h350l-187 -1121h431l-54 -313h-780zM698 727q0 93 72.5 162t167.5 69q75 0 124.5 -51.5t49.5 -126.5q0 -91 -74.5 -160t-167.5 -69q-75 0 -123.5 50.5t-48.5 125.5z" />
<glyph unicode="&#x140;" horiz-adv-x="905" d="M98 0l248 1481h342l-248 -1481h-342zM659 727q0 93 72.5 162t167.5 69q75 0 124.5 -51.5t49.5 -126.5q0 -91 -74.5 -160t-167.5 -69q-75 0 -123.5 50.5t-48.5 125.5z" />
<glyph unicode="&#x141;" horiz-adv-x="937" d="M72 348l53 320l123 61l119 705h350l-86 -512l221 112l-57 -342l-222 -108l-45 -271h430l-51 -313h-780l68 410z" />
<glyph unicode="&#x142;" horiz-adv-x="657" d="M121 418l55 332l109 55l112 676h342l-80 -477l129 67l-55 -330l-129 -67l-112 -674h-342l81 481z" />
<glyph unicode="&#x143;" horiz-adv-x="1470" d="M123 0l239 1434h357l377 -889l147 889h344l-239 -1434h-349l-385 879l-147 -879h-344zM840 1505l184 297h354l-254 -297h-284z" />
<glyph unicode="&#x144;" horiz-adv-x="1161" d="M98 0l181 1075h333l-18 -110q44 55 122 96t171 41q70 0 123.5 -17t86.5 -44.5t54 -69t29.5 -83.5t9 -96t-4.5 -98.5t-14 -97.5l-100 -596h-342l107 641q12 73 -20 113.5t-95 40.5q-69 0 -116 -43.5t-58 -110.5l-107 -641h-342zM627 1188l184 297h354l-254 -297h-284z" />
<glyph unicode="&#x145;" horiz-adv-x="1470" d="M123 0l239 1434h357l377 -889l147 889h344l-239 -1434h-349l-385 879l-147 -879h-344zM485 -526q99 63 138 131q-54 13 -81.5 53t-27.5 90q0 80 63.5 138.5t143.5 58.5q70 0 113 -45.5t43 -120.5q0 -117 -82.5 -236.5t-206.5 -193.5z" />
<glyph unicode="&#x146;" horiz-adv-x="1161" d="M98 0l181 1075h333l-18 -110q44 55 122 96t171 41q70 0 123.5 -17t86.5 -44.5t54 -69t29.5 -83.5t9 -96t-4.5 -98.5t-14 -97.5l-100 -596h-342l107 641q12 73 -20 113.5t-95 40.5q-69 0 -116 -43.5t-58 -110.5l-107 -641h-342zM332 -526q97 62 137 131q-54 13 -81.5 53 t-27.5 90q0 80 63.5 138.5t143.5 58.5q70 0 113 -45.5t43 -120.5q0 -117 -82.5 -236.5t-206.5 -193.5z" />
<glyph unicode="&#x147;" horiz-adv-x="1470" d="M123 0l239 1434h357l377 -889l147 889h344l-239 -1434h-349l-385 879l-147 -879h-344zM684 1802h281l63 -133l107 133h286l-245 -297h-345z" />
<glyph unicode="&#x148;" horiz-adv-x="1161" d="M98 0l181 1075h333l-18 -110q44 55 122 96t171 41q70 0 123.5 -17t86.5 -44.5t54 -69t29.5 -83.5t9 -96t-4.5 -98.5t-14 -97.5l-100 -596h-342l107 641q12 73 -20 113.5t-95 40.5q-69 0 -116 -43.5t-58 -110.5l-107 -641h-342zM459 1485h280l64 -133l106 133h287 l-246 -297h-344z" />
<glyph unicode="&#x149;" horiz-adv-x="1368" d="M104 1032q99 63 138 131q-54 13 -81.5 53.5t-27.5 90.5q0 80 63.5 138t143.5 58q70 0 113 -45.5t43 -120.5q0 -117 -82.5 -236.5t-206.5 -193.5zM305 0l180 1075h334l-18 -110q44 55 122 96t171 41q70 0 123.5 -17t86.5 -44.5t54 -69t29.5 -83.5t9 -96t-4.5 -98.5 t-14 -97.5l-100 -596h-342l106 641q12 73 -19.5 113.5t-94.5 40.5q-69 0 -116 -43.5t-58 -110.5l-107 -641h-342z" />
<glyph unicode="&#x14a;" horiz-adv-x="1470" d="M123 0l239 1434h357l377 -889l147 889h344l-241 -1442q-18 -105 -65.5 -181.5t-116 -120t-147 -63.5t-169.5 -20q-103 0 -193 22l93 310q74 -11 108 -11q108 0 143 72l-385 879l-147 -879h-344z" />
<glyph unicode="&#x14b;" horiz-adv-x="1161" d="M98 0l181 1075h333l-18 -110q44 55 122 96t171 41q70 0 123.5 -17t86.5 -44.5t54 -69t29.5 -83.5t9 -96t-4.5 -98.5t-14 -97.5l-100 -600q-18 -105 -64.5 -182t-116 -121.5t-152.5 -65t-183 -20.5q-22 0 -48 2t-28 2l49 287h50q124 0 151 102l107 641q12 73 -20 113.5 t-95 40.5q-69 0 -116 -43.5t-58 -110.5l-107 -641h-342z" />
<glyph unicode="&#x14c;" horiz-adv-x="1613" d="M164 604q0 174 68 331.5t185 273t282.5 183.5t351.5 68q196 0 343 -83.5t222.5 -225t75.5 -320.5q0 -174 -68 -332t-185.5 -274t-283 -184t-352.5 -68q-196 0 -342.5 83t-221.5 225t-75 323zM532 649q0 -154 88.5 -251t237.5 -97q193 0 328 141t135 344q0 152 -88 249.5 t-236 97.5q-128 0 -235 -64.5t-168.5 -176t-61.5 -243.5zM774 1528l41 244h576l-41 -244h-576z" />
<glyph unicode="&#x14d;" horiz-adv-x="1259" d="M123 451q0 179 94.5 329.5t252.5 236t341 85.5q229 0 366.5 -133.5t137.5 -345.5q0 -179 -94 -329t-253 -235.5t-345 -85.5q-226 0 -363 134t-137 344zM469 489q0 -97 56 -156t147 -59q121 0 209 89.5t88 218.5q0 98 -58 158.5t-151 60.5q-121 0 -206 -90t-85 -222z M545 1210l41 244h575l-41 -244h-575z" />
<glyph unicode="&#x14e;" horiz-adv-x="1613" d="M164 604q0 174 68 331.5t185 273t282.5 183.5t351.5 68q196 0 343 -83.5t222.5 -225t75.5 -320.5q0 -174 -68 -332t-185.5 -274t-283 -184t-352.5 -68q-196 0 -342.5 83t-221.5 225t-75 323zM532 649q0 -154 88.5 -251t237.5 -97q193 0 328 141t135 344q0 152 -88 249.5 t-236 97.5q-128 0 -235 -64.5t-168.5 -176t-61.5 -243.5zM776 1825h232q-21 -117 73 -117q96 0 117 117h248q-24 -139 -128 -225.5t-261 -86.5q-155 0 -230 86.5t-51 225.5z" />
<glyph unicode="&#x14f;" horiz-adv-x="1259" d="M123 451q0 179 94.5 329.5t252.5 236t341 85.5q229 0 366.5 -133.5t137.5 -345.5q0 -179 -94 -329t-253 -235.5t-345 -85.5q-226 0 -363 134t-137 344zM469 489q0 -97 56 -156t147 -59q121 0 209 89.5t88 218.5q0 98 -58 158.5t-151 60.5q-121 0 -206 -90t-85 -222z M545 1495h231q-21 -117 74 -117q96 0 117 117h247q-24 -139 -128 -225t-261 -86q-155 0 -229.5 86t-50.5 225z" />
<glyph unicode="&#x150;" horiz-adv-x="1613" d="M164 604q0 174 68 331.5t185 273t282.5 183.5t351.5 68q196 0 343 -83.5t222.5 -225t75.5 -320.5q0 -174 -68 -332t-185.5 -274t-283 -184t-352.5 -68q-196 0 -342.5 83t-221.5 225t-75 323zM532 649q0 -154 88.5 -251t237.5 -97q193 0 328 141t135 344q0 152 -88 249.5 t-236 97.5q-128 0 -235 -64.5t-168.5 -176t-61.5 -243.5zM717 1505l184 297h322l-254 -297h-252zM1112 1505l184 297h322l-254 -297h-252z" />
<glyph unicode="&#x151;" horiz-adv-x="1259" d="M123 451q0 179 94.5 329.5t252.5 236t341 85.5q229 0 366.5 -133.5t137.5 -345.5q0 -179 -94 -329t-253 -235.5t-345 -85.5q-226 0 -363 134t-137 344zM469 489q0 -97 56 -156t147 -59q121 0 209 89.5t88 218.5q0 98 -58 158.5t-151 60.5q-121 0 -206 -90t-85 -222z M496 1188l184 297h321l-253 -297h-252zM891 1188l184 297h322l-254 -297h-252z" />
<glyph unicode="&#x152;" horiz-adv-x="2064" d="M164 604q0 174 68 331.5t185 273t282.5 183.5t351.5 68q110 0 209 -26h942l-52 -314h-516q49 -114 52 -239h362l-51 -312h-359q-47 -133 -139 -256h533l-54 -313h-958q-115 -27 -217 -27q-196 0 -342.5 83t-221.5 225t-75 323zM532 649q0 -154 88.5 -251t237.5 -97 q193 0 328 141t135 344q0 152 -88 249.5t-236 97.5q-128 0 -235 -64.5t-168.5 -176t-61.5 -243.5z" />
<glyph unicode="&#x153;" horiz-adv-x="1957" d="M123 451q0 179 94.5 329.5t252.5 236t341 85.5q243 0 383 -146q165 146 381 146q215 0 328.5 -121.5t113.5 -339.5q0 -84 -26 -192h-705q-6 -74 50 -126.5t149 -52.5q84 0 148.5 38.5t95.5 76.5l196 -174q-19 -29 -57.5 -64.5t-100.5 -77t-152 -69t-188 -27.5 q-245 0 -374 148q-89 -70 -200.5 -109t-231.5 -39q-225 0 -361.5 134t-136.5 344zM469 489q0 -97 55.5 -156t147.5 -59q121 0 209 89.5t88 218.5q0 98 -58 158.5t-151 60.5q-121 0 -206 -90t-85 -222zM1333 666h348q8 67 -31 113t-116 46q-79 0 -131.5 -47.5t-69.5 -111.5z " />
<glyph unicode="&#x154;" horiz-adv-x="1239" d="M127 0l240 1434h467q219 0 328.5 -91.5t109.5 -265.5q0 -148 -73 -273.5t-200 -189.5l195 -525q16 -43 33 -89h-387l-168 530h-107l-88 -530h-350zM614 823h105q84 0 135 52t51 139q0 119 -149 119h-88zM641 1505l184 297h355l-254 -297h-285z" />
<glyph unicode="&#x155;" horiz-adv-x="755" d="M98 0l181 1075h333l-24 -143q54 80 134.5 125t178.5 45l-57 -348q-28 4 -56 4q-221 0 -268 -283l-80 -475h-342zM444 1188l185 297h354l-254 -297h-285z" />
<glyph unicode="&#x156;" horiz-adv-x="1239" d="M127 0l240 1434h467q219 0 328.5 -91.5t109.5 -265.5q0 -148 -73 -273.5t-200 -189.5l195 -525q16 -43 33 -89h-387l-168 530h-107l-88 -530h-350zM369 -526q97 62 137 131q-54 13 -81.5 53t-27.5 90q0 80 63.5 138.5t143.5 58.5q70 0 113 -45.5t43 -120.5 q0 -117 -82.5 -236.5t-206.5 -193.5zM614 823h105q84 0 135 52t51 139q0 119 -149 119h-88z" />
<glyph unicode="&#x157;" horiz-adv-x="755" d="M80 -526q97 62 137 131q-54 13 -81 53t-27 90q0 80 63 138.5t143 58.5q70 0 113 -45.5t43 -120.5q0 -117 -82.5 -236.5t-206.5 -193.5zM98 0l181 1075h333l-24 -143q54 80 134.5 125t178.5 45l-57 -348q-28 4 -56 4q-221 0 -268 -283l-80 -475h-342z" />
<glyph unicode="&#x158;" horiz-adv-x="1239" d="M127 0l240 1434h467q219 0 328.5 -91.5t109.5 -265.5q0 -148 -73 -273.5t-200 -189.5l195 -525q16 -43 33 -89h-387l-168 530h-107l-88 -530h-350zM496 1802h280l64 -133l106 133h287l-246 -297h-344zM614 823h105q84 0 135 52t51 139q0 119 -149 119h-88z" />
<glyph unicode="&#x159;" horiz-adv-x="755" d="M98 0l181 1075h333l-24 -143q54 80 134.5 125t178.5 45l-57 -348q-28 4 -56 4q-221 0 -268 -283l-80 -475h-342zM258 1485h281l63 -133l107 133h286l-245 -297h-344z" />
<glyph unicode="&#x15a;" horiz-adv-x="1083" d="M88 315l318 146q20 -68 69.5 -114t118.5 -46q67 0 106 31t39 82q0 33 -27.5 63.5t-71 56.5t-97 54.5t-106.5 65t-96.5 81t-71 109.5t-27.5 143q0 99 38.5 186t106.5 150.5t168 100t217 36.5q88 0 160.5 -24.5t118.5 -60.5t80 -83t49.5 -87t21.5 -77l-303 -133 q-41 142 -170 142q-55 0 -92 -31.5t-37 -77.5q0 -34 27.5 -64.5t72 -57t98 -54.5t107 -63.5t98 -78t72 -105.5t27.5 -138q0 -103 -37.5 -193t-107 -157t-175.5 -105.5t-235 -38.5q-92 0 -169.5 25.5t-126.5 63.5t-86 86t-54 89t-23 78zM623 1505l184 297h354l-254 -297h-284 z" />
<glyph unicode="&#x15b;" horiz-adv-x="909" d="M55 158l224 186q90 -94 219 -94q52 0 81 17t29 48q0 22 -23.5 40t-60.5 33t-82 32.5t-90 43t-82 58.5t-60.5 86t-23.5 119q0 168 130.5 271.5t326.5 103.5q137 0 231 -53.5t142 -130.5l-250 -175q-69 84 -164 84q-40 0 -64 -16.5t-24 -42.5q0 -24 23.5 -42.5t61.5 -33.5 t83.5 -31t91 -40t83.5 -55.5t61.5 -83t23.5 -117.5q0 -183 -137.5 -287.5t-347.5 -104.5q-140 0 -241 53.5t-161 131.5zM489 1188l185 297h354l-254 -297h-285z" />
<glyph unicode="&#x15c;" horiz-adv-x="1083" d="M88 315l318 146q20 -68 69.5 -114t118.5 -46q67 0 106 31t39 82q0 33 -27.5 63.5t-71 56.5t-97 54.5t-106.5 65t-96.5 81t-71 109.5t-27.5 143q0 99 38.5 186t106.5 150.5t168 100t217 36.5q88 0 160.5 -24.5t118.5 -60.5t80 -83t49.5 -87t21.5 -77l-303 -133 q-41 142 -170 142q-55 0 -92 -31.5t-37 -77.5q0 -34 27.5 -64.5t72 -57t98 -54.5t107 -63.5t98 -78t72 -105.5t27.5 -138q0 -103 -37.5 -193t-107 -157t-175.5 -105.5t-235 -38.5q-92 0 -169.5 25.5t-126.5 63.5t-86 86t-54 89t-23 78zM434 1505l246 297h344l147 -297h-278 l-62 133l-108 -133h-289z" />
<glyph unicode="&#x15d;" horiz-adv-x="909" d="M55 158l224 186q90 -94 219 -94q52 0 81 17t29 48q0 22 -23.5 40t-60.5 33t-82 32.5t-90 43t-82 58.5t-60.5 86t-23.5 119q0 168 130.5 271.5t326.5 103.5q137 0 231 -53.5t142 -130.5l-250 -175q-69 84 -164 84q-40 0 -64 -16.5t-24 -42.5q0 -24 23.5 -42.5t61.5 -33.5 t83.5 -31t91 -40t83.5 -55.5t61.5 -83t23.5 -117.5q0 -183 -137.5 -287.5t-347.5 -104.5q-140 0 -241 53.5t-161 131.5zM311 1188l246 297h344l148 -297h-279l-61 133l-109 -133h-289z" />
<glyph unicode="&#x15e;" horiz-adv-x="1083" d="M88 315l318 146q20 -68 69.5 -114t118.5 -46q67 0 106 31t39 82q0 33 -27.5 63.5t-71 56.5t-97 54.5t-106.5 65t-96.5 81t-71 109.5t-27.5 143q0 99 38.5 186t106.5 150.5t168 100t217 36.5q88 0 160.5 -24.5t118.5 -60.5t80 -83t49.5 -87t21.5 -77l-303 -133 q-41 142 -170 142q-55 0 -92 -31.5t-37 -77.5q0 -34 27.5 -64.5t72 -57t98 -54.5t107 -63.5t98 -78t72 -105.5t27.5 -138q0 -199 -132.5 -336t-361.5 -154l-14 -49q55 -12 89 -56.5t34 -102.5q0 -123 -86 -188.5t-219 -65.5q-66 0 -131 24l67 164q40 -10 70 -10 q35 0 60.5 18t25.5 45q0 25 -25 36t-59 11l-39 -2l59 183q-69 12 -127.5 41.5t-96.5 65.5t-66.5 78.5t-42.5 78t-19 67.5z" />
<glyph unicode="&#x15f;" horiz-adv-x="909" d="M55 158l224 186q90 -94 219 -94q52 0 81 17t29 48q0 22 -23.5 40t-60.5 33t-82 32.5t-90 43t-82 58.5t-60.5 86t-23.5 119q0 168 130.5 271.5t326.5 103.5q137 0 231 -53.5t142 -130.5l-250 -175q-69 84 -164 84q-40 0 -64 -16.5t-24 -42.5q0 -24 23.5 -42.5t61.5 -33.5 t83.5 -31t91 -40t83.5 -55.5t61.5 -83t23.5 -117.5q0 -166 -116 -268t-300 -120l-14 -49q55 -12 89 -56.5t34 -102.5q0 -123 -86 -188.5t-219 -65.5q-66 0 -131 24l67 164q40 -10 70 -10q35 0 60.5 18t25.5 45q0 25 -25 36t-59 11l-39 -2l59 181q-197 33 -303 176z" />
<glyph unicode="&#x160;" horiz-adv-x="1083" d="M88 315l318 146q20 -68 69.5 -114t118.5 -46q67 0 106 31t39 82q0 33 -27.5 63.5t-71 56.5t-97 54.5t-106.5 65t-96.5 81t-71 109.5t-27.5 143q0 99 38.5 186t106.5 150.5t168 100t217 36.5q88 0 160.5 -24.5t118.5 -60.5t80 -83t49.5 -87t21.5 -77l-303 -133 q-41 142 -170 142q-55 0 -92 -31.5t-37 -77.5q0 -34 27.5 -64.5t72 -57t98 -54.5t107 -63.5t98 -78t72 -105.5t27.5 -138q0 -103 -37.5 -193t-107 -157t-175.5 -105.5t-235 -38.5q-92 0 -169.5 25.5t-126.5 63.5t-86 86t-54 89t-23 78zM473 1802h281l63 -133l107 133h286 l-245 -297h-344z" />
<glyph unicode="&#x161;" horiz-adv-x="909" d="M55 158l224 186q90 -94 219 -94q52 0 81 17t29 48q0 22 -23.5 40t-60.5 33t-82 32.5t-90 43t-82 58.5t-60.5 86t-23.5 119q0 168 130.5 271.5t326.5 103.5q137 0 231 -53.5t142 -130.5l-250 -175q-69 84 -164 84q-40 0 -64 -16.5t-24 -42.5q0 -24 23.5 -42.5t61.5 -33.5 t83.5 -31t91 -40t83.5 -55.5t61.5 -83t23.5 -117.5q0 -183 -137.5 -287.5t-347.5 -104.5q-140 0 -241 53.5t-161 131.5zM350 1485h281l63 -133l107 133h286l-245 -297h-344z" />
<glyph unicode="&#x162;" horiz-adv-x="1046" d="M227 1120l54 314h968l-53 -314h-309l-189 -1120h-114l-23 -72q55 -12 89 -56.5t34 -102.5q0 -123 -86 -188.5t-219 -65.5q-66 0 -131 24l67 164q40 -10 70 -10q35 0 60.5 18t25.5 45q0 25 -25 36t-59 11l-39 -2l66 199h-66l189 1120h-310z" />
<glyph unicode="&#x163;" horiz-adv-x="720" d="M145 -461l68 164q40 -10 70 -10q35 0 60.5 18t25.5 45q0 25 -25 36t-59 11l-39 -2l73 222q-175 88 -122 397l63 379h-104l47 276h104l37 228h342l-37 -228h182l-47 -276h-182l-65 -396q-20 -116 112 -116q35 0 58 2l-50 -293q-47 -12 -133 -12q-8 0 -24.5 1t-24.5 1 l-16 -58q55 -12 89 -56.5t34 -102.5q0 -123 -86.5 -188.5t-219.5 -65.5q-66 0 -131 24z" />
<glyph unicode="&#x164;" horiz-adv-x="1046" d="M227 1120l54 314h968l-53 -314h-309l-189 -1120h-350l189 1120h-310zM461 1802h280l64 -133l106 133h287l-246 -297h-344z" />
<glyph unicode="&#x165;" horiz-adv-x="722" d="M156 799l47 276h104l37 228h342l-37 -228h182l-47 -276h-182l-65 -396q-20 -116 112 -116q35 0 58 2l-50 -293q-47 -12 -133 -12q-198 0 -281.5 102t-45.5 334l63 379h-104zM764 1124l74 357h282l-153 -357h-203z" />
<glyph unicode="&#x166;" horiz-adv-x="1046" d="M221 602l43 252h228l43 266h-310l54 314h968l-53 -314h-309l-43 -266h233l-43 -252h-233l-101 -602h-350l101 602h-228z" />
<glyph unicode="&#x167;" horiz-adv-x="720" d="M88 453l37 219h113l22 127h-104l47 276h104l37 228h342l-37 -228h182l-47 -276h-182l-22 -127h163l-36 -219h-162l-8 -50q-20 -116 112 -116q35 0 58 2l-50 -293q-47 -12 -133 -12q-198 0 -281.5 102t-45.5 334l4 33h-113z" />
<glyph unicode="&#x168;" horiz-adv-x="1441" d="M215 551l147 883h351l-148 -883q-20 -117 35 -184.5t172 -67.5q118 0 193.5 67.5t95.5 186.5l147 881h351l-148 -881q-42 -257 -228.5 -417.5t-465.5 -160.5q-283 0 -414.5 157t-87.5 419zM602 1507q20 134 103.5 218.5t193.5 84.5q50 0 96.5 -17t82.5 -33.5t61 -16.5 q56 0 69 69h215q-20 -137 -102 -220t-191 -83q-48 0 -94.5 17t-84 34t-62.5 17q-60 0 -72 -70h-215z" />
<glyph unicode="&#x169;" horiz-adv-x="1153" d="M152 283q0 54 4.5 98.5t13.5 97.5l100 596h342l-106 -641q-12 -73 20 -113t95 -40q69 0 116 43.5t58 109.5l106 641h342l-180 -1075h-334l19 111q-45 -55 -122.5 -96.5t-170.5 -41.5q-70 0 -123.5 17t-87 44.5t-54.5 69t-29.5 83.5t-8.5 96zM395 1186q20 134 103.5 218.5 t193.5 84.5q50 0 96.5 -17t82.5 -34t61 -17q56 0 69 70h216q-20 -137 -102 -220t-191 -83q-48 0 -95 17t-84.5 33.5t-62.5 16.5q-60 0 -72 -69h-215z" />
<glyph unicode="&#x16a;" horiz-adv-x="1441" d="M215 551l147 883h351l-148 -883q-20 -117 35 -184.5t172 -67.5q118 0 193.5 67.5t95.5 186.5l147 881h351l-148 -881q-42 -257 -228.5 -417.5t-465.5 -160.5q-283 0 -414.5 157t-87.5 419zM688 1528l41 244h576l-41 -244h-576z" />
<glyph unicode="&#x16b;" horiz-adv-x="1153" d="M152 283q0 54 4.5 98.5t13.5 97.5l100 596h342l-106 -641q-12 -73 20 -113t95 -40q69 0 116 43.5t58 109.5l106 641h342l-180 -1075h-334l19 111q-45 -55 -122.5 -96.5t-170.5 -41.5q-70 0 -123.5 17t-87 44.5t-54.5 69t-29.5 83.5t-8.5 96zM500 1210l41 244h575 l-41 -244h-575z" />
<glyph unicode="&#x16c;" horiz-adv-x="1441" d="M215 551l147 883h351l-148 -883q-20 -117 35 -184.5t172 -67.5q118 0 193.5 67.5t95.5 186.5l147 881h351l-148 -881q-42 -257 -228.5 -417.5t-465.5 -160.5q-283 0 -414.5 157t-87.5 419zM707 1825h231q-21 -117 74 -117t116 117h248q-24 -139 -128 -225.5t-261 -86.5 q-155 0 -229.5 86.5t-50.5 225.5z" />
<glyph unicode="&#x16d;" horiz-adv-x="1153" d="M152 283q0 54 4.5 98.5t13.5 97.5l100 596h342l-106 -641q-12 -73 20 -113t95 -40q69 0 116 43.5t58 109.5l106 641h342l-180 -1075h-334l19 111q-45 -55 -122.5 -96.5t-170.5 -41.5q-70 0 -123.5 17t-87 44.5t-54.5 69t-29.5 83.5t-8.5 96zM498 1495h231 q-21 -117 74 -117q96 0 117 117h247q-24 -139 -128 -225t-261 -86q-155 0 -229.5 86t-50.5 225z" />
<glyph unicode="&#x16e;" horiz-adv-x="1441" d="M215 551l147 883h351l-148 -883q-20 -117 35 -184.5t172 -67.5q118 0 193.5 67.5t95.5 186.5l147 881h351l-148 -881q-42 -257 -228.5 -417.5t-465.5 -160.5q-283 0 -414.5 157t-87.5 419zM770 1675q0 106 81.5 177t192.5 71q92 0 148.5 -51t56.5 -133 q0 -107 -80.5 -177.5t-195.5 -70.5q-89 0 -146 51t-57 133zM936 1694q0 -30 16 -47t45 -17q37 0 62.5 25.5t25.5 64.5q0 30 -16 47t-45 17q-38 0 -63 -25t-25 -65z" />
<glyph unicode="&#x16f;" horiz-adv-x="1153" d="M152 283q0 54 4.5 98.5t13.5 97.5l100 596h342l-106 -641q-12 -73 20 -113t95 -40q69 0 116 43.5t58 109.5l106 641h342l-180 -1075h-334l19 111q-45 -55 -122.5 -96.5t-170.5 -41.5q-70 0 -123.5 17t-87 44.5t-54.5 69t-29.5 83.5t-8.5 96zM575 1329q0 106 81.5 177 t193.5 71q92 0 148.5 -51t56.5 -133q0 -107 -81 -177.5t-196 -70.5q-89 0 -146 51t-57 133zM741 1348q0 -29 16.5 -46.5t45.5 -17.5q37 0 62.5 25.5t25.5 64.5q0 29 -16.5 46.5t-45.5 17.5q-38 0 -63 -25t-25 -65z" />
<glyph unicode="&#x170;" horiz-adv-x="1441" d="M215 551l147 883h351l-148 -883q-20 -117 35 -184.5t172 -67.5q118 0 193.5 67.5t95.5 186.5l147 881h351l-148 -881q-42 -257 -228.5 -417.5t-465.5 -160.5q-283 0 -414.5 157t-87.5 419zM639 1505l184 297h322l-254 -297h-252zM1034 1505l185 297h321l-254 -297h-252z " />
<glyph unicode="&#x171;" horiz-adv-x="1153" d="M152 283q0 54 4.5 98.5t13.5 97.5l100 596h342l-106 -641q-12 -73 20 -113t95 -40q69 0 116 43.5t58 109.5l106 641h342l-180 -1075h-334l19 111q-45 -55 -122.5 -96.5t-170.5 -41.5q-70 0 -123.5 17t-87 44.5t-54.5 69t-29.5 83.5t-8.5 96zM406 1188l184 297h321 l-254 -297h-251zM801 1188l184 297h322l-254 -297h-252z" />
<glyph unicode="&#x172;" horiz-adv-x="1441" d="M215 551l147 883h351l-148 -883q-20 -117 35 -184.5t172 -67.5q118 0 193.5 67.5t95.5 186.5l147 881h351l-148 -881q-34 -207 -164.5 -354t-331.5 -199q-13 -5 -26.5 -12.5t-36 -23t-36 -39t-13.5 -50.5q0 -33 24.5 -49t55.5 -16l-39 -226q-43 -16 -139 -16 q-86 0 -144.5 43t-58.5 127q0 79 45.5 139t109.5 100q-254 17 -369 171.5t-73 402.5z" />
<glyph unicode="&#x173;" horiz-adv-x="1153" d="M152 283q0 54 4.5 98.5t13.5 97.5l100 596h342l-106 -641q-12 -73 20 -113t95 -40q69 0 116 43.5t58 109.5l106 641h342l-180 -1075q-117 -47 -117 -125q0 -33 25 -49t57 -16l-39 -226q-43 -16 -139 -16q-86 0 -144.5 43t-58.5 127q0 50 20.5 95.5t53.5 77.5t64.5 54 t62.5 35h-119l19 111q-45 -55 -122.5 -96.5t-170.5 -41.5q-70 0 -123.5 17t-87 44.5t-54.5 69t-29.5 83.5t-8.5 96z" />
<glyph unicode="&#x174;" horiz-adv-x="2035" d="M256 1434h375l49 -1010l420 1010h315l84 -1010l385 1010h375l-612 -1434h-398l-82 901l-381 -901h-397zM901 1505l246 297h344l147 -297h-278l-62 133l-108 -133h-289z" />
<glyph unicode="&#x175;" horiz-adv-x="1708" d="M195 1075h372l29 -702l278 702h320l45 -702l262 702h373l-481 -1075h-385l-52 608l-256 -608h-385zM684 1188l246 297h344l147 -297h-278l-62 133l-108 -133h-289z" />
<glyph unicode="&#x176;" horiz-adv-x="1249" d="M252 1434h389l141 -469l303 469h392l-570 -787l-108 -647h-348l108 647zM508 1505l246 297h344l147 -297h-278l-62 133l-108 -133h-289z" />
<glyph unicode="&#x177;" horiz-adv-x="1138" d="M193 1075h364l86 -618l303 618h359l-775 -1442h-323l213 402zM403 1188l246 297h344l148 -297h-279l-61 133l-109 -133h-289z" />
<glyph unicode="&#x178;" horiz-adv-x="1249" d="M252 1434h389l141 -469l303 469h392l-570 -787l-108 -647h-348l108 647zM539 1642q0 73 54.5 127t131.5 54q60 0 96.5 -39t36.5 -96q0 -73 -55 -127t-131 -54q-61 0 -97 38t-36 97zM950 1642q0 73 55 127t132 54q60 0 96.5 -39t36.5 -96q0 -72 -55.5 -126.5t-131.5 -54.5 q-60 0 -96.5 38.5t-36.5 96.5z" />
<glyph unicode="&#x179;" horiz-adv-x="1245" d="M63 0l37 223l787 901h-619l51 310h1090l-37 -222l-792 -903h647l-51 -309h-1113zM686 1505l184 297h355l-254 -297h-285z" />
<glyph unicode="&#x17a;" horiz-adv-x="964" d="M55 0l35 205l512 586h-403l47 284h837l-34 -207l-512 -583h417l-47 -285h-852zM506 1188l184 297h354l-253 -297h-285z" />
<glyph unicode="&#x17b;" horiz-adv-x="1245" d="M63 0l37 223l787 901h-619l51 310h1090l-37 -222l-792 -903h647l-51 -309h-1113zM723 1642q0 80 64 140.5t143 60.5q67 0 109 -44t42 -109q0 -79 -64.5 -140t-144.5 -61q-65 0 -107 44.5t-42 108.5z" />
<glyph unicode="&#x17c;" horiz-adv-x="964" d="M55 0l35 205l512 586h-403l47 284h837l-34 -207l-512 -583h417l-47 -285h-852zM541 1311q0 80 63.5 140t143.5 60q67 0 109 -44t42 -109q0 -79 -64.5 -140t-144.5 -61q-65 0 -107 45t-42 109z" />
<glyph unicode="&#x17d;" horiz-adv-x="1245" d="M63 0l37 223l787 901h-619l51 310h1090l-37 -222l-792 -903h647l-51 -309h-1113zM553 1802h281l63 -133l107 133h286l-246 -297h-344z" />
<glyph unicode="&#x17e;" horiz-adv-x="964" d="M55 0l35 205l512 586h-403l47 284h837l-34 -207l-512 -583h417l-47 -285h-852zM373 1485h280l64 -133l106 133h287l-246 -297h-344z" />
<glyph unicode="&#x192;" horiz-adv-x="997" d="M-57 -381l55 283q36 -6 61 -6q133 0 154 112l117 625h-117l16 276h152l33 178q16 86 51 152.5t80 107.5t103 67t115 36t122 10q85 0 133 -12l-55 -283q-30 6 -60 6q-132 0 -153 -112l-29 -150h153l-16 -276h-188l-123 -653q-16 -86 -51 -152.5t-80 -107.5t-103 -67 t-115 -36t-122 -10q-91 0 -133 12z" />
<glyph unicode="&#x1fa;" horiz-adv-x="1384" d="M12 0l717 1397q-20 36 -20 92q0 106 81.5 177t192.5 71q91 0 148 -51.5t57 -133.5q0 -88 -66 -157l250 -1395h-352l-49 322h-451l-155 -322h-353zM659 608h271l-60 455zM825 1786l185 297h354l-254 -297h-285zM874 1507q0 -29 16.5 -46t45.5 -17q37 0 62.5 25.5 t25.5 64.5q0 29 -16.5 46t-44.5 17q-40 0 -64.5 -25t-24.5 -65z" />
<glyph unicode="&#x1fb;" horiz-adv-x="1091" d="M90 281q0 181 135 295t348 114q116 0 201 -39l6 39q8 52 -27.5 84.5t-115.5 32.5q-124 0 -277 -68l-104 230q222 133 471 133q100 0 175.5 -21.5t121 -61t72.5 -94t29.5 -120t-7.5 -139.5l-110 -666h-306l-8 59q-103 -86 -258 -86q-149 0 -247.5 82t-98.5 226zM440 332 q0 -45 35.5 -70.5t91.5 -25.5q71 0 117.5 33.5t46.5 92.5q0 46 -35 72.5t-92 26.5q-69 0 -116.5 -36t-47.5 -93zM547 1329q0 106 81.5 177t192.5 71q92 0 148.5 -51t56.5 -133q0 -107 -80.5 -177.5t-195.5 -70.5q-89 0 -146 51t-57 133zM694 1612l185 297h354l-254 -297 h-285zM713 1348q0 -30 16 -47t45 -17q37 0 62.5 25.5t25.5 64.5q0 30 -16 47t-45 17q-38 0 -63 -25t-25 -65z" />
<glyph unicode="&#x1fc;" horiz-adv-x="1804" d="M16 0l994 1434h932l-52 -314h-413l-41 -239h352l-51 -312h-353l-43 -256h431l-54 -313h-780l53 322h-379l-215 -322h-381zM788 608h252l84 500zM1190 1505l184 297h355l-254 -297h-285z" />
<glyph unicode="&#x1fd;" horiz-adv-x="1753" d="M90 281q0 181 135 295t348 114q111 0 201 -39l6 39q8 52 -28.5 84.5t-116.5 32.5q-124 0 -277 -68l-104 230q222 133 471 133q208 0 315 -107q152 107 330 107q215 0 328.5 -121.5t113.5 -339.5q0 -84 -26 -192h-705q-6 -74 50 -126.5t149 -52.5q59 0 114.5 24t82.5 46 t47 45l196 -174q-14 -22 -40 -49t-72.5 -61.5t-100.5 -62t-129.5 -46.5t-154.5 -19q-249 0 -381 154q-147 -154 -408 -154q-148 0 -246 82t-98 226zM438 332q0 -45 36 -70.5t93 -25.5q71 0 117.5 33.5t46.5 92.5q0 46 -36 72.5t-93 26.5q-69 0 -116.5 -36t-47.5 -93z M895 1188l184 297h355l-254 -297h-285zM1128 666h349q8 67 -31.5 113t-116.5 46q-79 0 -131.5 -47.5t-69.5 -111.5z" />
<glyph unicode="&#x1fe;" horiz-adv-x="1613" d="M164 604q0 174 68 331.5t185 273t282.5 183.5t351.5 68q200 0 352 -90l115 119l155 -143l-110 -115q129 -163 129 -400q0 -174 -68 -332t-185.5 -274t-283 -184t-352.5 -68q-210 0 -363 95l-116 -121l-156 143l117 121q-121 160 -121 393zM532 649q0 -77 27 -153l584 606 q-71 31 -146 31q-128 0 -235 -64.5t-168.5 -176t-61.5 -243.5zM700 336q68 -35 158 -35q193 0 328 141t135 344q0 89 -31 162zM891 1505l184 297h355l-254 -297h-285z" />
<glyph unicode="&#x1ff;" horiz-adv-x="1261" d="M123 451q0 179 94.5 329.5t252.5 236t341 85.5q145 0 266 -62l94 99l136 -121l-90 -94q98 -124 98 -301q0 -179 -94 -329t-253 -235.5t-345 -85.5q-141 0 -261 60l-100 -107l-133 121l94 98q-100 124 -100 306zM469 489q0 -46 10 -75l357 374q-37 13 -76 13 q-121 0 -206 -90t-85 -222zM604 285q27 -11 68 -11q121 0 209 89.5t88 218.5q0 31 -11 73zM655 1188l185 297h354l-254 -297h-285z" />
<glyph unicode="&#x218;" horiz-adv-x="1083" d="M88 315l318 146q20 -68 69.5 -114t118.5 -46q67 0 106 31t39 82q0 33 -27.5 63.5t-71 56.5t-97 54.5t-106.5 65t-96.5 81t-71 109.5t-27.5 143q0 99 38.5 186t106.5 150.5t168 100t217 36.5q88 0 160.5 -24.5t118.5 -60.5t80 -83t49.5 -87t21.5 -77l-303 -133 q-41 142 -170 142q-55 0 -92 -31.5t-37 -77.5q0 -34 27.5 -64.5t72 -57t98 -54.5t107 -63.5t98 -78t72 -105.5t27.5 -138q0 -103 -37.5 -193t-107 -157t-175.5 -105.5t-235 -38.5q-92 0 -169.5 25.5t-126.5 63.5t-86 86t-54 89t-23 78zM272 -526q99 63 138 131 q-54 13 -81.5 53t-27.5 90q0 80 63.5 138.5t143.5 58.5q70 0 113 -45.5t43 -120.5q0 -117 -82.5 -236.5t-206.5 -193.5z" />
<glyph unicode="&#x219;" horiz-adv-x="909" d="M55 158l224 186q90 -94 219 -94q52 0 81 17t29 48q0 22 -23.5 40t-60.5 33t-82 32.5t-90 43t-82 58.5t-60.5 86t-23.5 119q0 168 130.5 271.5t326.5 103.5q137 0 231 -53.5t142 -130.5l-250 -175q-69 84 -164 84q-40 0 -64 -16.5t-24 -42.5q0 -24 23.5 -42.5t61.5 -33.5 t83.5 -31t91 -40t83.5 -55.5t61.5 -83t23.5 -117.5q0 -183 -137.5 -287.5t-347.5 -104.5q-140 0 -241 53.5t-161 131.5zM211 -526q97 62 137 131q-54 13 -81 53t-27 90q0 80 63 138.5t143 58.5q70 0 113 -45.5t43 -120.5q0 -117 -82.5 -236.5t-206.5 -193.5z" />
<glyph unicode="&#x21a;" horiz-adv-x="1046" d="M227 1120l54 314h968l-53 -314h-309l-189 -1120h-350l189 1120h-310zM256 -526q97 62 137 131q-54 13 -81 53t-27 90q0 80 63.5 138.5t143.5 58.5q70 0 112.5 -45.5t42.5 -120.5q0 -117 -82.5 -236.5t-206.5 -193.5z" />
<glyph unicode="&#x21b;" horiz-adv-x="720" d="M156 799l47 276h104l37 228h342l-37 -228h182l-47 -276h-182l-65 -396q-20 -116 112 -116q35 0 58 2l-50 -293q-47 -12 -133 -12q-198 0 -281.5 102t-45.5 334l63 379h-104zM164 -526q97 62 137 131q-54 13 -81 53t-27 90q0 80 63 138.5t143 58.5q70 0 113 -45.5 t43 -120.5q0 -117 -82.5 -236.5t-206.5 -193.5z" />
<glyph unicode="&#x237;" d="M-152 -387l50 289q24 -4 47 -4q138 0 155 114l179 1063h339l-180 -1079q-18 -105 -64.5 -182t-116 -121.5t-152.5 -65t-183 -20.5z" />
<glyph unicode="&#x2c6;" horiz-adv-x="907" d="M283 1188l245 297h344l148 -297h-279l-61 133l-109 -133h-288z" />
<glyph unicode="&#x2c7;" horiz-adv-x="907" d="M332 1485h280l64 -133l106 133h287l-246 -297h-344z" />
<glyph unicode="&#x2d8;" horiz-adv-x="905" d="M367 1495h231q-21 -117 74 -117t116 117h248q-24 -139 -128 -225t-261 -86q-155 0 -229.5 86t-50.5 225z" />
<glyph unicode="&#x2d9;" horiz-adv-x="905" d="M498 1311q0 80 63.5 140t143.5 60q67 0 109 -44t42 -109q0 -79 -64.5 -140t-144.5 -61q-65 0 -107 45t-42 109z" />
<glyph unicode="&#x2da;" horiz-adv-x="905" d="M440 1329q0 106 81.5 177t193.5 71q92 0 148.5 -51t56.5 -133q0 -107 -81 -177.5t-196 -70.5q-89 0 -146 51t-57 133zM606 1348q0 -29 16.5 -46.5t45.5 -17.5q37 0 62.5 25.5t25.5 64.5q0 29 -16.5 46.5t-45.5 17.5q-38 0 -63 -25t-25 -65z" />
<glyph unicode="&#x2db;" horiz-adv-x="907" d="M225 -262q0 50 20.5 95.5t53.5 77.5t64.5 54t62.5 35h215q-115 -46 -115 -125q0 -33 24.5 -49t55.5 -16l-39 -226q-43 -16 -139 -16q-86 0 -144.5 43t-58.5 127z" />
<glyph unicode="&#x2dc;" horiz-adv-x="905" d="M266 1186q20 134 103.5 218.5t193.5 84.5q50 0 96.5 -17t82.5 -34t61 -17q56 0 69 70h215q-20 -138 -101.5 -220.5t-190.5 -82.5q-48 0 -95 17t-84.5 33.5t-62.5 16.5q-60 0 -72 -69h-215z" />
<glyph unicode="&#x2dd;" horiz-adv-x="960" d="M252 1188l184 297h322l-254 -297h-252zM647 1188l184 297h322l-254 -297h-252z" />
<glyph unicode="&#x1e80;" horiz-adv-x="2035" d="M256 1434h375l49 -1010l420 1010h315l84 -1010l385 1010h375l-612 -1434h-398l-82 901l-381 -901h-397zM965 1802h352l86 -297h-262z" />
<glyph unicode="&#x1e81;" horiz-adv-x="1708" d="M195 1075h372l29 -702l278 702h320l45 -702l262 702h373l-481 -1075h-385l-52 608l-256 -608h-385zM758 1485h352l86 -297h-262z" />
<glyph unicode="&#x1e82;" horiz-adv-x="2035" d="M256 1434h375l49 -1010l420 1010h315l84 -1010l385 1010h375l-612 -1434h-398l-82 901l-381 -901h-397zM1098 1505l184 297h354l-254 -297h-284z" />
<glyph unicode="&#x1e83;" horiz-adv-x="1708" d="M195 1075h372l29 -702l278 702h320l45 -702l262 702h373l-481 -1075h-385l-52 608l-256 -608h-385zM901 1188l184 297h355l-254 -297h-285z" />
<glyph unicode="&#x1e84;" horiz-adv-x="2035" d="M256 1434h375l49 -1010l420 1010h315l84 -1010l385 1010h375l-612 -1434h-398l-82 901l-381 -901h-397zM932 1640q0 73 54.5 127t131.5 54q60 0 96.5 -39t36.5 -96q0 -73 -55 -127t-131 -54q-61 0 -97 38t-36 97zM1343 1640q0 73 55 127t132 54q60 0 96.5 -39t36.5 -96 q0 -73 -55 -127t-131 -54q-60 0 -97 38.5t-37 96.5z" />
<glyph unicode="&#x1e85;" horiz-adv-x="1708" d="M195 1075h372l29 -702l278 702h320l45 -702l262 702h373l-481 -1075h-385l-52 608l-256 -608h-385zM713 1315q0 73 54.5 126.5t131.5 53.5q60 0 96.5 -39t36.5 -96q0 -72 -55 -126t-131 -54q-61 0 -97 38t-36 97zM1124 1315q0 73 55 126.5t132 53.5q60 0 96.5 -39 t36.5 -96q0 -72 -55.5 -126t-131.5 -54q-60 0 -96.5 38.5t-36.5 96.5z" />
<glyph unicode="&#x1ef2;" horiz-adv-x="1249" d="M252 1434h389l141 -469l303 469h392l-570 -787l-108 -647h-348l108 647zM606 1802h352l86 -297h-262z" />
<glyph unicode="&#x1ef3;" horiz-adv-x="1138" d="M193 1075h364l86 -618l303 618h359l-775 -1442h-323l213 402zM498 1485h352l86 -297h-262z" />
<glyph unicode="&#x2000;" horiz-adv-x="1041" />
<glyph unicode="&#x2001;" horiz-adv-x="2083" />
<glyph unicode="&#x2002;" horiz-adv-x="1041" />
<glyph unicode="&#x2003;" horiz-adv-x="2083" />
<glyph unicode="&#x2004;" horiz-adv-x="694" />
<glyph unicode="&#x2005;" horiz-adv-x="520" />
<glyph unicode="&#x2006;" horiz-adv-x="347" />
<glyph unicode="&#x2007;" horiz-adv-x="347" />
<glyph unicode="&#x2008;" horiz-adv-x="260" />
<glyph unicode="&#x2009;" horiz-adv-x="416" />
<glyph unicode="&#x200a;" horiz-adv-x="115" />
<glyph unicode="&#x2010;" horiz-adv-x="788" d="M176 473l51 307h594l-51 -307h-594z" />
<glyph unicode="&#x2011;" horiz-adv-x="788" d="M176 473l51 307h594l-51 -307h-594z" />
<glyph unicode="&#x2012;" horiz-adv-x="788" d="M176 473l51 307h594l-51 -307h-594z" />
<glyph unicode="&#x2013;" horiz-adv-x="1376" d="M180 498l47 278h1184l-47 -278h-1184z" />
<glyph unicode="&#x2014;" horiz-adv-x="1935" d="M180 498l47 278h1741l-47 -278h-1741z" />
<glyph unicode="&#x2018;" horiz-adv-x="501" d="M209 971q0 147 97.5 298t252.5 247l117 -148q-50 -28 -104 -77t-78 -99q63 -14 97 -62.5t34 -109.5q0 -93 -73.5 -162.5t-166.5 -69.5q-78 0 -127 48t-49 135z" />
<glyph unicode="&#x2019;" horiz-adv-x="501" d="M211 936q50 28 104 77t78 99q-63 14 -97 62.5t-34 109.5q0 93 73.5 162.5t166.5 69.5q78 0 127 -48t49 -135q0 -147 -97.5 -298t-252.5 -247z" />
<glyph unicode="&#x201a;" horiz-adv-x="534" d="M39 -199q50 28 104 77t78 99q-63 14 -97 63t-34 110q0 93 73.5 162t166.5 69q78 0 127 -47.5t49 -134.5q0 -147 -97.5 -298t-252.5 -247z" />
<glyph unicode="&#x201c;" horiz-adv-x="964" d="M209 971q0 147 97.5 298t252.5 247l117 -148q-50 -28 -104 -77t-78 -99q63 -14 97 -62.5t34 -109.5q0 -93 -73.5 -162.5t-166.5 -69.5q-78 0 -127 48t-49 135zM672 971q0 147 97.5 298t252.5 247l117 -148q-50 -28 -104.5 -77t-78.5 -99q63 -14 97 -62.5t34 -109.5 q0 -93 -73 -162.5t-166 -69.5q-78 0 -127 48t-49 135z" />
<glyph unicode="&#x201d;" horiz-adv-x="964" d="M211 936q50 28 104 77t78 99q-63 14 -97 62.5t-34 109.5q0 93 73.5 162.5t166.5 69.5q78 0 127 -48t49 -135q0 -147 -97.5 -298t-252.5 -247zM674 936q50 28 104 77t78 99q-63 14 -97 62.5t-34 109.5q0 93 73.5 162.5t166.5 69.5q78 0 127 -48t49 -135q0 -147 -97.5 -298 t-252.5 -247z" />
<glyph unicode="&#x201e;" horiz-adv-x="964" d="M20 -199q50 28 104.5 77t78.5 99q-63 14 -97 63t-34 110q0 93 73 162t166 69q78 0 127 -47.5t49 -134.5q0 -147 -97.5 -298t-252.5 -247zM483 -199q50 28 104.5 77t78.5 99q-63 14 -97 63t-34 110q0 93 73 162t166 69q78 0 127 -47.5t49 -134.5q0 -147 -97.5 -298 t-252.5 -247z" />
<glyph unicode="&#x2020;" horiz-adv-x="917" d="M184 811l49 297h242l55 326h336l-55 -326h244l-49 -297h-244l-135 -811h-336l135 811h-242z" />
<glyph unicode="&#x2021;" horiz-adv-x="919" d="M104 326l50 295h241l33 190h-242l50 297h241l55 326h336l-55 -326h244l-49 -297h-244l-33 -190h244l-49 -295h-244l-55 -326h-336l55 326h-242z" />
<glyph unicode="&#x2022;" horiz-adv-x="831" d="M164 584q0 164 123.5 283.5t292.5 119.5q133 0 216 -86.5t83 -214.5q0 -164 -123.5 -283.5t-292.5 -119.5q-134 0 -216.5 86t-82.5 215z" />
<glyph unicode="&#x202f;" horiz-adv-x="416" />
<glyph unicode="&#x2030;" horiz-adv-x="2512" d="M139 0l1321 1434h336l-1321 -1434h-336zM225 1055q0 109 58 202.5t156 148t212 54.5q142 0 229 -86.5t87 -218.5q0 -166 -126.5 -283.5t-303.5 -117.5q-140 0 -226 85t-86 216zM483 1090q0 -42 25.5 -69.5t66.5 -27.5q57 0 95.5 38.5t38.5 92.5q0 40 -26.5 67.5 t-68.5 27.5q-56 0 -93.5 -38.5t-37.5 -90.5zM967 274q0 165 127 285.5t301 120.5q142 0 227.5 -86.5t85.5 -218.5q0 -166 -126.5 -284t-303.5 -118q-140 0 -225.5 85t-85.5 216zM1225 309q0 -42 25.5 -69t66.5 -27q59 0 97 38.5t38 92.5q0 41 -26.5 67.5t-69.5 26.5 q-56 0 -93.5 -38.5t-37.5 -90.5zM1786 274q0 165 127 285.5t301 120.5q142 0 227.5 -86.5t85.5 -218.5q0 -166 -126.5 -284t-303.5 -118q-140 0 -225.5 85t-85.5 216zM2044 309q0 -42 25.5 -69t66.5 -27q59 0 97 38.5t38 92.5q0 41 -26.5 67.5t-69.5 26.5q-56 0 -93.5 -38.5 t-37.5 -90.5z" />
<glyph unicode="&#x2039;" horiz-adv-x="651" d="M154 614l301 381h303l-309 -405l198 -373h-289z" />
<glyph unicode="&#x203a;" horiz-adv-x="651" d="M94 217l309 406l-198 372h289l204 -397l-301 -381h-303z" />
<glyph unicode="&#x2044;" horiz-adv-x="983" d="M-47 -84l1020 1602h299l-1022 -1602h-297z" />
<glyph unicode="&#x205f;" horiz-adv-x="520" />
<glyph unicode="&#x20ac;" horiz-adv-x="1339" d="M123 455l37 219h98q0 43 16 96h-98l37 219h139q103 208 301 339.5t437 131.5t376 -92l-192 -287q-37 23 -98 41.5t-121 18.5q-94 0 -179 -40.5t-139 -111.5h396l-58 -219h-436q-14 -44 -14 -96h424l-58 -219h-332q32 -72 106.5 -112t172.5 -40q69 0 135 19.5t107 44.5 l84 -285q-53 -43 -157 -76t-224 -33q-260 0 -422.5 131.5t-198.5 350.5h-139z" />
<glyph unicode="&#x2116;" horiz-adv-x="2361" d="M123 0l239 1434h357l377 -889l147 889h344l-239 -1434h-349l-385 879l-147 -879h-344zM1581 348l45 264h701l-46 -264h-700zM1661 1028q0 81 35.5 159.5t96 138.5t146.5 97t181 37q153 0 243.5 -96t90.5 -234q0 -81 -35.5 -158.5t-96 -136t-146.5 -94.5t-181 -36 q-153 0 -243.5 93.5t-90.5 229.5zM1903 1057q0 -55 34 -90t95 -35q75 0 125.5 51t50.5 121q0 55 -32.5 92t-92.5 37q-79 0 -129.5 -53.5t-50.5 -122.5z" />
<glyph unicode="&#x2122;" horiz-adv-x="1642" d="M276 1231l35 203h576l-35 -203h-172l-90 -537h-230l91 537h-175zM825 694l125 740h293l70 -396l209 396h293l-125 -740h-222l64 379l-158 -297h-205l-59 297l-63 -379h-222z" />
<glyph unicode="&#x2212;" horiz-adv-x="1128" d="M156 504l45 270h985l-45 -270h-985z" />
<glyph unicode="&#x25fc;" horiz-adv-x="1075" d="M0 0v1075h1075v-1075h-1075z" />
<glyph unicode="&#xf6c3;" horiz-adv-x="661" d="M80 -526q97 62 137 131q-54 13 -81 53t-27 90q0 80 63 138.5t143 58.5q70 0 113 -45.5t43 -120.5q0 -117 -82.5 -236.5t-206.5 -193.5z" />
<glyph horiz-adv-x="788" d="M193 569l51 308h594l-52 -308h-593z" />
<glyph horiz-adv-x="1376" d="M195 588l47 278h1183l-47 -278h-1183z" />
<glyph horiz-adv-x="1935" d="M195 588l47 278h1740l-47 -278h-1740z" />
<glyph horiz-adv-x="1067" d="M174 739l301 381h303l-309 -405l199 -373h-289zM596 739l301 381h303l-309 -405l199 -373h-289z" />
<glyph horiz-adv-x="1067" d="M113 342l309 406l-199 372h289l205 -397l-301 -381h-303zM535 342l309 406l-199 372h289l205 -397l-301 -381h-303z" />
<glyph horiz-adv-x="651" d="M174 739l301 381h303l-309 -405l199 -373h-289z" />
<glyph horiz-adv-x="651" d="M113 342l309 406l-199 372h289l205 -397l-301 -381h-303z" />
<glyph horiz-adv-x="716" d="M100 162l181 1089q38 228 187 350.5t411 122.5l-50 -294q-178 0 -208 -173l-185 -1101q-30 -172 152 -172l-49 -295q-262 0 -370 122t-69 351z" />
<glyph horiz-adv-x="716" d="M76 -311l49 295q179 0 209 172l184 1101q30 173 -151 173l49 294q261 0 369.5 -122.5t70.5 -350.5l-182 -1089q-39 -229 -187.5 -351t-410.5 -122z" />
<glyph horiz-adv-x="716" d="M20 -311l340 2035h519l-50 -294h-180l-241 -1446h180l-49 -295h-519z" />
<glyph horiz-adv-x="716" d="M76 -311l49 295h180l242 1446h-180l49 294h518l-340 -2035h-518z" />
<glyph horiz-adv-x="843" d="M143 545l54 323q24 0 48 6.5t51 23.5t47.5 53t29.5 87l37 213q39 229 187 351t409 122l-50 -294q-178 0 -208 -173l-48 -284q-11 -65 -41 -118t-66 -82.5t-65 -45.5t-49 -20q14 -3 32 -13t40.5 -31t37.5 -51t23 -73.5t-2 -98.5l-47 -284q-30 -172 152 -172l-49 -295 q-261 0 -369 122.5t-70 350.5l35 213q9 51 0.5 87t-30.5 53t-43.5 23.5t-45.5 6.5z" />
<glyph horiz-adv-x="608" d="M68 -459l374 2243h322l-375 -2243h-321z" />
<glyph horiz-adv-x="843" d="M76 -311l49 295q183 0 209 172l47 284q11 65 41 118t66 83t65 46t49 20q-14 3 -31.5 13t-40 30.5t-38 51t-23.5 73.5t2 98l47 284q30 173 -151 173l49 294q262 0 370.5 -122.5t69.5 -350.5l-37 -213q-9 -51 -0.5 -87t30.5 -53t43.5 -23.5t45.5 -6.5l-53 -323 q-24 0 -48 -6.5t-51 -23.5t-47.5 -53t-29.5 -87l-35 -213q-38 -228 -187 -350.5t-411 -122.5z" />
<glyph horiz-adv-x="954" d="M-10 -166l907 1757h305l-907 -1757h-305z" />
<glyph horiz-adv-x="954" d="M285 1591h303l317 -1757h-303z" />
<glyph horiz-adv-x="632" d="M135 0l195 1001h309l-141 -1001h-363zM319 1229q0 93 72.5 162t167.5 69q74 0 124 -51t50 -125q0 -93 -73 -162t-168 -69q-74 0 -123.5 51t-49.5 125z" />
<glyph horiz-adv-x="1003" d="M109 319q0 70 21.5 130t57 104t78.5 83t87.5 72.5t82.5 65.5t65 70t34 78l14 79h330l-17 -102q-10 -59 -37 -110.5t-63 -88.5t-77 -70.5t-80 -62t-71 -57t-51.5 -61t-19.5 -68.5q0 -45 29.5 -75t87.5 -30q28 0 53.5 9t41.5 19t34 30t24.5 29.5t20.5 29.5l254 -121 q-20 -40 -45.5 -76.5t-69 -79t-94.5 -72.5t-124.5 -50.5t-156.5 -20.5q-181 0 -295 96.5t-114 249.5zM551 1231q0 91 74.5 160t167.5 69q74 0 123 -51t49 -125q0 -93 -72.5 -162t-167.5 -69q-75 0 -124.5 51.5t-49.5 126.5z" />
<glyph horiz-adv-x="534" d="M182 694q0 93 73 162.5t167 69.5q75 0 124.5 -51.5t49.5 -126.5q0 -91 -74.5 -160.5t-167.5 -69.5q-75 0 -123.5 50.5t-48.5 125.5z" />
<glyph horiz-adv-x="831" d="M180 674q0 107 57 200.5t153 148t206 54.5q134 0 216.5 -86t82.5 -215q0 -164 -123.5 -283.5t-292.5 -119.5q-134 0 -216.5 86t-82.5 215z" />
<glyph horiz-adv-x="1232" d="M229 717q59 378 209.5 560.5t417.5 182.5t359.5 -182t33.5 -561q-61 -379 -211.5 -561.5t-416.5 -182.5q-267 0 -360 183t-32 561zM559.5 529q-5.5 -74 3 -127.5t35.5 -77t74 -23.5q92 0 139 94t84 322q37 217 19.5 316.5t-109.5 99.5t-139 -94.5t-82 -321.5 q-19 -114 -24.5 -188z" />
<glyph horiz-adv-x="1232" d="M147 0l52 305h352l131 787l-287 -119l-80 266l476 195h294l-188 -1129h270l-51 -305h-969z" />
<glyph horiz-adv-x="1232" d="M131 0l23 131q14 86 63.5 171t117.5 153.5t146.5 134.5t154 123.5t137.5 110t100 104.5t38 98q0 50 -34.5 81.5t-92.5 31.5q-123 0 -194 -142l-289 90q21 52 49 99.5t75.5 99t104 88.5t138 61.5t174.5 24.5q188 0 311 -103.5t123 -269.5q0 -86 -31.5 -164.5t-84 -139.5 t-117 -115.5t-133.5 -102t-129.5 -89.5t-110 -86.5t-70.5 -84.5h563l-51 -305h-981z" />
<glyph horiz-adv-x="1232" d="M176 346l316 90q10 -62 50 -101.5t107 -39.5q82 0 133.5 49t51.5 127q0 55 -38.5 90t-115.5 35h-191l46 268l301 264h-469l51 306h870l-51 -304l-301 -247q262 -58 262 -334q0 -255 -166.5 -415.5t-427.5 -160.5q-89 0 -162.5 24t-120 62t-79.5 88.5t-48 99.5t-18 99z " />
<glyph horiz-adv-x="1232" d="M104 319l41 248l703 867h412l-138 -820h160l-49 -295h-160l-53 -319h-342l53 319h-627zM510 614h270l74 445z" />
<glyph horiz-adv-x="1232" d="M166 346l317 90q6 -66 49 -103.5t113 -37.5q84 0 144.5 59t60.5 148q0 62 -39.5 107.5t-122.5 45.5q-89 0 -149 -65l-279 45l162 799h848l-51 -306h-537l-47 -215q86 37 190 37q163 0 275 -104t112 -277q0 -123 -48.5 -234t-130 -190t-192.5 -125.5t-231 -46.5 q-93 0 -169 24t-124.5 62t-82.5 88.5t-49.5 99.5t-18.5 99z" />
<glyph horiz-adv-x="1232" d="M190 446q0 84 8.5 169.5t31.5 187.5t59 192.5t96 177.5t137.5 149t189 100t244.5 38q200 0 336 -90l-176 -285q-84 48 -180 48q-63 0 -117 -19t-87.5 -46.5t-59 -61.5t-36.5 -60.5t-15 -46.5q106 70 245 70q159 0 256 -99t97 -284q0 -130 -46 -244t-125.5 -195 t-190 -127.5t-234.5 -46.5q-118 0 -203 34t-134.5 98t-72.5 148t-23 193zM542 447q-1 -36 7 -59.5t22.5 -44.5t42 -31.5t66.5 -10.5q89 0 136.5 59t47.5 152q0 67 -33.5 106t-99.5 39q-87 0 -174 -71q-7 -43 -10.5 -73t-4.5 -66z" />
<glyph horiz-adv-x="1232" d="M266 0l649 1128h-610l51 306h1000l-41 -246l-670 -1188h-379z" />
<glyph horiz-adv-x="1232" d="M160 358q0 141 69 245t168 157q-42 34 -70 95t-28 138q0 95 41 180t113.5 148.5t178.5 101t228 37.5q197 0 309.5 -99.5t112.5 -258.5q0 -116 -57.5 -203.5t-137.5 -138.5q57 -39 92 -108.5t35 -159.5q0 -229 -169.5 -374t-436.5 -145q-212 0 -330 102.5t-118 282.5z M522 414q0 -56 36.5 -89.5t105.5 -33.5q90 0 140 48t50 122q0 55 -36 91t-103 36q-86 0 -139.5 -50.5t-53.5 -123.5zM645 997q0 -51 31.5 -78.5t87.5 -27.5q72 0 118 40.5t46 108.5q0 46 -31.5 76.5t-89.5 30.5q-75 0 -118.5 -43t-43.5 -107z" />
<glyph horiz-adv-x="1232" d="M180 63l176 285q82 -47 181 -47q63 0 117 19t87.5 46.5t59 61.5t36.5 60.5t15 46.5q-106 -70 -246 -70q-159 0 -255.5 99t-96.5 284q0 173 78.5 313.5t215 219.5t302.5 79q118 0 203 -34t134.5 -98t72 -148t22.5 -193q0 -84 -8.5 -169.5t-31.5 -187.5t-59 -192.5 t-96 -177.5t-137.5 -149t-189 -100t-244.5 -38q-200 0 -336 90zM608 922q0 -67 34 -106.5t99 -39.5q86 0 174 72q9 53 12.5 87.5t1 75.5t-16 65t-43.5 40.5t-76 16.5q-89 0 -137 -59t-48 -152z" />
</font>
</defs>
</svg>
