<?xml version="1.0" standalone="no"?>
<!DOCTYPE svg PUBLIC "-//W3C//DTD SVG 1.1//EN" "http://www.w3.org/Graphics/SVG/1.1/DTD/svg11.dtd" >
<svg xmlns="http://www.w3.org/2000/svg">
<metadata></metadata>
<defs>
<font id="geomanistregular" horiz-adv-x="1013" >
<font-face units-per-em="2048" ascent="1536" descent="-512" />
<missing-glyph horiz-adv-x="542" />
<glyph unicode="&#x2e;&#x2e;&#x2e;" horiz-adv-x="1228" d="M127 35q0 25 17 43t44 18t44.5 -18t17.5 -43t-17.5 -43.5t-44.5 -18.5t-44 18t-17 44zM553 35q0 25 17 43t44 18t44.5 -18t17.5 -43t-17.5 -43.5t-44.5 -18.5t-44 18t-17 44zM979 35q0 25 17 43t44 18t44.5 -18t17.5 -43t-17.5 -43.5t-44.5 -18.5t-44 18t-17 44z" />
<glyph unicode=" "  horiz-adv-x="542" />
<glyph unicode="&#x09;" horiz-adv-x="542" />
<glyph unicode="&#xa0;" horiz-adv-x="542" />
<glyph unicode="!" horiz-adv-x="466" d="M172 35q0 25 17 43t44 18t44.5 -18t17.5 -43t-17.5 -43.5t-44.5 -18.5t-44 18t-17 44zM207 1434h51l-4 -1117h-43z" />
<glyph unicode="&#x22;" horiz-adv-x="475" d="M109 1434h63l-12 -330h-39zM301 1434h64l-13 -330h-39z" />
<glyph unicode="#" horiz-adv-x="1306" d="M84 432l10 47h275l100 482h-279l11 47h278l88 426h47l-90 -426h377l88 426h47l-90 -426h275l-9 -47h-276l-98 -482h276l-8 -47h-279l-90 -432h-47l90 432h-374l-91 -432h-47l90 432h-274zM416 479h375l100 482h-377z" />
<glyph unicode="$" horiz-adv-x="1009" d="M92 272l49 11q16 -50 42.5 -92.5t70 -82t111 -62.5t151.5 -23q145 0 242.5 89.5t97.5 229.5q0 72 -24.5 130t-66 98.5t-95.5 74t-114 61.5t-119.5 56t-113.5 61.5t-95.5 74t-66 98.5t-24.5 130q0 131 90.5 227t249.5 105v111h51v-109q240 -9 351 -237l-48 -19 q-96 207 -323 207q-148 0 -233 -81t-85 -204q0 -64 24.5 -116t66 -88.5t95.5 -68t114 -59t119.5 -56.5t113.5 -65.5t95.5 -80.5t66 -107t24.5 -141q0 -154 -105.5 -260.5t-275.5 -110.5v-149h-51v151q-83 4 -150 30t-112 68.5t-74.5 91t-48.5 107.5z" />
<glyph unicode="%" horiz-adv-x="1462" d="M111 1169q0 122 79.5 206.5t202.5 84.5t203 -84.5t80 -206.5t-80 -206t-203 -84t-202.5 84t-79.5 206zM147 0l1100 1434h68l-1100 -1434h-68zM164 1169q0 -101 64.5 -170t164.5 -69t165 69t65 170t-65 170.5t-165 69.5t-164.5 -69.5t-64.5 -170.5zM786 264 q0 122 80 206.5t203 84.5t203 -84.5t80 -206.5t-80 -206.5t-203 -84.5t-203 84.5t-80 206.5zM840 264q0 -101 64.5 -170t164.5 -69t164.5 69t64.5 170t-64.5 170.5t-164.5 69.5t-164.5 -69.5t-64.5 -170.5z" />
<glyph unicode="&#x26;" horiz-adv-x="1232" d="M94 383q0 130 72 227t194 152q-45 45 -72.5 77t-58 77.5t-45 96t-14.5 107.5q0 63 23 122.5t66.5 108.5t115.5 79t162 30q170 0 269 -92t99 -248q0 -135 -95.5 -239t-287.5 -199l473 -442q51 78 71.5 175.5t20.5 233.5h50q0 -139 -22 -241.5t-81 -198.5l176 -166l-36 -41 l-173 162q-173 -191 -436 -191q-209 0 -340 114.5t-131 295.5zM147 383q0 -106 58 -189.5t153 -127t207 -43.5q244 0 402 176l-564 526q-110 -41 -183 -128t-73 -214zM223 1120q0 -59 21 -114t63 -107.5t80 -90.5t98 -89q80 37 141 75t114.5 87t82.5 109.5t29 129.5 q0 128 -87.5 209.5t-227.5 81.5t-227 -81.5t-87 -209.5z" />
<glyph unicode="'" horiz-adv-x="282" d="M109 1434h63l-12 -330h-39z" />
<glyph unicode="(" horiz-adv-x="548" d="M178 -61v1339q0 120 54.5 175.5t138.5 55.5h26v-51h-28q-68 0 -103 -48t-35 -136v-1331q0 -88 35 -136.5t103 -48.5h28v-51h-26q-84 0 -138.5 56t-54.5 176z" />
<glyph unicode=")" horiz-adv-x="548" d="M152 -242h28q68 0 102.5 48.5t34.5 136.5v1331q0 88 -34.5 136t-102.5 48h-28v51h26q84 0 138.5 -55.5t54.5 -175.5v-1339q0 -120 -54.5 -176t-138.5 -56h-26v51z" />
<glyph unicode="*" horiz-adv-x="864" d="M141 940l248 156l-248 147l27 43l240 -145v286h49v-286l239 145l27 -43l-248 -147l248 -156l-27 -43l-239 158v-299h-49v299l-240 -158z" />
<glyph unicode="+" horiz-adv-x="1126" d="M88 614v48h451v481h51v-481h446v-48h-446v-481h-51v481h-451z" />
<glyph unicode="," horiz-adv-x="372" d="M119 -152q62 62 71 125q-26 0 -44.5 17.5t-18.5 44.5q0 25 17 43t42 18q29 0 46.5 -19.5t17.5 -47.5q0 -117 -96 -213z" />
<glyph unicode="-" horiz-adv-x="634" d="M78 588v47h477v-47h-477z" />
<glyph unicode="." horiz-adv-x="376" d="M127 35q0 25 17 43t44 18t44.5 -18t17.5 -43t-17.5 -43.5t-44.5 -18.5t-44 18t-17 44z" />
<glyph unicode="/" horiz-adv-x="823" d="M72 -221l624 1757h56l-625 -1757h-55z" />
<glyph unicode="0" horiz-adv-x="1095" d="M113 717q0 145 10.5 253t39 204t77 156.5t125.5 95t182 34.5q88 0 156 -23t115.5 -69.5t79.5 -108.5t50 -149t25.5 -180t7.5 -213q0 -145 -10.5 -253t-39 -204.5t-77 -157t-125.5 -95t-182 -34.5q-76 0 -137 18t-106 50t-78 82.5t-54.5 110t-35 138t-18.5 161t-5 184.5z M166 717q0 -90 2.5 -155t11.5 -142t25 -130.5t44.5 -107t68 -85.5t97.5 -52t132 -20t132 20t97.5 53t68 86.5t44.5 107.5t25 130.5t11.5 141.5t2.5 153q0 90 -2.5 155t-11.5 142t-25 130.5t-44.5 107t-68 85.5t-97.5 52t-132 20t-132 -20t-97.5 -53t-68 -86.5t-44.5 -107.5 t-25 -130.5t-11.5 -141.5t-2.5 -153z" />
<glyph unicode="1" horiz-adv-x="579" d="M115 1335l229 99h39v-1434h-51v1374l-197 -86z" />
<glyph unicode="2" horiz-adv-x="987" d="M94 0v29q0 61 25 122t67 114t96.5 106t115 104.5t120.5 104.5t114.5 110t96.5 116t67 129t25 142q0 142 -89.5 237t-244.5 95q-73 0 -131.5 -23.5t-97 -64t-63 -87t-37.5 -101.5l-47 14q5 33 19 70.5t44 81.5t70.5 79t103.5 58.5t137 23.5q96 0 172 -31.5t122.5 -85.5 t70.5 -122t24 -144q0 -74 -25 -146.5t-67 -134t-96.5 -121t-114.5 -113.5t-120.5 -106t-115 -103t-96.5 -99.5t-67 -101t-25 -103.5h752v-49h-805z" />
<glyph unicode="3" horiz-adv-x="1046" d="M86 258l45 16q98 -249 379 -249q155 0 262 104t107 262q0 169 -104 270t-290 101h-104v45l446 575h-698v52h762v-54l-445 -567h39q197 0 322 -108.5t125 -313.5q0 -171 -121.5 -294.5t-300.5 -123.5q-94 0 -170 25t-125 68t-80 90.5t-49 101.5z" />
<glyph unicode="4" horiz-adv-x="1093" d="M72 389v47l702 998h39v-996h205v-49h-205v-389h-51v389h-690zM131 438h631v893z" />
<glyph unicode="5" horiz-adv-x="1036" d="M88 262l45 17q90 -252 363 -252q168 0 269 116.5t101 286.5q0 175 -102 291.5t-268 116.5q-176 0 -301 -125l-41 14l26 707h660v-48h-615l-24 -606q124 107 295 107q126 0 223.5 -61.5t149 -165t51.5 -230.5q0 -123 -51.5 -226.5t-149.5 -166t-223 -62.5 q-86 0 -156.5 24.5t-119 67t-80.5 90.5t-52 105z" />
<glyph unicode="6" horiz-adv-x="1089" d="M117 590q0 438 117 654t358 216q174 0 315 -110l-33 -37q-132 96 -282 96q-69 0 -127.5 -22t-101.5 -60t-76.5 -93t-55 -117.5t-35.5 -137t-20 -148.5t-6 -155q53 93 151 162t230 69q106 0 188.5 -37.5t132 -101.5t74.5 -143.5t25 -169.5q0 -224 -111.5 -353t-308.5 -129 q-85 0 -153.5 24t-115 69t-79.5 101.5t-51.5 128.5t-26.5 143t-8 151zM170 584q0 -559 381 -559q162 0 264.5 112.5t102.5 321.5q0 171 -97 284t-270 113q-130 0 -227.5 -75t-153.5 -197z" />
<glyph unicode="7" horiz-adv-x="940" d="M68 1382v52h819v-52l-539 -1382h-53l541 1382h-768z" />
<glyph unicode="8" horiz-adv-x="1097" d="M111 383q0 73 20 135t51 104t72 74.5t78.5 49.5t75.5 26q-34 12 -71 37t-76 65t-64 100.5t-25 129.5q0 160 108.5 258t268.5 98t268.5 -98t108.5 -258q0 -69 -25 -129.5t-64 -100.5t-76 -65t-71 -37q38 -9 75.5 -26t78.5 -49.5t72 -74.5t51 -104t20 -135 q0 -178 -125 -294t-313 -116t-313 116t-125 294zM164 383q0 -145 104 -251.5t281 -106.5t281 106.5t104 251.5q0 168 -110.5 264t-274.5 96t-274.5 -96t-110.5 -264zM223 1104q0 -126 95.5 -217.5t230.5 -91.5t230 91.5t95 217.5q0 130 -86.5 218.5t-238.5 88.5t-239 -89 t-87 -218z" />
<glyph unicode="9" horiz-adv-x="1089" d="M117 979q0 226 116.5 353.5t303.5 127.5q101 0 179 -35.5t125.5 -93.5t77.5 -140t41 -166t11 -181q0 -442 -114 -656.5t-361 -214.5q-173 0 -316 111l29 41q137 -100 287 -100q422 0 422 733q-53 -93 -151 -162.5t-230 -69.5q-106 0 -188.5 37.5t-132 102t-74.5 144 t-25 169.5zM170 975q0 -171 97 -284t270 -113q130 0 227.5 75t153.5 197q0 559 -381 559q-162 0 -264.5 -112.5t-102.5 -321.5z" />
<glyph unicode=":" horiz-adv-x="372" d="M127 35q0 25 17 43t44 18t44.5 -18t17.5 -43t-17.5 -43.5t-44.5 -18.5t-44 18t-17 44zM127 889q0 25 17 43t44 18t44.5 -18t17.5 -43t-17.5 -43.5t-44.5 -18.5t-44 18t-17 44z" />
<glyph unicode=";" horiz-adv-x="372" d="M119 -152q62 62 71 125q-26 0 -44.5 17.5t-18.5 44.5q0 25 17 43t42 18q29 0 46.5 -19.5t17.5 -47.5q0 -117 -96 -213zM127 889q0 25 17 43t44 18t44.5 -18t17.5 -43t-17.5 -43.5t-44.5 -18.5t-44 18t-17 44z" />
<glyph unicode="&#x3c;" horiz-adv-x="983" d="M86 612v58l811 374v-51l-770 -352l770 -352v-51z" />
<glyph unicode="=" horiz-adv-x="1126" d="M88 455v47h948v-47h-948zM88 758v47h948v-47h-948z" />
<glyph unicode="&#x3e;" horiz-adv-x="983" d="M86 238v51l770 352l-770 352v51l811 -374v-58z" />
<glyph unicode="?" horiz-adv-x="929" d="M100 1223q19 42 48.5 80.5t72 75.5t103.5 59t131 22q171 0 271.5 -105.5t100.5 -262.5q0 -73 -21.5 -137.5t-56 -112t-76 -91t-83.5 -82t-76.5 -77t-56 -85.5t-21.5 -97v-93h-51v93q0 55 21.5 105t56 90.5t75.5 80.5t82.5 83t76 88.5t56 106t21.5 128.5q0 138 -88 227.5 t-231 89.5q-64 0 -118 -19t-91 -52t-61.5 -66t-41.5 -70zM356 35q0 25 17.5 43t44.5 18t44 -18t17 -43q0 -26 -17 -44t-44 -18t-44.5 18.5t-17.5 43.5z" />
<glyph unicode="@" horiz-adv-x="1798" d="M102 543q0 238 103 428t286 296.5t412 106.5q185 0 337 -63t250 -169.5t151 -244t53 -289.5q0 -251 -73 -366t-196 -115q-92 0 -145.5 59.5t-60.5 143.5q-8 -29 -32.5 -62.5t-62.5 -66t-96.5 -53.5t-124.5 -21q-158 0 -266.5 114t-108.5 296q0 176 107.5 286.5 t267.5 110.5q82 0 149 -29.5t102.5 -65.5t59.5 -79v162h52v-557q0 -88 42 -138.5t119 -50.5q97 0 157.5 101t60.5 331q0 142 -52 271.5t-145.5 228t-235 157t-309.5 58.5q-215 0 -387 -103t-267 -281.5t-95 -397.5q0 -167 58.5 -313t159 -248t238.5 -161t293 -59 q230 0 391 80l23 -39q-62 -36 -172 -64t-242 -28q-165 0 -313 63t-255 173t-170 265.5t-63 332.5zM580 537q0 -156 94.5 -257.5t228.5 -101.5q140 0 228 94t88 265q0 157 -86 251.5t-230 94.5q-134 0 -228.5 -95t-94.5 -251z" />
<glyph unicode="A" horiz-adv-x="1236" d="M35 0l559 1434h49l559 -1434h-57l-209 543h-635l-209 -543h-57zM319 592h599l-300 770z" />
<glyph unicode="B" horiz-adv-x="1060" d="M184 0v1434h369q159 0 258.5 -103.5t99.5 -245.5q0 -115 -64.5 -207t-164.5 -126q121 -32 200 -128t79 -233q0 -74 -28.5 -144t-79.5 -125t-129.5 -88.5t-172.5 -33.5h-367zM238 51h323q148 0 246 95.5t98 244.5q0 144 -104.5 239t-263.5 95h-299v-674zM238 774h315 q126 0 214.5 86.5t88.5 224.5q0 127 -88 212t-215 85h-315v-608z" />
<glyph unicode="C" horiz-adv-x="1376" d="M92 717q0 156 57 294.5t153.5 236.5t226.5 155t272 57q262 0 454 -166l-22 -49q-24 22 -55.5 43.5t-86.5 51.5t-131.5 48.5t-158.5 18.5q-129 0 -248.5 -52t-209 -142t-143 -219.5t-53.5 -276.5t52.5 -276.5t141.5 -219.5t209 -142t251 -52q84 0 165 21.5t141.5 55.5 t96 59t62.5 50l26 -47q-219 -193 -491 -193q-146 0 -277 57t-226 155.5t-150.5 237t-55.5 294.5z" />
<glyph unicode="D" horiz-adv-x="1269" d="M184 0v1434h254q343 0 541.5 -191t198.5 -526q0 -349 -196.5 -533t-543.5 -184h-254zM238 51h200q316 0 500 170.5t184 495.5q0 312 -186 488.5t-498 176.5h-200v-1331z" />
<glyph unicode="E" horiz-adv-x="958" d="M184 0v1434h629v-52h-575v-622h507v-51h-507v-658h600v-51h-654z" />
<glyph unicode="F" horiz-adv-x="952" d="M184 0v1434h631v-52h-577v-630h505v-52h-505v-700h-54z" />
<glyph unicode="G" horiz-adv-x="1486" d="M92 717q0 158 55 296.5t150 236t226.5 154t279.5 56.5q291 0 489 -182l-35 -41q-179 170 -454 170q-185 0 -335 -89t-235.5 -247t-85.5 -354q0 -146 50.5 -274t137.5 -219.5t208.5 -144t259.5 -52.5q94 0 181 22.5t147.5 57t98 63.5t60.5 55v396h-366v51h417v-469 q-211 -230 -538 -230q-153 0 -286 58t-226 157t-146 236.5t-53 292.5z" />
<glyph unicode="H" horiz-adv-x="1390" d="M184 0v1434h54v-674h915v674h53v-1434h-53v711h-915v-711h-54z" />
<glyph unicode="I" horiz-adv-x="421" d="M184 0v1434h54v-1434h-54z" />
<glyph unicode="J" horiz-adv-x="653" d="M49 8l6 45q77 -18 150 -18q101 0 156 59t55 195v1145h53v-1145q0 -143 -64 -222t-200 -79q-96 0 -156 20z" />
<glyph unicode="K" horiz-adv-x="1064" d="M184 0v1434h54v-676l675 676h72l-684 -686l715 -748h-68l-710 735v-735h-54z" />
<glyph unicode="L" horiz-adv-x="907" d="M184 0v1434h54v-1383h600v-51h-654z" />
<glyph unicode="M" horiz-adv-x="1720" d="M184 0v1434h64l612 -1239l613 1239h63v-1434h-51v1348l-590 -1207h-70l-589 1207v-1348h-52z" />
<glyph unicode="N" horiz-adv-x="1425" d="M184 0v1434h49l957 -1338v1338h51v-1434h-51l-954 1343v-1343h-52z" />
<glyph unicode="O" horiz-adv-x="1617" d="M92 717q0 157 57 295.5t153.5 236.5t228.5 154.5t278 56.5t278 -56.5t228.5 -154.5t153.5 -236.5t57 -295.5q0 -158 -57 -297t-154 -236.5t-228.5 -154t-277.5 -56.5t-277.5 56.5t-228.5 154t-154 236.5t-57 297zM147 717q0 -148 51.5 -276.5t139.5 -219t210.5 -142.5 t260.5 -52t260.5 52t210.5 142.5t139 219t51 276.5q0 194 -87 352.5t-238.5 248t-335.5 89.5q-138 0 -260.5 -52.5t-210.5 -144t-139.5 -219.5t-51.5 -274z" />
<glyph unicode="P" horiz-adv-x="976" d="M184 0v1434h330q172 0 282.5 -102.5t110.5 -282.5t-109.5 -282.5t-283.5 -102.5h-276v-664h-54zM238 715h272q152 0 247 90t95 244q0 155 -92.5 244t-249.5 89h-272v-667z" />
<glyph unicode="Q" horiz-adv-x="1619" d="M92 717q0 157 57 295.5t153.5 236.5t228.5 154.5t278 56.5t278 -56.5t228.5 -154.5t153.5 -236.5t57 -295.5q0 -163 -59 -303t-164 -242l163 -168l-32 -35l-166 170q-196 -166 -459 -166q-146 0 -277.5 56.5t-228.5 154t-154 236.5t-57 297zM147 717q0 -148 51.5 -276.5 t139.5 -219t210.5 -142.5t260.5 -52q247 0 422 149l-168 174l35 35l170 -176q96 94 149 224t53 284q0 194 -87 352.5t-238.5 248t-335.5 89.5q-138 0 -260.5 -52.5t-210.5 -144t-139.5 -219.5t-51.5 -274z" />
<glyph unicode="R" horiz-adv-x="1048" d="M184 0v1434h318q174 0 284.5 -102.5t110.5 -266.5q0 -149 -81 -241t-208 -126l381 -698h-59l-373 688q-55 -6 -108 -6h-211v-682h-54zM238 733h233q173 0 272 93t99 239q0 135 -91.5 226t-248.5 91h-264v-649z" />
<glyph unicode="S" horiz-adv-x="1009" d="M92 270l53 15q16 -50 42 -92t68.5 -81.5t109.5 -62t151 -22.5q145 0 241.5 87.5t96.5 227.5q0 72 -24.5 130t-66 98.5t-95.5 74t-113 61.5t-118.5 56t-113.5 61.5t-95.5 74t-66 98.5t-24.5 130q0 138 99.5 236t271.5 98q81 0 147.5 -23.5t110 -63t69 -75t44.5 -75.5 l-50 -21q-13 27 -29 52t-44 54t-61.5 50t-82 35t-104.5 14q-148 0 -233 -79.5t-85 -201.5q0 -64 24.5 -115.5t66 -88t95.5 -67.5t114 -58.5t119.5 -56t113.5 -65.5t95.5 -81t66 -108t24.5 -142q0 -156 -108.5 -263.5t-284.5 -107.5q-327 0 -424 297z" />
<glyph unicode="T" d="M47 1382v52h918v-52h-433v-1382h-51v1382h-434z" />
<glyph unicode="U" horiz-adv-x="1359" d="M172 494v940h53v-938q0 -220 117.5 -344.5t337.5 -124.5t337.5 124.5t117.5 344.5v938h53v-940q0 -240 -135.5 -380.5t-372.5 -140.5t-372.5 140.5t-135.5 380.5z" />
<glyph unicode="V" horiz-adv-x="1224" d="M25 1434h59l528 -1371l529 1371h59l-561 -1434h-53z" />
<glyph unicode="W" horiz-adv-x="1867" d="M29 1434h55l401 -1352l412 1352h74l411 -1352l402 1352h55l-430 -1434h-55l-420 1366l-420 -1366h-55z" />
<glyph unicode="X" horiz-adv-x="1159" d="M37 0l508 754l-455 680h60l430 -641l430 641h59l-455 -680l508 -754h-61l-481 713l-482 -713h-61z" />
<glyph unicode="Y" horiz-adv-x="995" d="M25 1434h59l414 -693l413 693h60l-447 -744v-690h-53v690z" />
<glyph unicode="Z" horiz-adv-x="1200" d="M78 0v51l969 1331h-936v52h997v-52l-967 -1331h971v-51h-1034z" />
<glyph unicode="[" horiz-adv-x="548" d="M178 -293v1802h219v-51h-166v-1700h166v-51h-219z" />
<glyph unicode="\" horiz-adv-x="823" d="M72 1536h55l625 -1757h-56z" />
<glyph unicode="]" horiz-adv-x="536" d="M152 -242h165v1700h-165v51h219v-1802h-219v51z" />
<glyph unicode="^" horiz-adv-x="1007" d="M104 651l379 783h41l379 -783h-51l-348 727l-348 -727h-52z" />
<glyph unicode="_" horiz-adv-x="1228" d="M86 -61h1057v-48h-1057v48z" />
<glyph unicode="`" d="M395 1481h70l151 -287h-53z" />
<glyph unicode="a" d="M88 324q0 144 112 241t283 97q119 0 205 -47t131 -115v227q0 148 -86 226.5t-231 78.5q-171 0 -338 -102l-27 45q182 108 363 108q179 0 274.5 -96t95.5 -262v-725h-41l-10 147q-43 -72 -128.5 -123t-207.5 -51q-177 0 -286 100t-109 251zM141 322q0 -122 94 -209.5 t248 -87.5q150 0 246 86t96 211t-98 206.5t-244 81.5q-153 0 -247.5 -83t-94.5 -205z" />
<glyph unicode="b" horiz-adv-x="1241" d="M166 0v1481h51v-680q19 46 53.5 91.5t87.5 90t131.5 72.5t167.5 28q220 0 359 -154.5t139 -400.5t-139 -400.5t-359 -154.5q-89 0 -167.5 28t-131.5 72.5t-87.5 90.5t-53.5 92v-256h-51zM215 528q0 -122 37.5 -220.5t100.5 -158.5t141 -92t163 -32q190 0 317.5 141.5 t127.5 361.5t-127.5 362t-317.5 142q-85 0 -163 -32t-141 -92.5t-100.5 -159t-37.5 -220.5z" />
<glyph unicode="c" horiz-adv-x="1091" d="M86 528q0 151 71 279t194 202t270 74q78 0 147.5 -19t118 -50t77 -56t50.5 -51l-31 -45q-150 168 -362 168q-129 0 -239 -65.5t-175.5 -181.5t-65.5 -255q0 -134 66 -250t177 -183.5t237 -67.5q231 0 370 182l25 -49q-14 -21 -41 -47.5t-75 -60.5t-121.5 -56.5 t-157.5 -22.5q-148 0 -271 74t-193.5 201.5t-70.5 279.5z" />
<glyph unicode="d" horiz-adv-x="1241" d="M86 528q0 246 139 400.5t359 154.5q89 0 167.5 -28t131.5 -72.5t87.5 -90t53.5 -91.5v680h51v-1481h-51v256q-19 -46 -53.5 -92t-87.5 -90.5t-131.5 -72.5t-167.5 -28q-220 0 -359 154.5t-139 400.5zM139 528q0 -220 127.5 -361.5t317.5 -141.5q85 0 163 32t141 92 t100.5 158.5t37.5 220.5t-37.5 220.5t-100.5 159t-141 92.5t-163 32q-190 0 -317.5 -142t-127.5 -362z" />
<glyph unicode="e" horiz-adv-x="1167" d="M84 526q0 129 42 236.5t113 176.5t161.5 106.5t189.5 37.5q149 0 263 -68.5t174 -185.5t60 -264v-37h-950q0 -237 132.5 -370t348.5 -133q244 0 392 202l39 -26q-65 -100 -172 -164t-259 -64q-242 0 -388 151.5t-146 401.5zM139 578h895q-5 110 -44 198t-101 143 t-138.5 84t-160.5 29q-172 0 -303 -122.5t-148 -331.5z" />
<glyph unicode="f" horiz-adv-x="542" d="M61 1010v47h125v73q0 94 22.5 161.5t62 104.5t86 53.5t102.5 16.5l49 -4v-51q-26 4 -53 4q-217 0 -217 -280v-78h264v-47h-264v-1010h-52v1010h-125z" />
<glyph unicode="g" horiz-adv-x="1226" d="M84 528q0 246 139 400.5t359 154.5q89 0 167.5 -28t131.5 -72.5t87.5 -90t53.5 -91.5v256h51v-934q0 -263 -128.5 -388.5t-362.5 -125.5q-98 0 -199.5 32.5t-179.5 82.5l28 45q61 -39 154 -73t197 -34q207 0 323.5 115.5t116.5 339.5v139q-19 -46 -53.5 -92t-87.5 -90.5 t-131.5 -72.5t-167.5 -28q-220 0 -359 154.5t-139 400.5zM137 528q0 -220 127.5 -361.5t317.5 -141.5q85 0 163 32t141 92t100.5 158.5t37.5 220.5t-37.5 220.5t-100.5 159t-141 92.5t-163 32q-190 0 -317.5 -142t-127.5 -362z" />
<glyph unicode="h" horiz-adv-x="1110" d="M166 0v1481h51v-615q43 99 138.5 158t213.5 59q101 0 187 -40.5t143 -127t57 -204.5v-711h-51v690q0 157 -96 249.5t-240 92.5q-153 0 -252.5 -105t-99.5 -276v-651h-51z" />
<glyph unicode="i" horiz-adv-x="382" d="M131 1352q0 25 18 42t44 17t43.5 -17t17.5 -42q0 -26 -17.5 -44t-43.5 -18t-44 18t-18 44zM166 0v1057h51v-1057h-51z" />
<glyph unicode="j" horiz-adv-x="382" d="M-86 -336q25 -2 45 -2q103 0 155 68t52 213v1114h51v-1108q0 -338 -260 -338l-43 2v51zM131 1352q0 25 18 42t44 17t43.5 -17t17.5 -42q0 -26 -17.5 -44t-43.5 -18t-44 18t-18 44z" />
<glyph unicode="k" horiz-adv-x="876" d="M166 0v1481h51v-883l539 459h78l-558 -469l584 -588h-78l-565 575v-575h-51z" />
<glyph unicode="l" horiz-adv-x="382" d="M166 0v1481h51v-1481h-51z" />
<glyph unicode="m" horiz-adv-x="1773" d="M166 0v1057h51v-191q35 90 127.5 153.5t202.5 63.5q137 0 228 -69t124 -172q36 107 131 174t219 67q172 0 270.5 -104t98.5 -274v-705h-51v684q0 163 -82.5 255.5t-235.5 92.5q-147 0 -239 -97.5t-92 -285.5v-649h-52v700q0 159 -87 245.5t-232 86.5 q-141 0 -235.5 -106.5t-94.5 -276.5v-649h-51z" />
<glyph unicode="n" horiz-adv-x="1099" d="M166 0v1057h51v-191q43 99 136 158t210 59q101 0 185.5 -40.5t140 -127t55.5 -204.5v-711h-51v690q0 157 -93.5 249.5t-236.5 92.5q-152 0 -249 -104.5t-97 -276.5v-651h-51z" />
<glyph unicode="o" horiz-adv-x="1245" d="M86 528q0 116 41 219t112 177t171 116.5t213 42.5q151 0 274 -72.5t192.5 -200t69.5 -282.5t-69.5 -282.5t-192.5 -200t-274 -72.5q-113 0 -213 42.5t-171 116.5t-112 177t-41 219zM139 528q0 -213 137 -358t347 -145t346.5 145t136.5 358q0 140 -61 255t-172 182 t-250 67q-210 0 -347 -145.5t-137 -358.5z" />
<glyph unicode="p" horiz-adv-x="1241" d="M166 -383v1440h51v-256q19 46 53.5 91.5t87.5 90t131.5 72.5t167.5 28q220 0 359 -154.5t139 -400.5t-139 -400.5t-359 -154.5q-89 0 -167.5 28t-131.5 72.5t-87.5 90.5t-53.5 92v-639h-51zM215 528q0 -122 37.5 -220.5t100.5 -158.5t141 -92t163 -32q190 0 317.5 141.5 t127.5 361.5t-127.5 362t-317.5 142q-85 0 -163 -32t-141 -92.5t-100.5 -159t-37.5 -220.5z" />
<glyph unicode="q" horiz-adv-x="1241" d="M86 528q0 246 139 400.5t359 154.5q89 0 167.5 -28t131.5 -72.5t87.5 -90t53.5 -91.5v256h51v-1440h-51v639q-19 -46 -53.5 -92t-87.5 -90.5t-131.5 -72.5t-167.5 -28q-220 0 -359 154.5t-139 400.5zM139 528q0 -220 127.5 -361.5t317.5 -141.5q85 0 163 32t141 92 t100.5 158.5t37.5 220.5t-37.5 220.5t-100.5 159t-141 92.5t-163 32q-190 0 -317.5 -142t-127.5 -362z" />
<glyph unicode="r" horiz-adv-x="616" d="M166 0v1057h51v-223q27 110 117 179.5t221 69.5v-53q-76 0 -135 -25.5t-96.5 -68t-62 -104t-34.5 -128.5t-10 -145v-559h-51z" />
<glyph unicode="s" horiz-adv-x="823" d="M80 225l51 13q11 -42 32 -77.5t55 -67.5t87.5 -50t120.5 -18q105 0 182.5 65.5t77.5 173.5q0 65 -31 113.5t-80.5 78.5t-109 55.5t-119.5 51.5t-109.5 58t-80.5 84.5t-31 121.5q0 116 81.5 186t207.5 70q67 0 123.5 -20t92.5 -52.5t57.5 -66.5t29.5 -67l-47 -15 q-11 31 -28 58t-46.5 54t-76 42.5t-105.5 15.5q-101 0 -168.5 -55.5t-67.5 -149.5q0 -59 31 -103.5t80.5 -72.5t109 -52.5t119.5 -51.5t109.5 -61.5t80.5 -91t31 -130.5q0 -127 -88.5 -209t-224.5 -82q-80 0 -143.5 23t-103 61.5t-63.5 80t-36 87.5z" />
<glyph unicode="t" horiz-adv-x="555" d="M39 1010v47h135v221h53v-221h265v-47h-265v-650q0 -173 48.5 -247t177.5 -74q21 0 49 4v-49q-21 -6 -72 -6q-126 0 -191 83.5t-65 243.5v695h-135z" />
<glyph unicode="u" horiz-adv-x="1085" d="M154 346v711h51v-690q0 -157 93.5 -249.5t236.5 -92.5q152 0 249 104.5t97 276.5v651h51v-1057h-51v190q-43 -99 -136 -158t-210 -59q-74 0 -142 24t-121.5 69.5t-85.5 118t-32 161.5z" />
<glyph unicode="v" horiz-adv-x="942" d="M16 1057h58l401 -979l402 979h57l-436 -1057h-45z" />
<glyph unicode="w" horiz-adv-x="1648" d="M14 1057h58l360 -981q2 4 361 981h63l361 -981l360 981h57l-395 -1057h-51l-363 993l-364 -993h-51z" />
<glyph unicode="x" horiz-adv-x="925" d="M23 0l409 555l-371 502h64l338 -459l338 459h63l-370 -502l409 -555h-63l-377 512l-377 -512h-63z" />
<glyph unicode="y" horiz-adv-x="983" d="M14 1057h58l426 -1000l413 1000h58l-598 -1424h-60l158 363z" />
<glyph unicode="z" horiz-adv-x="937" d="M72 0v49l708 959h-682v49h748v-49l-709 -959h721v-49h-786z" />
<glyph unicode="{" horiz-adv-x="608" d="M88 584v49q77 0 113.5 52.5t36.5 162.5v430q0 120 54 175.5t138 55.5h27v-51h-29q-68 0 -102.5 -48t-34.5 -136v-426q0 -52 -9.5 -93.5t-21 -65t-30 -42.5t-29 -25.5t-25.5 -13.5q19 -9 33 -19.5t36 -36.5t34 -72.5t12 -110.5v-426q0 -88 34.5 -136.5t102.5 -48.5h29v-51 h-27q-83 0 -137.5 56t-54.5 176v430q0 110 -36.5 162.5t-113.5 52.5z" />
<glyph unicode="|" horiz-adv-x="458" d="M203 -379v1929h53v-1929h-53z" />
<glyph unicode="}" horiz-adv-x="608" d="M152 -242h28q68 0 102.5 48.5t34.5 136.5v426q0 64 12 110.5t34 72.5t36 36.5t33 19.5q-15 7 -25.5 13.5t-29 25.5t-30 42.5t-21 65t-9.5 93.5v426q0 88 -34.5 136t-102.5 48h-28v51h26q84 0 138.5 -55.5t54.5 -175.5v-430q0 -110 36.5 -162.5t112.5 -52.5v-49 q-76 0 -112.5 -52.5t-36.5 -162.5v-430q0 -120 -54.5 -176t-138.5 -56h-26v51z" />
<glyph unicode="~" horiz-adv-x="1081" d="M111 518q0 90 57.5 154.5t157.5 64.5q51 0 99 -18t86 -44t74.5 -52t80.5 -44t90 -18q79 0 120.5 49.5t43.5 120.5h51q0 -90 -57.5 -154.5t-157.5 -64.5q-48 0 -95.5 18t-86 44t-76.5 52t-83 44t-89 18q-79 0 -120.5 -49.5t-43.5 -120.5h-51z" />
<glyph unicode="&#xa1;" horiz-adv-x="466" d="M172 1085q0 26 17 44t44 18t44.5 -18.5t17.5 -43.5t-17.5 -43t-44.5 -18t-44 18t-17 43zM207 -313l4 1116h43l4 -1116h-51z" />
<glyph unicode="&#xa2;" horiz-adv-x="1110" d="M88 692q0 149 66 275t180.5 201t253.5 81v187h49v-189q227 -8 379 -182l-31 -39q-28 32 -55.5 56.5t-73 53t-108.5 44.5t-138 16q-129 0 -236.5 -66.5t-169 -182.5t-61.5 -255t61.5 -255t169 -182.5t236.5 -66.5q232 0 379 170l31 -39q-152 -174 -383 -184v-135h-49v135 q-139 6 -253.5 81t-180.5 201t-66 275z" />
<glyph unicode="&#xa3;" horiz-adv-x="1101" d="M94 0v49h152v649h-129v50h129v319q0 176 99.5 284.5t270.5 108.5q72 0 133.5 -23t103.5 -60t68.5 -71.5t43.5 -70.5l-43 -23q-14 34 -39 67t-62 63.5t-90.5 49.5t-114.5 19q-149 0 -234 -93t-85 -251v-319h369v-50h-369v-649h694v-49h-897z" />
<glyph unicode="&#xa5;" horiz-adv-x="995" d="M25 1434h59l414 -693l413 693h60l-418 -697h307v-47h-336v-235h336v-47h-336v-408h-53v408h-338v47h338v235h-338v47h309z" />
<glyph unicode="&#xa7;" horiz-adv-x="915" d="M76 618q0 105 64 178t163 101q-81 59 -129.5 127.5t-48.5 167.5q0 137 94 223t252 86q140 0 226 -62.5t118 -144.5l-41 -16q-84 176 -303 176q-141 0 -219 -74.5t-78 -189.5q0 -162 207 -285l217 -129q117 -70 178.5 -141.5t61.5 -169.5q0 -105 -64 -178t-164 -101 q81 -59 129.5 -127.5t48.5 -167.5q0 -137 -94 -223t-252 -86q-75 0 -137 19t-102 51t-65.5 66t-39.5 71l41 16q84 -176 303 -176q141 0 219 75t78 190q0 161 -207 284l-217 129q-76 45 -124.5 86t-81.5 99.5t-33 125.5zM125 618q0 -86 56 -150t163 -126l211 -121 q108 15 170.5 81t62.5 163q0 86 -56 150t-163 126l-211 121q-108 -15 -170.5 -81t-62.5 -163z" />
<glyph unicode="&#xa8;" d="M276 1337q0 29 20 48.5t48 19.5t48 -19.5t20 -48.5t-20 -48t-48 -19t-48 19t-20 48zM600 1337q0 29 20 48.5t48 19.5t47.5 -19.5t19.5 -48.5t-19.5 -48t-47.5 -19t-48 19t-20 48z" />
<glyph unicode="&#xa9;" horiz-adv-x="1673" d="M111 717q0 204 91 373.5t258 269.5t376 100t376 -100t258 -269.5t91 -373.5t-91 -373.5t-258 -270t-376 -100.5t-376 100.5t-258 270t-91 373.5zM166 717q0 -142 49.5 -268.5t136 -219.5t212.5 -147.5t272 -54.5q194 0 348 93t237.5 250t83.5 347t-83.5 347t-237.5 250 t-348 93q-146 0 -272 -54.5t-212.5 -147.5t-136 -219.5t-49.5 -268.5zM469 717q0 169 99.5 280t267.5 111q177 0 303 -139l-39 -35q-101 123 -264 123q-148 0 -230 -97.5t-82 -242.5t82 -242.5t230 -97.5q163 0 264 123l39 -35q-126 -139 -303 -139q-168 0 -267.5 111 t-99.5 280z" />
<glyph unicode="&#xaa;" horiz-adv-x="831" d="M113 883q0 109 85.5 182.5t215.5 73.5q76 0 140 -29.5t101 -71.5v144q0 110 -63 170.5t-166 60.5q-125 0 -252 -78l-22 41q135 84 274 84q135 0 207 -75.5t72 -204.5v-547h-41l-9 98q-35 -47 -99 -82t-142 -35q-133 0 -217 77.5t-84 191.5zM162 883q0 -89 70 -155 t182 -66q107 0 177.5 64.5t70.5 156.5t-68.5 150.5t-179.5 58.5q-113 0 -182.5 -61t-69.5 -148z" />
<glyph unicode="&#xab;" horiz-adv-x="761" d="M82 594l256 371h53l-252 -371l252 -371h-53zM350 594l256 371h53l-251 -371l251 -371h-53z" />
<glyph unicode="&#xad;" horiz-adv-x="634" d="M78 588v47h477v-47h-477z" />
<glyph unicode="&#xae;" horiz-adv-x="925" d="M55 1108q0 174 112 289.5t296 115.5t295.5 -115.5t111.5 -289.5t-111.5 -290t-295.5 -116t-296 116t-112 290zM102 1108q0 -159 98 -259.5t263 -100.5t262.5 100.5t97.5 259.5t-97.5 259.5t-262.5 100.5t-263 -100.5t-98 -259.5zM354 887v442h121q57 0 94 -32t37 -91 q0 -44 -23.5 -76t-60.5 -43l92 -200h-47l-88 194h-80v-194h-45zM399 1124h76q41 0 62.5 25t21.5 57q0 39 -23 59.5t-61 20.5h-76v-162z" />
<glyph unicode="&#xaf;" horiz-adv-x="935" d="M236 1341v54h464v-54h-464z" />
<glyph unicode="&#xb0;" horiz-adv-x="688" d="M78 1194q0 112 75.5 189t190.5 77t190.5 -77t75.5 -189t-75.5 -189t-190.5 -77t-190.5 77t-75.5 189zM127 1194q0 -92 60 -155.5t157 -63.5t157 63.5t60 155.5t-60 155.5t-157 63.5t-157 -63.5t-60 -155.5z" />
<glyph unicode="&#xb2;" horiz-adv-x="665" d="M117 625v47q0 46 21.5 91.5t56 84t76 76t82.5 75t75.5 74t56 79t21.5 85.5q0 70 -48.5 118t-123.5 48q-68 0 -111.5 -38.5t-66.5 -88.5l-37 22q21 60 78 106t135 46q101 0 162 -62.5t61 -150.5q0 -68 -40.5 -131.5t-97.5 -113.5t-114.5 -99t-98 -106.5t-40.5 -116.5h405 v-45h-452z" />
<glyph unicode="&#xb3;" horiz-adv-x="667" d="M92 762l39 22q28 -55 80.5 -92t126.5 -37q79 0 134.5 53.5t55.5 141.5t-55.5 139t-153.5 51h-69v43l252 306h-371v45h426v-45l-250 -304h12q112 0 185.5 -62.5t73.5 -172.5q0 -104 -68 -172t-174 -68q-85 0 -147 40.5t-97 111.5z" />
<glyph unicode="&#xb4;" d="M395 1194l152 287h69l-167 -287h-54z" />
<glyph unicode="&#xb6;" horiz-adv-x="944" d="M96 1061q0 154 109.5 263.5t261.5 109.5h82v-1526h-53v780h-15q-163 0 -274 109.5t-111 263.5zM707 -92v1526h53v-1526h-53z" />
<glyph unicode="&#xb7;" horiz-adv-x="419" d="M147 643q0 25 17.5 43.5t44.5 18.5t44 -18t17 -44q0 -25 -17 -43t-44 -18t-44.5 18t-17.5 43z" />
<glyph unicode="&#xb8;" horiz-adv-x="935" d="M336 -444l6 47q32 -4 57 -4q64 0 105 27t41 87q0 52 -38.5 79.5t-107.5 27.5h-24l22 198h49l-22 -153q82 -6 128 -44.5t46 -101.5q0 -89 -58 -128.5t-147 -39.5z" />
<glyph unicode="&#xb9;" horiz-adv-x="462" d="M111 1372l143 62h37v-809h-47v755l-117 -49z" />
<glyph unicode="&#xba;" horiz-adv-x="935" d="M55 1036q0 184 116.5 304t293.5 120t293 -120t116 -304q0 -182 -116 -302t-293 -120t-293.5 120t-116.5 302zM104 1036q0 -159 102.5 -266.5t258.5 -107.5t258 107.5t102 266.5q0 158 -103 267.5t-257 109.5t-257.5 -109.5t-103.5 -267.5z" />
<glyph unicode="&#xbb;" horiz-adv-x="761" d="M82 223l252 371l-252 371h53l256 -371l-256 -371h-53zM350 223l252 371l-252 371h53l256 -371l-256 -371h-53z" />
<glyph unicode="&#xbc;" horiz-adv-x="1536" d="M213 1372l143 62h37v-809h-47v755l-117 -49zM348 -84l826 1602h53l-826 -1602h-53zM889 176v39l405 594h35v-586h115v-47h-115v-176h-47v176h-393zM952 223h330v486z" />
<glyph unicode="&#xbd;" horiz-adv-x="1554" d="M201 1372l143 62h37v-809h-47v755l-117 -49zM322 -84l825 1602h53l-825 -1602h-53zM969 0v47q0 46 21.5 91.5t56 84t76 76t82.5 75t75.5 74t56 79t21.5 85.5q0 70 -48.5 118t-123.5 48q-68 0 -111.5 -38.5t-66.5 -88.5l-37 23q21 60 78 105.5t135 45.5q101 0 162 -62.5 t61 -150.5q0 -68 -40.5 -131.5t-97.5 -113.5t-114.5 -99t-98 -106.5t-40.5 -116.5h405v-45h-452z" />
<glyph unicode="&#xbe;" horiz-adv-x="1667" d="M141 762l39 22q28 -55 80.5 -92t126.5 -37q79 0 135 53.5t56 141.5t-55.5 139t-153.5 51h-70v43l252 306h-371v45h426v-45l-250 -304h13q112 0 185 -62.5t73 -172.5q0 -104 -68 -172t-174 -68q-85 0 -147 40.5t-97 111.5zM475 -84l825 1602h54l-826 -1602h-53zM979 176 v39l405 594h35v-586h115v-47h-115v-176h-47v176h-393zM1042 223h330v486z" />
<glyph unicode="&#xbf;" horiz-adv-x="929" d="M102 29q0 73 21.5 137.5t56 112t76.5 91t84 82t76.5 77t56 85.5t21.5 97v92h51v-92q0 -55 -21.5 -105t-56 -90.5t-76 -80.5t-82.5 -83t-75.5 -88.5t-56 -106t-21.5 -128.5q0 -138 88 -228t231 -90q64 0 118 19t90.5 52t61 65.5t41.5 70.5l43 -20q-20 -42 -48.5 -80.5 t-71 -76t-103.5 -59.5t-131 -22q-171 0 -272 106t-101 263zM451 1085q0 26 17 44t44 18t44 -18t17 -44q0 -25 -17 -43t-44 -18t-44 18t-17 43z" />
<glyph unicode="&#xc0;" horiz-adv-x="1236" d="M35 0l559 1434h49l559 -1434h-57l-209 543h-635l-209 -543h-57zM319 592h599l-300 770zM414 1819h69l152 -287h-53z" />
<glyph unicode="&#xc1;" horiz-adv-x="1236" d="M35 0l559 1434h49l559 -1434h-57l-209 543h-635l-209 -543h-57zM319 592h599l-300 770zM592 1532l151 287h70l-168 -287h-53z" />
<glyph unicode="&#xc2;" horiz-adv-x="1236" d="M35 0l559 1434h49l559 -1434h-57l-209 543h-635l-209 -543h-57zM319 592h599l-300 770zM399 1554l193 248h57l193 -248h-56l-165 197l-166 -197h-56z" />
<glyph unicode="&#xc3;" horiz-adv-x="1236" d="M35 0l559 1434h49l559 -1434h-57l-209 543h-635l-209 -543h-57zM319 592h599l-300 770zM338 1585q0 72 43.5 115t110.5 43q36 0 73.5 -17t63.5 -37.5t61 -37.5t68 -17q40 0 68 30t28 77h51q0 -72 -43 -115t-110 -43q-36 0 -73.5 17t-64 37.5t-61.5 37.5t-68 17 q-40 0 -68 -30t-28 -77h-51z" />
<glyph unicode="&#xc4;" horiz-adv-x="1236" d="M35 0l559 1434h49l559 -1434h-57l-209 543h-635l-209 -543h-57zM319 592h599l-300 770zM391 1663q0 29 20 48.5t48 19.5t47.5 -19.5t19.5 -48.5t-19.5 -48.5t-47.5 -19.5t-48 19.5t-20 48.5zM715 1663q0 29 19.5 48.5t47.5 19.5t48 -19.5t20 -48.5t-20 -48.5t-48 -19.5 t-47.5 19.5t-19.5 48.5z" />
<glyph unicode="&#xc5;" horiz-adv-x="1236" d="M35 0l559 1434h49l559 -1434h-57l-209 543h-635l-209 -543h-57zM319 592h599l-300 770zM473 1686q0 67 42 108t106 41t105.5 -41t41.5 -108t-41.5 -108.5t-105.5 -41.5t-106 41.5t-42 108.5zM524 1686q0 -43 26.5 -72t70.5 -29t70 29t26 72t-26 71.5t-70 28.5 t-70.5 -28.5t-26.5 -71.5z" />
<glyph unicode="&#xc6;" horiz-adv-x="1572" d="M18 0l711 1434h698v-52h-575v-622h508v-51h-508v-658h600v-51h-653v543h-457l-266 -543h-58zM367 592h432v790h-43z" />
<glyph unicode="&#xc7;" horiz-adv-x="1376" d="M92 717q0 156 57 294.5t153.5 236.5t226.5 155t272 57q262 0 454 -166l-22 -49q-24 22 -55.5 43.5t-86.5 51.5t-131.5 48.5t-158.5 18.5q-129 0 -248.5 -52t-209 -142t-143 -219.5t-53.5 -276.5t52.5 -276.5t141.5 -219.5t209 -142t251 -52q84 0 165 21.5t141.5 55.5 t96 59t62.5 50l26 -47q-219 -193 -491 -193q-6 0 -17 1t-16 1l-16 -110q82 -6 128 -44.5t46 -101.5q0 -89 -58 -128.5t-147 -39.5l-57 5l6 47q32 -4 57 -4q64 0 104.5 27t40.5 87q0 52 -38.5 79.5t-106.5 27.5h-25l17 157q-132 14 -248 76.5t-199.5 159.5t-131.5 227.5 t-48 276.5z" />
<glyph unicode="&#xc8;" horiz-adv-x="958" d="M184 0v1434h629v-52h-575v-622h507v-51h-507v-658h600v-51h-654zM346 1819h70l151 -287h-53z" />
<glyph unicode="&#xc9;" horiz-adv-x="958" d="M184 0v1434h629v-52h-575v-622h507v-51h-507v-658h600v-51h-654zM467 1532l151 287h70l-168 -287h-53z" />
<glyph unicode="&#xca;" horiz-adv-x="958" d="M184 0v1434h629v-52h-575v-622h507v-51h-507v-658h600v-51h-654zM297 1554l192 248h58l192 -248h-55l-166 197l-166 -197h-55z" />
<glyph unicode="&#xcb;" horiz-adv-x="958" d="M184 0v1434h629v-52h-575v-622h507v-51h-507v-658h600v-51h-654zM289 1663q0 29 19.5 48.5t47.5 19.5t48 -19.5t20 -48.5t-20 -48.5t-48 -19.5t-47.5 19.5t-19.5 48.5zM612 1663q0 29 20 48.5t48 19.5t48 -19.5t20 -48.5t-20 -48.5t-48 -19.5t-48 19.5t-20 48.5z" />
<glyph unicode="&#xcc;" horiz-adv-x="421" d="M25 1819h69l152 -287h-53zM184 0v1434h54v-1434h-54z" />
<glyph unicode="&#xcd;" horiz-adv-x="421" d="M172 1532l152 287h69l-168 -287h-53zM184 0v1434h54v-1434h-54z" />
<glyph unicode="&#xce;" horiz-adv-x="421" d="M0 1554l193 248h57l192 -248h-55l-166 197l-166 -197h-55zM184 0v1434h54v-1434h-54z" />
<glyph unicode="&#xcf;" horiz-adv-x="421" d="M-16 1663q0 29 19.5 48.5t47.5 19.5t48 -19.5t20 -48.5t-20 -48.5t-48 -19.5t-47.5 19.5t-19.5 48.5zM184 0v1434h54v-1434h-54zM307 1663q0 29 20 48.5t48 19.5t47.5 -19.5t19.5 -48.5t-19.5 -48.5t-47.5 -19.5t-48 19.5t-20 48.5z" />
<glyph unicode="&#xd0;" horiz-adv-x="1273" d="M63 705v49h132v680h254q343 0 541 -191t198 -526q0 -349 -196 -533t-543 -184h-254v705h-132zM248 51h201q316 0 500 170.5t184 495.5q0 312 -186 488.5t-498 176.5h-201v-628h354v-49h-354v-654z" />
<glyph unicode="&#xd1;" horiz-adv-x="1425" d="M184 0v1434h49l957 -1338v1338h51v-1434h-51l-954 1343v-1343h-52zM440 1585q0 72 43.5 115t110.5 43q36 0 73.5 -17t63.5 -37.5t61 -37.5t68 -17q40 0 68 30t28 77h52q0 -72 -43.5 -115t-110.5 -43q-36 0 -73.5 17t-63.5 37.5t-61 37.5t-68 17q-40 0 -68 -30t-28 -77 h-52z" />
<glyph unicode="&#xd2;" horiz-adv-x="1617" d="M92 717q0 157 57 295.5t153.5 236.5t228.5 154.5t278 56.5t278 -56.5t228.5 -154.5t153.5 -236.5t57 -295.5q0 -158 -57 -297t-154 -236.5t-228.5 -154t-277.5 -56.5t-277.5 56.5t-228.5 154t-154 236.5t-57 297zM147 717q0 -148 51.5 -276.5t139.5 -219t210.5 -142.5 t260.5 -52t260.5 52t210.5 142.5t139 219t51 276.5q0 194 -87 352.5t-238.5 248t-335.5 89.5q-138 0 -260.5 -52.5t-210.5 -144t-139.5 -219.5t-51.5 -274zM621 1819h69l152 -287h-54z" />
<glyph unicode="&#xd3;" horiz-adv-x="1617" d="M92 717q0 157 57 295.5t153.5 236.5t228.5 154.5t278 56.5t278 -56.5t228.5 -154.5t153.5 -236.5t57 -295.5q0 -158 -57 -297t-154 -236.5t-228.5 -154t-277.5 -56.5t-277.5 56.5t-228.5 154t-154 236.5t-57 297zM147 717q0 -148 51.5 -276.5t139.5 -219t210.5 -142.5 t260.5 -52t260.5 52t210.5 142.5t139 219t51 276.5q0 194 -87 352.5t-238.5 248t-335.5 89.5q-138 0 -260.5 -52.5t-210.5 -144t-139.5 -219.5t-51.5 -274zM752 1532l151 287h70l-168 -287h-53z" />
<glyph unicode="&#xd4;" horiz-adv-x="1617" d="M92 717q0 157 57 295.5t153.5 236.5t228.5 154.5t278 56.5t278 -56.5t228.5 -154.5t153.5 -236.5t57 -295.5q0 -158 -57 -297t-154 -236.5t-228.5 -154t-277.5 -56.5t-277.5 56.5t-228.5 154t-154 236.5t-57 297zM147 717q0 -148 51.5 -276.5t139.5 -219t210.5 -142.5 t260.5 -52t260.5 52t210.5 142.5t139 219t51 276.5q0 194 -87 352.5t-238.5 248t-335.5 89.5q-138 0 -260.5 -52.5t-210.5 -144t-139.5 -219.5t-51.5 -274zM592 1554l192 248h58l192 -248h-55l-166 197l-166 -197h-55z" />
<glyph unicode="&#xd5;" horiz-adv-x="1617" d="M92 717q0 157 57 295.5t153.5 236.5t228.5 154.5t278 56.5t278 -56.5t228.5 -154.5t153.5 -236.5t57 -295.5q0 -158 -57 -297t-154 -236.5t-228.5 -154t-277.5 -56.5t-277.5 56.5t-228.5 154t-154 236.5t-57 297zM147 717q0 -148 51.5 -276.5t139.5 -219t210.5 -142.5 t260.5 -52t260.5 52t210.5 142.5t139 219t51 276.5q0 194 -87 352.5t-238.5 248t-335.5 89.5q-138 0 -260.5 -52.5t-210.5 -144t-139.5 -219.5t-51.5 -274zM539 1585q0 72 43 115t110 43q36 0 73.5 -17t63.5 -37.5t61 -37.5t68 -17q40 0 68.5 30.5t28.5 76.5h51 q0 -72 -43.5 -115t-110.5 -43q-36 0 -73.5 17t-63.5 37.5t-61 37.5t-68 17q-40 0 -68 -30t-28 -77h-51z" />
<glyph unicode="&#xd6;" horiz-adv-x="1617" d="M92 717q0 157 57 295.5t153.5 236.5t228.5 154.5t278 56.5t278 -56.5t228.5 -154.5t153.5 -236.5t57 -295.5q0 -158 -57 -297t-154 -236.5t-228.5 -154t-277.5 -56.5t-277.5 56.5t-228.5 154t-154 236.5t-57 297zM147 717q0 -148 51.5 -276.5t139.5 -219t210.5 -142.5 t260.5 -52t260.5 52t210.5 142.5t139 219t51 276.5q0 194 -87 352.5t-238.5 248t-335.5 89.5q-138 0 -260.5 -52.5t-210.5 -144t-139.5 -219.5t-51.5 -274zM584 1663q0 29 19.5 48.5t47.5 19.5t48 -19.5t20 -48.5t-20 -48.5t-48 -19.5t-47.5 19.5t-19.5 48.5zM907 1663 q0 29 20 48.5t48 19.5t47.5 -19.5t19.5 -48.5t-19.5 -48.5t-47.5 -19.5t-48 19.5t-20 48.5z" />
<glyph unicode="&#xd7;" horiz-adv-x="1093" d="M127 211l387 424l-387 426l33 33l387 -424l387 424l33 -33l-389 -426l389 -424l-33 -33l-387 422l-387 -422z" />
<glyph unicode="&#xd8;" horiz-adv-x="1617" d="M92 717q0 157 57 295.5t153.5 236.5t228.5 154.5t278 56.5q243 0 432 -147l119 151l39 -32l-119 -152q115 -102 180.5 -247.5t65.5 -315.5q0 -158 -57 -297t-154 -236.5t-228.5 -154t-277.5 -56.5q-245 0 -436 148l-117 -150l-39 29l119 152q-115 102 -179.5 248 t-64.5 317zM147 717q0 -159 58 -294.5t162 -229.5l843 1079q-174 135 -401 135q-138 0 -260.5 -52.5t-210.5 -144t-139.5 -219.5t-51.5 -274zM406 162q174 -135 403 -135q138 0 260.5 52t210.5 142.5t139 219t51 276.5q0 157 -59 291.5t-164 230.5z" />
<glyph unicode="&#xd9;" horiz-adv-x="1359" d="M172 494v940h53v-938q0 -220 117.5 -344.5t337.5 -124.5t337.5 124.5t117.5 344.5v938h53v-940q0 -240 -135.5 -380.5t-372.5 -140.5t-372.5 140.5t-135.5 380.5zM512 1819h70l151 -287h-53z" />
<glyph unicode="&#xda;" horiz-adv-x="1359" d="M172 494v940h53v-938q0 -220 117.5 -344.5t337.5 -124.5t337.5 124.5t117.5 344.5v938h53v-940q0 -240 -135.5 -380.5t-372.5 -140.5t-372.5 140.5t-135.5 380.5zM621 1532l151 287h70l-168 -287h-53z" />
<glyph unicode="&#xdb;" horiz-adv-x="1359" d="M172 494v940h53v-938q0 -220 117.5 -344.5t337.5 -124.5t337.5 124.5t117.5 344.5v938h53v-940q0 -240 -135.5 -380.5t-372.5 -140.5t-372.5 140.5t-135.5 380.5zM459 1554l192 248h58l192 -248h-55l-166 197l-166 -197h-55z" />
<glyph unicode="&#xdc;" horiz-adv-x="1359" d="M172 494v940h53v-938q0 -220 117.5 -344.5t337.5 -124.5t337.5 124.5t117.5 344.5v938h53v-940q0 -240 -135.5 -380.5t-372.5 -140.5t-372.5 140.5t-135.5 380.5zM453 1663q0 29 19.5 48.5t47.5 19.5t48 -19.5t20 -48.5t-20 -48.5t-48 -19.5t-47.5 19.5t-19.5 48.5z M776 1663q0 29 20 48.5t48 19.5t47.5 -19.5t19.5 -48.5t-19.5 -48.5t-47.5 -19.5t-48 19.5t-20 48.5z" />
<glyph unicode="&#xdd;" horiz-adv-x="995" d="M25 1434h59l414 -693l413 693h60l-447 -744v-690h-53v690zM455 1532l151 287h70l-168 -287h-53z" />
<glyph unicode="&#xde;" horiz-adv-x="976" d="M184 0v1434h54v-306h276q172 0 282.5 -102.5t110.5 -282.5t-109.5 -282.5t-283.5 -102.5h-276v-358h-54zM238 410h272q152 0 247 89.5t95 243.5q0 155 -92.5 244.5t-249.5 89.5h-272v-667z" />
<glyph unicode="&#xdf;" horiz-adv-x="1060" d="M160 0v1130q0 169 84.5 252.5t236.5 83.5q137 0 230.5 -74.5t93.5 -207.5q0 -199 -184 -271q40 -5 85 -22t96 -52t91.5 -82t67 -120.5t26.5 -159.5q0 -98 -29.5 -179t-79.5 -135.5t-118.5 -91.5t-143.5 -54t-157 -17v51q68 0 131.5 12.5t126.5 44t110 78.5t76 122t29 169 q0 85 -27.5 155t-72 115t-104 76t-121.5 44.5t-126 13.5h-24v49h24q117 0 195 67.5t78 186.5q0 79 -40.5 133t-101 76t-137.5 22q-123 0 -193.5 -66.5t-70.5 -213.5v-1135h-51z" />
<glyph unicode="&#xe0;" d="M88 324q0 144 112 241t283 97q119 0 205 -47t131 -115v227q0 148 -86 226.5t-231 78.5q-171 0 -338 -102l-27 45q182 108 363 108q179 0 274.5 -96t95.5 -262v-725h-41l-10 147q-43 -72 -128.5 -123t-207.5 -51q-177 0 -286 100t-109 251zM141 322q0 -122 94 -209.5 t248 -87.5q150 0 246 86t96 211t-98 206.5t-244 81.5q-153 0 -247.5 -83t-94.5 -205zM344 1481h70l151 -287h-53z" />
<glyph unicode="&#xe1;" d="M88 324q0 144 112 241t283 97q119 0 205 -47t131 -115v227q0 148 -86 226.5t-231 78.5q-171 0 -338 -102l-27 45q182 108 363 108q179 0 274.5 -96t95.5 -262v-725h-41l-10 147q-43 -72 -128.5 -123t-207.5 -51q-177 0 -286 100t-109 251zM141 322q0 -122 94 -209.5 t248 -87.5q150 0 246 86t96 211t-98 206.5t-244 81.5q-153 0 -247.5 -83t-94.5 -205zM446 1194l152 287h70l-168 -287h-54z" />
<glyph unicode="&#xe2;" d="M88 324q0 144 112 241t283 97q119 0 205 -47t131 -115v227q0 148 -86 226.5t-231 78.5q-171 0 -338 -102l-27 45q182 108 363 108q179 0 274.5 -96t95.5 -262v-725h-41l-10 147q-43 -72 -128.5 -123t-207.5 -51q-177 0 -286 100t-109 251zM141 322q0 -122 94 -209.5 t248 -87.5q150 0 246 86t96 211t-98 206.5t-244 81.5q-153 0 -247.5 -83t-94.5 -205zM291 1235l192 248h58l192 -248h-55l-166 197l-166 -197h-55z" />
<glyph unicode="&#xe3;" d="M88 324q0 144 112 241t283 97q119 0 205 -47t131 -115v227q0 148 -86 226.5t-231 78.5q-171 0 -338 -102l-27 45q182 108 363 108q179 0 274.5 -96t95.5 -262v-725h-41l-10 147q-43 -72 -128.5 -123t-207.5 -51q-177 0 -286 100t-109 251zM141 322q0 -122 94 -209.5 t248 -87.5q150 0 246 86t96 211t-98 206.5t-244 81.5q-153 0 -247.5 -83t-94.5 -205zM225 1264q0 72 43.5 114.5t110.5 42.5q46 0 92 -27t89.5 -54t84.5 -27q40 0 68 30t28 76h52q0 -72 -43.5 -114.5t-110.5 -42.5q-46 0 -92 27t-89.5 54t-84.5 27t-69 -30t-28 -76h-51z" />
<glyph unicode="&#xe4;" d="M88 324q0 144 112 241t283 97q119 0 205 -47t131 -115v227q0 148 -86 226.5t-231 78.5q-171 0 -338 -102l-27 45q182 108 363 108q179 0 274.5 -96t95.5 -262v-725h-41l-10 147q-43 -72 -128.5 -123t-207.5 -51q-177 0 -286 100t-109 251zM141 322q0 -122 94 -209.5 t248 -87.5q150 0 246 86t96 211t-98 206.5t-244 81.5q-153 0 -247.5 -83t-94.5 -205zM283 1337q0 29 19.5 48.5t47.5 19.5t48 -19.5t20 -48.5t-20 -48t-48 -19t-47.5 19t-19.5 48zM606 1337q0 29 20 48.5t48 19.5t47.5 -19.5t19.5 -48.5t-19.5 -48t-47.5 -19t-48 19t-20 48z " />
<glyph unicode="&#xe5;" d="M88 324q0 144 112 241t283 97q119 0 205 -47t131 -115v227q0 148 -86 226.5t-231 78.5q-171 0 -338 -102l-27 45q182 108 363 108q179 0 274.5 -96t95.5 -262v-725h-41l-10 147q-43 -72 -128.5 -123t-207.5 -51q-177 0 -286 100t-109 251zM141 322q0 -122 94 -209.5 t248 -87.5q150 0 246 86t96 211t-98 206.5t-244 81.5q-153 0 -247.5 -83t-94.5 -205zM371 1360q0 67 41.5 108t105.5 41t106 -41t42 -108t-42 -108.5t-106 -41.5t-105.5 41.5t-41.5 108.5zM422 1360q0 -43 26 -71.5t70 -28.5t70 28.5t26 71.5t-26 71.5t-70 28.5t-70 -28.5 t-26 -71.5z" />
<glyph unicode="&#xe6;" horiz-adv-x="1898" d="M88 324q0 144 112 241t283 97q119 0 205 -47t131 -115v227q0 148 -86 226.5t-231 78.5q-171 0 -338 -102l-27 45q182 108 363 108q164 0 258 -82.5t108 -226.5q60 147 183 228t272 81t263.5 -68.5t174.5 -185.5t60 -264v-37h-951q0 -236 133 -369.5t349 -133.5 q243 0 391 202l39 -26q-65 -100 -171.5 -164t-258.5 -64q-167 0 -291.5 76.5t-186.5 212.5q-40 -144 -142.5 -216.5t-246.5 -72.5q-177 0 -286 100t-109 251zM141 322q0 -122 94 -209.5t248 -87.5q150 0 246 86t96 211t-98 206.5t-244 81.5q-153 0 -247.5 -83t-94.5 -205z M870 578h895q-5 110 -44 198t-101 143t-138.5 84t-160.5 29q-172 0 -303 -122.5t-148 -331.5z" />
<glyph unicode="&#xe7;" horiz-adv-x="1091" d="M86 528q0 151 71 279t194 202t270 74q78 0 147.5 -19t118 -50t77 -56t50.5 -51l-31 -45q-150 168 -362 168q-129 0 -239 -65.5t-175.5 -181.5t-65.5 -255q0 -134 66 -250t177 -183.5t237 -67.5q231 0 370 182l25 -49q-14 -21 -41 -47.5t-75 -60.5t-121.5 -56.5 t-157.5 -22.5h-23l-16 -108q82 -6 128 -44.5t46 -101.5q0 -89 -58 -128.5t-147 -39.5l-57 5l6 47q32 -4 57 -4q64 0 104.5 27t40.5 87q0 52 -38.5 79.5t-106.5 27.5h-25l19 157q-200 26 -332.5 182t-132.5 369z" />
<glyph unicode="&#xe8;" horiz-adv-x="1167" d="M84 526q0 129 42 236.5t113 176.5t161.5 106.5t189.5 37.5q149 0 263 -68.5t174 -185.5t60 -264v-37h-950q0 -237 132.5 -370t348.5 -133q244 0 392 202l39 -26q-65 -100 -172 -164t-259 -64q-242 0 -388 151.5t-146 401.5zM139 578h895q-5 110 -44 198t-101 143 t-138.5 84t-160.5 29q-172 0 -303 -122.5t-148 -331.5zM426 1481h70l151 -287h-53z" />
<glyph unicode="&#xe9;" horiz-adv-x="1167" d="M84 526q0 129 42 236.5t113 176.5t161.5 106.5t189.5 37.5q149 0 263 -68.5t174 -185.5t60 -264v-37h-950q0 -237 132.5 -370t348.5 -133q244 0 392 202l39 -26q-65 -100 -172 -164t-259 -64q-242 0 -388 151.5t-146 401.5zM139 578h895q-5 110 -44 198t-101 143 t-138.5 84t-160.5 29q-172 0 -303 -122.5t-148 -331.5zM532 1194l152 287h70l-168 -287h-54z" />
<glyph unicode="&#xea;" horiz-adv-x="1167" d="M84 526q0 129 42 236.5t113 176.5t161.5 106.5t189.5 37.5q149 0 263 -68.5t174 -185.5t60 -264v-37h-950q0 -237 132.5 -370t348.5 -133q244 0 392 202l39 -26q-65 -100 -172 -164t-259 -64q-242 0 -388 151.5t-146 401.5zM139 578h895q-5 110 -44 198t-101 143 t-138.5 84t-160.5 29q-172 0 -303 -122.5t-148 -331.5zM371 1235l192 248h58l192 -248h-55l-166 197l-166 -197h-55z" />
<glyph unicode="&#xeb;" horiz-adv-x="1167" d="M84 526q0 129 42 236.5t113 176.5t161.5 106.5t189.5 37.5q149 0 263 -68.5t174 -185.5t60 -264v-37h-950q0 -237 132.5 -370t348.5 -133q244 0 392 202l39 -26q-65 -100 -172 -164t-259 -64q-242 0 -388 151.5t-146 401.5zM139 578h895q-5 110 -44 198t-101 143 t-138.5 84t-160.5 29q-172 0 -303 -122.5t-148 -331.5zM360 1337q0 29 20 48.5t48 19.5t48 -19.5t20 -48.5t-20 -48t-48 -19t-48 19t-20 48zM684 1337q0 29 20 48.5t48 19.5t47.5 -19.5t19.5 -48.5t-19.5 -48t-47.5 -19t-48 19t-20 48z" />
<glyph unicode="&#xec;" horiz-adv-x="382" d="M18 1481h70l152 -287h-54zM166 0v1057h51v-1057h-51z" />
<glyph unicode="&#xed;" horiz-adv-x="382" d="M143 1194l152 287h70l-168 -287h-54zM166 0v1057h51v-1057h-51z" />
<glyph unicode="&#xee;" horiz-adv-x="382" d="M-29 1235l193 248h57l193 -248h-56l-165 197l-166 -197h-56zM166 0v1057h51v-1057h-51z" />
<glyph unicode="&#xef;" horiz-adv-x="382" d="M-37 1337q0 29 20 48.5t48 19.5t47.5 -19.5t19.5 -48.5t-19.5 -48t-47.5 -19t-48 19t-20 48zM166 0v1057h51v-1057h-51zM287 1337q0 29 19.5 48.5t47.5 19.5t48 -19.5t20 -48.5t-20 -48t-48 -19t-47.5 19t-19.5 48z" />
<glyph unicode="&#xf0;" horiz-adv-x="1198" d="M86 504q0 145 61 263.5t178 189.5t269 71q230 0 389 -170q-53 112 -158.5 220.5t-206.5 174.5l-323 -133l-14 47l292 121q-109 75 -264 154l39 26q147 -68 277 -159l235 98l14 -45l-202 -84q236 -179 338 -358t102 -402q0 -258 -136.5 -401.5t-385.5 -143.5 q-145 0 -261 71t-179.5 192t-63.5 268zM141 504q0 -201 125.5 -340t323.5 -139q225 0 347 130.5t122 348.5q0 210 -131 341.5t-334 131.5q-138 0 -242.5 -65t-157.5 -171.5t-53 -236.5z" />
<glyph unicode="&#xf1;" horiz-adv-x="1099" d="M166 0v1057h51v-191q43 99 136 158t210 59q101 0 185.5 -40.5t140 -127t55.5 -204.5v-711h-51v690q0 157 -93.5 249.5t-236.5 92.5q-152 0 -249 -104.5t-97 -276.5v-651h-51zM270 1264q0 72 43.5 114.5t110.5 42.5q46 0 92 -27t89.5 -54t84.5 -27q40 0 68 30t28 76h52 q0 -72 -43.5 -114.5t-110.5 -42.5q-46 0 -92 27t-89.5 54t-84.5 27q-40 0 -68 -30t-28 -76h-52z" />
<glyph unicode="&#xf2;" horiz-adv-x="1245" d="M86 528q0 116 41 219t112 177t171 116.5t213 42.5q151 0 274 -72.5t192.5 -200t69.5 -282.5t-69.5 -282.5t-192.5 -200t-274 -72.5q-113 0 -213 42.5t-171 116.5t-112 177t-41 219zM139 528q0 -213 137 -358t347 -145t346.5 145t136.5 358q0 140 -61 255t-172 182 t-250 67q-210 0 -347 -145.5t-137 -358.5zM457 1481h69l152 -287h-53z" />
<glyph unicode="&#xf3;" horiz-adv-x="1245" d="M86 528q0 116 41 219t112 177t171 116.5t213 42.5q151 0 274 -72.5t192.5 -200t69.5 -282.5t-69.5 -282.5t-192.5 -200t-274 -72.5q-113 0 -213 42.5t-171 116.5t-112 177t-41 219zM139 528q0 -213 137 -358t347 -145t346.5 145t136.5 358q0 140 -61 255t-172 182 t-250 67q-210 0 -347 -145.5t-137 -358.5zM551 1194l151 287h70l-168 -287h-53z" />
<glyph unicode="&#xf4;" horiz-adv-x="1245" d="M86 528q0 116 41 219t112 177t171 116.5t213 42.5q151 0 274 -72.5t192.5 -200t69.5 -282.5t-69.5 -282.5t-192.5 -200t-274 -72.5q-113 0 -213 42.5t-171 116.5t-112 177t-41 219zM139 528q0 -213 137 -358t347 -145t346.5 145t136.5 358q0 140 -61 255t-172 182 t-250 67q-210 0 -347 -145.5t-137 -358.5zM406 1235l192 248h57l193 -248h-55l-166 197l-166 -197h-55z" />
<glyph unicode="&#xf5;" horiz-adv-x="1245" d="M86 528q0 116 41 219t112 177t171 116.5t213 42.5q151 0 274 -72.5t192.5 -200t69.5 -282.5t-69.5 -282.5t-192.5 -200t-274 -72.5q-113 0 -213 42.5t-171 116.5t-112 177t-41 219zM139 528q0 -213 137 -358t347 -145t346.5 145t136.5 358q0 140 -61 255t-172 182 t-250 67q-210 0 -347 -145.5t-137 -358.5zM348 1264q0 72 43.5 114.5t110.5 42.5q46 0 92 -27t89.5 -54t84.5 -27q40 0 68 30t28 76h51q0 -72 -43 -114.5t-110 -42.5q-46 0 -92 27t-89.5 54t-84.5 27t-69 -30t-28 -76h-51z" />
<glyph unicode="&#xf6;" horiz-adv-x="1245" d="M86 528q0 116 41 219t112 177t171 116.5t213 42.5q151 0 274 -72.5t192.5 -200t69.5 -282.5t-69.5 -282.5t-192.5 -200t-274 -72.5q-113 0 -213 42.5t-171 116.5t-112 177t-41 219zM139 528q0 -213 137 -358t347 -145t346.5 145t136.5 358q0 140 -61 255t-172 182 t-250 67q-210 0 -347 -145.5t-137 -358.5zM393 1337q0 29 20 48.5t48 19.5t47.5 -19.5t19.5 -48.5t-19.5 -48t-47.5 -19t-48 19t-20 48zM717 1337q0 29 19.5 48.5t47.5 19.5t48 -19.5t20 -48.5t-20 -48t-48 -19t-47.5 19t-19.5 48z" />
<glyph unicode="&#xf7;" horiz-adv-x="1126" d="M88 614v48h948v-48h-948zM500 313q0 26 18.5 45t44.5 19t45 -19t19 -45t-19 -44.5t-45 -18.5t-44.5 18.5t-18.5 44.5zM500 963q0 26 18.5 44.5t44.5 18.5t45 -18.5t19 -44.5t-19 -45t-45 -19t-44.5 19t-18.5 45z" />
<glyph unicode="&#xf8;" horiz-adv-x="1245" d="M86 528q0 116 41 219t112 177t171 116.5t213 42.5q180 0 319 -104l82 104l41 -32l-82 -105q83 -76 129.5 -184.5t46.5 -233.5q0 -155 -69.5 -282.5t-192.5 -200t-274 -72.5q-185 0 -322 103l-82 -105l-39 31l84 107q-85 76 -131.5 184t-46.5 235zM141 528 q0 -113 41 -210.5t115 -165.5l612 784q-124 94 -286 94q-210 0 -346 -144.5t-136 -357.5zM336 119q126 -92 287 -92q210 0 345.5 144t135.5 357q0 111 -40.5 209t-113.5 166z" />
<glyph unicode="&#xf9;" horiz-adv-x="1085" d="M154 346v711h51v-690q0 -157 93.5 -249.5t236.5 -92.5q152 0 249 104.5t97 276.5v651h51v-1057h-51v190q-43 -99 -136 -158t-210 -59q-74 0 -142 24t-121.5 69.5t-85.5 118t-32 161.5zM395 1481h70l151 -287h-53z" />
<glyph unicode="&#xfa;" horiz-adv-x="1085" d="M154 346v711h51v-690q0 -157 93.5 -249.5t236.5 -92.5q152 0 249 104.5t97 276.5v651h51v-1057h-51v190q-43 -99 -136 -158t-210 -59q-74 0 -142 24t-121.5 69.5t-85.5 118t-32 161.5zM496 1194l151 287h70l-168 -287h-53z" />
<glyph unicode="&#xfb;" horiz-adv-x="1085" d="M154 346v711h51v-690q0 -157 93.5 -249.5t236.5 -92.5q152 0 249 104.5t97 276.5v651h51v-1057h-51v190q-43 -99 -136 -158t-210 -59q-74 0 -142 24t-121.5 69.5t-85.5 118t-32 161.5zM326 1235l192 248h57l193 -248h-55l-166 197l-166 -197h-55z" />
<glyph unicode="&#xfc;" horiz-adv-x="1085" d="M154 346v711h51v-690q0 -157 93.5 -249.5t236.5 -92.5q152 0 249 104.5t97 276.5v651h51v-1057h-51v190q-43 -99 -136 -158t-210 -59q-74 0 -142 24t-121.5 69.5t-85.5 118t-32 161.5zM324 1337q0 29 19.5 48.5t47.5 19.5t48 -19.5t20 -48.5t-20 -48t-48 -19t-47.5 19 t-19.5 48zM647 1337q0 29 20 48.5t48 19.5t47.5 -19.5t19.5 -48.5t-19.5 -48t-47.5 -19t-48 19t-20 48z" />
<glyph unicode="&#xfd;" horiz-adv-x="983" d="M14 1057h58l426 -1000l413 1000h58l-598 -1424h-60l158 363zM444 1194l152 287h70l-168 -287h-54z" />
<glyph unicode="&#xfe;" horiz-adv-x="1241" d="M166 -383v1864h51v-680q19 46 53.5 91.5t87.5 90t131.5 72.5t167.5 28q220 0 359 -154.5t139 -400.5t-139 -400.5t-359 -154.5q-89 0 -167.5 28t-131.5 72.5t-87.5 90.5t-53.5 92v-639h-51zM215 528q0 -122 37.5 -220.5t100.5 -158.5t141 -92t163 -32q190 0 317.5 141.5 t127.5 361.5t-127.5 362t-317.5 142q-85 0 -163 -32t-141 -92.5t-100.5 -159t-37.5 -220.5z" />
<glyph unicode="&#xff;" horiz-adv-x="983" d="M14 1057h58l426 -1000l413 1000h58l-598 -1424h-60l158 363zM270 1337q0 29 20 48.5t48 19.5t48 -19.5t20 -48.5t-20 -48t-48 -19t-48 19t-20 48zM594 1337q0 29 20 48.5t48 19.5t47.5 -19.5t19.5 -48.5t-19.5 -48t-47.5 -19t-48 19t-20 48z" />
<glyph unicode="&#x100;" horiz-adv-x="1236" d="M35 0l559 1434h49l559 -1434h-57l-209 543h-635l-209 -543h-57zM319 592h599l-300 770zM389 1597v54h465v-54h-465z" />
<glyph unicode="&#x101;" d="M88 324q0 144 112 241t283 97q119 0 205 -47t131 -115v227q0 148 -86 226.5t-231 78.5q-171 0 -338 -102l-27 45q182 108 363 108q179 0 274.5 -96t95.5 -262v-725h-41l-10 147q-43 -72 -128.5 -123t-207.5 -51q-177 0 -286 100t-109 251zM141 322q0 -122 94 -209.5 t248 -87.5q150 0 246 86t96 211t-98 206.5t-244 81.5q-153 0 -247.5 -83t-94.5 -205zM281 1341v54h464v-54h-464z" />
<glyph unicode="&#x102;" horiz-adv-x="1236" d="M35 0l559 1434h49l559 -1434h-57l-209 543h-635l-209 -543h-57zM319 592h599l-300 770zM410 1767h49q0 -78 42.5 -125t119.5 -47q76 0 118.5 47t42.5 125h49q0 -96 -53.5 -158.5t-156.5 -62.5t-157 62.5t-54 158.5z" />
<glyph unicode="&#x103;" d="M88 324q0 144 112 241t283 97q119 0 205 -47t131 -115v227q0 148 -86 226.5t-231 78.5q-171 0 -338 -102l-27 45q182 108 363 108q179 0 274.5 -96t95.5 -262v-725h-41l-10 147q-43 -72 -128.5 -123t-207.5 -51q-177 0 -286 100t-109 251zM141 322q0 -122 94 -209.5 t248 -87.5q150 0 246 86t96 211t-98 206.5t-244 81.5q-153 0 -247.5 -83t-94.5 -205zM295 1440h49q0 -78 42.5 -125t119.5 -47t119.5 47t42.5 125h49q0 -96 -54 -158.5t-157 -62.5t-157 62.5t-54 158.5z" />
<glyph unicode="&#x104;" horiz-adv-x="1236" d="M35 0l559 1434h49l559 -1434q-74 -31 -122 -79.5t-48 -110.5q0 -69 51 -107.5t119 -38.5v-51q-91 0 -156 48.5t-65 139.5q0 67 44.5 124t115.5 83l-205 535h-635l-209 -543h-57zM319 592h599l-300 770z" />
<glyph unicode="&#x105;" d="M88 324q0 144 112 241t283 97q119 0 205 -47t131 -115v227q0 148 -86 226.5t-231 78.5q-171 0 -338 -102l-27 45q182 108 363 108q179 0 274.5 -96t95.5 -262v-725q-74 -28 -122 -76t-48 -114q0 -69 51 -107.5t119 -38.5v-51q-91 0 -156 48.5t-65 139.5q0 73 51 131 t119 82v133q-43 -72 -128.5 -123t-207.5 -51q-177 0 -286 100t-109 251zM141 322q0 -122 94 -209.5t248 -87.5q150 0 246 86t96 211t-98 206.5t-244 81.5q-153 0 -247.5 -83t-94.5 -205z" />
<glyph unicode="&#x106;" horiz-adv-x="1376" d="M92 717q0 156 57 294.5t153.5 236.5t226.5 155t272 57q262 0 454 -166l-22 -49q-24 22 -55.5 43.5t-86.5 51.5t-131.5 48.5t-158.5 18.5q-129 0 -248.5 -52t-209 -142t-143 -219.5t-53.5 -276.5t52.5 -276.5t141.5 -219.5t209 -142t251 -52q84 0 165 21.5t141.5 55.5 t96 59t62.5 50l26 -47q-219 -193 -491 -193q-146 0 -277 57t-226 155.5t-150.5 237t-55.5 294.5zM707 1532l151 287h70l-168 -287h-53z" />
<glyph unicode="&#x107;" horiz-adv-x="1091" d="M86 528q0 151 71 279t194 202t270 74q78 0 147.5 -19t118 -50t77 -56t50.5 -51l-31 -45q-150 168 -362 168q-129 0 -239 -65.5t-175.5 -181.5t-65.5 -255q0 -134 66 -250t177 -183.5t237 -67.5q231 0 370 182l25 -49q-14 -21 -41 -47.5t-75 -60.5t-121.5 -56.5 t-157.5 -22.5q-148 0 -271 74t-193.5 201.5t-70.5 279.5zM567 1194l152 287h69l-167 -287h-54z" />
<glyph unicode="&#x108;" horiz-adv-x="1376" d="M92 717q0 156 57 294.5t153.5 236.5t226.5 155t272 57q262 0 454 -166l-22 -49q-24 22 -55.5 43.5t-86.5 51.5t-131.5 48.5t-158.5 18.5q-129 0 -248.5 -52t-209 -142t-143 -219.5t-53.5 -276.5t52.5 -276.5t141.5 -219.5t209 -142t251 -52q84 0 165 21.5t141.5 55.5 t96 59t62.5 50l26 -47q-219 -193 -491 -193q-146 0 -277 57t-226 155.5t-150.5 237t-55.5 294.5zM594 1554l192 248h58l192 -248h-55l-166 197l-166 -197h-55z" />
<glyph unicode="&#x109;" horiz-adv-x="1091" d="M86 528q0 151 71 279t194 202t270 74q78 0 147.5 -19t118 -50t77 -56t50.5 -51l-31 -45q-150 168 -362 168q-129 0 -239 -65.5t-175.5 -181.5t-65.5 -255q0 -134 66 -250t177 -183.5t237 -67.5q231 0 370 182l25 -49q-14 -21 -41 -47.5t-75 -60.5t-121.5 -56.5 t-157.5 -22.5q-148 0 -271 74t-193.5 201.5t-70.5 279.5zM408 1235l192 248h57l193 -248h-55l-166 197l-166 -197h-55z" />
<glyph unicode="&#x10a;" horiz-adv-x="1376" d="M92 717q0 156 57 294.5t153.5 236.5t226.5 155t272 57q262 0 454 -166l-22 -49q-24 22 -55.5 43.5t-86.5 51.5t-131.5 48.5t-158.5 18.5q-129 0 -248.5 -52t-209 -142t-143 -219.5t-53.5 -276.5t52.5 -276.5t141.5 -219.5t209 -142t251 -52q84 0 165 21.5t141.5 55.5 t96 59t62.5 50l26 -47q-219 -193 -491 -193q-146 0 -277 57t-226 155.5t-150.5 237t-55.5 294.5zM741 1667q0 25 19 43.5t45 18.5t44.5 -18.5t18.5 -43.5q0 -26 -18.5 -44.5t-44.5 -18.5t-45 18.5t-19 44.5z" />
<glyph unicode="&#x10b;" horiz-adv-x="1091" d="M86 528q0 151 71 279t194 202t270 74q78 0 147.5 -19t118 -50t77 -56t50.5 -51l-31 -45q-150 168 -362 168q-129 0 -239 -65.5t-175.5 -181.5t-65.5 -255q0 -134 66 -250t177 -183.5t237 -67.5q231 0 370 182l25 -49q-14 -21 -41 -47.5t-75 -60.5t-121.5 -56.5 t-157.5 -22.5q-148 0 -271 74t-193.5 201.5t-70.5 279.5zM565 1352q0 25 19 43t45 18t44.5 -18t18.5 -43q0 -26 -18.5 -45t-44.5 -19t-45 19t-19 45z" />
<glyph unicode="&#x10c;" horiz-adv-x="1376" d="M92 717q0 156 57 294.5t153.5 236.5t226.5 155t272 57q262 0 454 -166l-22 -49q-24 22 -55.5 43.5t-86.5 51.5t-131.5 48.5t-158.5 18.5q-129 0 -248.5 -52t-209 -142t-143 -219.5t-53.5 -276.5t52.5 -276.5t141.5 -219.5t209 -142t251 -52q84 0 165 21.5t141.5 55.5 t96 59t62.5 50l26 -47q-219 -193 -491 -193q-146 0 -277 57t-226 155.5t-150.5 237t-55.5 294.5zM578 1802h55l166 -196l166 196h55l-193 -248h-57z" />
<glyph unicode="&#x10d;" horiz-adv-x="1091" d="M86 528q0 151 71 279t194 202t270 74q78 0 147.5 -19t118 -50t77 -56t50.5 -51l-31 -45q-150 168 -362 168q-129 0 -239 -65.5t-175.5 -181.5t-65.5 -255q0 -134 66 -250t177 -183.5t237 -67.5q231 0 370 182l25 -49q-14 -21 -41 -47.5t-75 -60.5t-121.5 -56.5 t-157.5 -22.5q-148 0 -271 74t-193.5 201.5t-70.5 279.5zM403 1483h56l166 -197l166 197h55l-193 -248h-57z" />
<glyph unicode="&#x10e;" horiz-adv-x="1269" d="M184 0v1434h254q343 0 541.5 -191t198.5 -526q0 -349 -196.5 -533t-543.5 -184h-254zM238 51h200q316 0 500 170.5t184 495.5q0 312 -186 488.5t-498 176.5h-200v-1331zM319 1802h56l166 -196l166 196h55l-193 -248h-57z" />
<glyph unicode="&#x10f;" horiz-adv-x="1241" d="M86 528q0 246 139 400.5t359 154.5q89 0 167.5 -28t131.5 -72.5t87.5 -90t53.5 -91.5v680h51v-1481h-51v256q-19 -46 -53.5 -92t-87.5 -90.5t-131.5 -72.5t-167.5 -28q-220 0 -359 154.5t-139 400.5zM139 528q0 -220 127.5 -361.5t317.5 -141.5q85 0 163 32t141 92 t100.5 158.5t37.5 220.5t-37.5 220.5t-100.5 159t-141 92.5t-163 32q-190 0 -317.5 -142t-127.5 -362zM1159 1153l29 328h55l-45 -328h-39z" />
<glyph unicode="&#x110;" horiz-adv-x="1273" d="M63 705v49h132v680h254q343 0 541 -191t198 -526q0 -349 -196 -533t-543 -184h-254v705h-132zM248 51h201q316 0 500 170.5t184 495.5q0 312 -186 488.5t-498 176.5h-201v-628h354v-49h-354v-654z" />
<glyph unicode="&#x111;" horiz-adv-x="1241" d="M86 528q0 246 139 400.5t359 154.5q89 0 167.5 -28t131.5 -72.5t87.5 -90t53.5 -91.5v444h-281v47h281v189h51v-189h146v-47h-146v-1245h-51v256q-19 -46 -53.5 -92t-87.5 -90.5t-131.5 -72.5t-167.5 -28q-220 0 -359 154.5t-139 400.5zM139 528q0 -220 127.5 -361.5 t317.5 -141.5q85 0 163 32t141 92t100.5 158.5t37.5 220.5t-37.5 220.5t-100.5 159t-141 92.5t-163 32q-190 0 -317.5 -142t-127.5 -362z" />
<glyph unicode="&#x112;" horiz-adv-x="958" d="M184 0v1434h629v-52h-575v-622h507v-51h-507v-658h600v-51h-654zM285 1597v54h465v-54h-465z" />
<glyph unicode="&#x113;" horiz-adv-x="1167" d="M84 526q0 129 42 236.5t113 176.5t161.5 106.5t189.5 37.5q149 0 263 -68.5t174 -185.5t60 -264v-37h-950q0 -237 132.5 -370t348.5 -133q244 0 392 202l39 -26q-65 -100 -172 -164t-259 -64q-242 0 -388 151.5t-146 401.5zM139 578h895q-5 110 -44 198t-101 143 t-138.5 84t-160.5 29q-172 0 -303 -122.5t-148 -331.5zM385 1341v54h465v-54h-465z" />
<glyph unicode="&#x114;" horiz-adv-x="958" d="M184 0v1434h629v-52h-575v-622h507v-51h-507v-658h600v-51h-654zM295 1767h49q0 -78 42.5 -125t119.5 -47t119.5 47t42.5 125h49q0 -96 -54 -158.5t-157 -62.5t-157 62.5t-54 158.5z" />
<glyph unicode="&#x115;" horiz-adv-x="1167" d="M84 526q0 129 42 236.5t113 176.5t161.5 106.5t189.5 37.5q149 0 263 -68.5t174 -185.5t60 -264v-37h-950q0 -237 132.5 -370t348.5 -133q244 0 392 202l39 -26q-65 -100 -172 -164t-259 -64q-242 0 -388 151.5t-146 401.5zM139 578h895q-5 110 -44 198t-101 143 t-138.5 84t-160.5 29q-172 0 -303 -122.5t-148 -331.5zM389 1440h49q0 -78 42.5 -125t119.5 -47t119.5 47t42.5 125h49q0 -96 -54 -158.5t-157 -62.5t-157 62.5t-54 158.5z" />
<glyph unicode="&#x116;" horiz-adv-x="958" d="M184 0v1434h629v-52h-575v-622h507v-51h-507v-658h600v-51h-654zM479 1667q0 25 19 43.5t45 18.5t44.5 -18.5t18.5 -43.5q0 -26 -18.5 -44.5t-44.5 -18.5t-45 18.5t-19 44.5z" />
<glyph unicode="&#x117;" horiz-adv-x="1167" d="M84 526q0 129 42 236.5t113 176.5t161.5 106.5t189.5 37.5q149 0 263 -68.5t174 -185.5t60 -264v-37h-950q0 -237 132.5 -370t348.5 -133q244 0 392 202l39 -26q-65 -100 -172 -164t-259 -64q-242 0 -388 151.5t-146 401.5zM139 578h895q-5 110 -44 198t-101 143 t-138.5 84t-160.5 29q-172 0 -303 -122.5t-148 -331.5zM537 1352q0 25 18.5 43t44.5 18t45 -18t19 -43q0 -26 -19 -45t-45 -19t-44.5 19t-18.5 45z" />
<glyph unicode="&#x118;" horiz-adv-x="958" d="M184 0v1434h629v-52h-575v-622h507v-51h-507v-658h600v-51q-74 -25 -122 -74.5t-48 -115.5q0 -69 51 -107.5t119 -38.5v-51q-91 0 -156.5 48.5t-65.5 139.5q0 65 40.5 119t101.5 80h-574z" />
<glyph unicode="&#x119;" horiz-adv-x="1167" d="M84 526q0 129 42 236.5t113 176.5t161.5 106.5t189.5 37.5q149 0 263 -68.5t174 -185.5t60 -264v-37h-950q0 -237 132.5 -370t348.5 -133q244 0 392 202l39 -26q-99 -155 -271 -205q-68 -27 -111.5 -74.5t-43.5 -111.5q0 -69 51 -107.5t119 -38.5v-51q-91 0 -156.5 48.5 t-65.5 139.5q0 106 103 174q-18 -2 -56 -2q-242 0 -388 151.5t-146 401.5zM139 578h895q-5 110 -44 198t-101 143t-138.5 84t-160.5 29q-172 0 -303 -122.5t-148 -331.5z" />
<glyph unicode="&#x11a;" horiz-adv-x="958" d="M184 0v1434h629v-52h-575v-622h507v-51h-507v-658h600v-51h-654zM301 1802h55l166 -196l166 196h55l-192 -248h-57z" />
<glyph unicode="&#x11b;" horiz-adv-x="1167" d="M84 526q0 129 42 236.5t113 176.5t161.5 106.5t189.5 37.5q149 0 263 -68.5t174 -185.5t60 -264v-37h-950q0 -237 132.5 -370t348.5 -133q244 0 392 202l39 -26q-65 -100 -172 -164t-259 -64q-242 0 -388 151.5t-146 401.5zM139 578h895q-5 110 -44 198t-101 143 t-138.5 84t-160.5 29q-172 0 -303 -122.5t-148 -331.5zM375 1483h55l166 -197l166 197h55l-192 -248h-58z" />
<glyph unicode="&#x11c;" horiz-adv-x="1486" d="M92 717q0 158 55 296.5t150 236t226.5 154t279.5 56.5q291 0 489 -182l-35 -41q-179 170 -454 170q-185 0 -335 -89t-235.5 -247t-85.5 -354q0 -146 50.5 -274t137.5 -219.5t208.5 -144t259.5 -52.5q94 0 181 22.5t147.5 57t98 63.5t60.5 55v396h-366v51h417v-469 q-211 -230 -538 -230q-153 0 -286 58t-226 157t-146 236.5t-53 292.5zM582 1554l192 248h57l193 -248h-55l-166 197l-166 -197h-55z" />
<glyph unicode="&#x11d;" horiz-adv-x="1226" d="M84 528q0 246 139 400.5t359 154.5q89 0 167.5 -28t131.5 -72.5t87.5 -90t53.5 -91.5v256h51v-934q0 -263 -128.5 -388.5t-362.5 -125.5q-98 0 -199.5 32.5t-179.5 82.5l28 45q61 -39 154 -73t197 -34q207 0 323.5 115.5t116.5 339.5v139q-19 -46 -53.5 -92t-87.5 -90.5 t-131.5 -72.5t-167.5 -28q-220 0 -359 154.5t-139 400.5zM137 528q0 -220 127.5 -361.5t317.5 -141.5q85 0 163 32t141 92t100.5 158.5t37.5 220.5t-37.5 220.5t-100.5 159t-141 92.5t-163 32q-190 0 -317.5 -142t-127.5 -362zM391 1235l193 248h57l193 -248h-56l-166 197 l-166 -197h-55z" />
<glyph unicode="&#x11e;" horiz-adv-x="1486" d="M92 717q0 158 55 296.5t150 236t226.5 154t279.5 56.5q291 0 489 -182l-35 -41q-179 170 -454 170q-185 0 -335 -89t-235.5 -247t-85.5 -354q0 -146 50.5 -274t137.5 -219.5t208.5 -144t259.5 -52.5q94 0 181 22.5t147.5 57t98 63.5t60.5 55v396h-366v51h417v-469 q-211 -230 -538 -230q-153 0 -286 58t-226 157t-146 236.5t-53 292.5zM592 1767h49q0 -78 42.5 -125t119.5 -47t119.5 47t42.5 125h49q0 -96 -54 -158.5t-157 -62.5t-157 62.5t-54 158.5z" />
<glyph unicode="&#x11f;" horiz-adv-x="1226" d="M84 528q0 246 139 400.5t359 154.5q89 0 167.5 -28t131.5 -72.5t87.5 -90t53.5 -91.5v256h51v-934q0 -263 -128.5 -388.5t-362.5 -125.5q-98 0 -199.5 32.5t-179.5 82.5l28 45q61 -39 154 -73t197 -34q207 0 323.5 115.5t116.5 339.5v139q-19 -46 -53.5 -92t-87.5 -90.5 t-131.5 -72.5t-167.5 -28q-220 0 -359 154.5t-139 400.5zM137 528q0 -220 127.5 -361.5t317.5 -141.5q85 0 163 32t141 92t100.5 158.5t37.5 220.5t-37.5 220.5t-100.5 159t-141 92.5t-163 32q-190 0 -317.5 -142t-127.5 -362zM379 1440h49q0 -78 42.5 -125t119.5 -47 t119.5 47t42.5 125h49q0 -96 -54 -158.5t-157 -62.5t-157 62.5t-54 158.5z" />
<glyph unicode="&#x120;" horiz-adv-x="1486" d="M92 717q0 158 55 296.5t150 236t226.5 154t279.5 56.5q291 0 489 -182l-35 -41q-179 170 -454 170q-185 0 -335 -89t-235.5 -247t-85.5 -354q0 -146 50.5 -274t137.5 -219.5t208.5 -144t259.5 -52.5q94 0 181 22.5t147.5 57t98 63.5t60.5 55v396h-366v51h417v-469 q-211 -230 -538 -230q-153 0 -286 58t-226 157t-146 236.5t-53 292.5zM739 1667q0 25 19 43.5t45 18.5t44.5 -18.5t18.5 -43.5q0 -26 -18.5 -44.5t-44.5 -18.5t-45 18.5t-19 44.5z" />
<glyph unicode="&#x121;" horiz-adv-x="1226" d="M84 528q0 246 139 400.5t359 154.5q89 0 167.5 -28t131.5 -72.5t87.5 -90t53.5 -91.5v256h51v-934q0 -263 -128.5 -388.5t-362.5 -125.5q-98 0 -199.5 32.5t-179.5 82.5l28 45q61 -39 154 -73t197 -34q207 0 323.5 115.5t116.5 339.5v139q-19 -46 -53.5 -92t-87.5 -90.5 t-131.5 -72.5t-167.5 -28q-220 0 -359 154.5t-139 400.5zM137 528q0 -220 127.5 -361.5t317.5 -141.5q85 0 163 32t141 92t100.5 158.5t37.5 220.5t-37.5 220.5t-100.5 159t-141 92.5t-163 32q-190 0 -317.5 -142t-127.5 -362zM530 1352q0 25 19 43t45 18t44.5 -18t18.5 -43 q0 -26 -18.5 -45t-44.5 -19t-45 19t-19 45z" />
<glyph unicode="&#x122;" horiz-adv-x="1486" d="M92 717q0 158 55 296.5t150 236t226.5 154t279.5 56.5q291 0 489 -182l-35 -41q-179 170 -454 170q-185 0 -335 -89t-235.5 -247t-85.5 -354q0 -146 50.5 -274t137.5 -219.5t208.5 -144t259.5 -52.5q94 0 181 22.5t147.5 57t98 63.5t60.5 55v396h-366v51h417v-469 q-211 -230 -538 -230q-153 0 -286 58t-226 157t-146 236.5t-53 292.5zM743 -324q63 63 72 125q-26 0 -44.5 17.5t-18.5 44.5q0 25 17 43t42 18q29 0 46 -19.5t17 -47.5q0 -121 -96 -213z" />
<glyph unicode="&#x123;" horiz-adv-x="1226" d="M84 528q0 246 139 400.5t359 154.5q89 0 167.5 -28t131.5 -72.5t87.5 -90t53.5 -91.5v256h51v-934q0 -263 -128.5 -388.5t-362.5 -125.5q-98 0 -199.5 32.5t-179.5 82.5l28 45q61 -39 154 -73t197 -34q207 0 323.5 115.5t116.5 339.5v139q-19 -46 -53.5 -92t-87.5 -90.5 t-131.5 -72.5t-167.5 -28q-220 0 -359 154.5t-139 400.5zM137 528q0 -220 127.5 -361.5t317.5 -141.5q85 0 163 32t141 92t100.5 158.5t37.5 220.5t-37.5 220.5t-100.5 159t-141 92.5t-163 32q-190 0 -317.5 -142t-127.5 -362zM535 1296q0 117 96 213l35 -32 q-63 -63 -72 -125q26 0 44.5 -17.5t18.5 -44.5q0 -25 -17 -43t-42 -18q-29 0 -46 19.5t-17 47.5z" />
<glyph unicode="&#x124;" horiz-adv-x="1390" d="M184 0v1434h54v-674h915v674h53v-1434h-53v711h-915v-711h-54zM477 1554l193 248h57l193 -248h-56l-166 197l-166 -197h-55z" />
<glyph unicode="&#x125;" horiz-adv-x="1110" d="M166 0v1481h51v-615q43 99 138.5 158t213.5 59q101 0 187 -40.5t143 -127t57 -204.5v-711h-51v690q0 157 -96 249.5t-240 92.5q-153 0 -252.5 -105t-99.5 -276v-651h-51zM342 1536l193 248h57l192 -248h-55l-166 197l-166 -197h-55z" />
<glyph unicode="&#x126;" horiz-adv-x="1390" d="M51 1073v51h133v310h54v-310h915v310h53v-310h133v-51h-133v-1073h-53v711h-915v-711h-54v1073h-133zM238 760h915v313h-915v-313z" />
<glyph unicode="&#x127;" horiz-adv-x="1110" d="M14 1243v49h152v189h51v-189h262v-49h-262v-377q43 99 138.5 158t213.5 59q101 0 187 -40.5t143 -127t57 -204.5v-711h-51v690q0 157 -96 249.5t-240 92.5q-153 0 -252.5 -105t-99.5 -276v-651h-51v1243h-152z" />
<glyph unicode="&#x128;" horiz-adv-x="421" d="M-70 1585q0 72 43.5 115t110.5 43q36 0 73.5 -17t63.5 -37.5t61 -37.5t68 -17q40 0 68 30t28 77h52q0 -72 -43.5 -115t-110.5 -43q-36 0 -73.5 17t-63.5 37.5t-61 37.5t-68 17q-40 0 -68 -30t-28 -77h-52zM184 0v1434h54v-1434h-54z" />
<glyph unicode="&#x129;" horiz-adv-x="382" d="M-90 1264q0 72 43 114.5t110 42.5q46 0 92 -27t90 -54t85 -27q40 0 68 30t28 76h51q0 -72 -43 -114.5t-110 -42.5q-46 0 -92 27t-90 54t-85 27q-40 0 -68 -30t-28 -76h-51zM166 0v1057h51v-1057h-51z" />
<glyph unicode="&#x12a;" horiz-adv-x="421" d="M-16 1597v54h465v-54h-465zM184 0v1434h54v-1434h-54z" />
<glyph unicode="&#x12b;" horiz-adv-x="382" d="M-39 1341v54h465v-54h-465zM166 0v1057h51v-1057h-51z" />
<glyph unicode="&#x12c;" horiz-adv-x="421" d="M2 1767h49q0 -78 42.5 -125t119.5 -47t119.5 47t42.5 125h49q0 -96 -54 -158.5t-157 -62.5t-157 62.5t-54 158.5zM184 0v1434h54v-1434h-54z" />
<glyph unicode="&#x12d;" horiz-adv-x="382" d="M-18 1440h49q0 -78 42.5 -125t119.5 -47q76 0 118.5 47t42.5 125h49q0 -96 -53.5 -158.5t-156.5 -62.5t-157 62.5t-54 158.5zM166 0v1057h51v-1057h-51z" />
<glyph unicode="&#x12e;" horiz-adv-x="421" d="M16 -199q0 65 46.5 120t121.5 85v1428h54v-1434q-71 -27 -120.5 -76t-49.5 -114q0 -69 51 -107.5t119 -38.5v-51q-91 0 -156.5 48.5t-65.5 139.5z" />
<glyph unicode="&#x12f;" horiz-adv-x="382" d="M-4 -199q0 66 47.5 122t122.5 83v1051h51v-1057q-74 -25 -122 -74.5t-48 -115.5q0 -69 51 -107.5t119 -38.5v-51q-91 0 -156 48.5t-65 139.5zM131 1352q0 25 18 42t44 17t43.5 -17t17.5 -42q0 -26 -17.5 -44t-43.5 -18t-44 18t-18 44z" />
<glyph unicode="&#x130;" horiz-adv-x="421" d="M150 1667q0 25 18.5 43.5t44.5 18.5t44.5 -18.5t18.5 -43.5q0 -26 -18.5 -44.5t-44.5 -18.5t-44.5 18.5t-18.5 44.5zM184 0v1434h54v-1434h-54z" />
<glyph unicode="&#x131;" horiz-adv-x="382" d="M166 0v1057h51v-1057h-51z" />
<glyph unicode="&#x132;" horiz-adv-x="1073" d="M184 0v1434h54v-1434h-54zM469 8l6 45q77 -18 150 -18q101 0 156 59t55 195v1145h53v-1145q0 -143 -64 -222t-200 -79q-96 0 -156 20z" />
<glyph unicode="&#x133;" horiz-adv-x="765" d="M131 1352q0 25 18 42t44 17t43.5 -17t17.5 -42q0 -26 -17.5 -44t-43.5 -18t-44 18t-18 44zM166 0v1057h51v-1057h-51zM297 -336q25 -2 45 -2q103 0 155 68t52 213v1114h51v-1108q0 -338 -260 -338l-43 2v51zM514 1352q0 25 17.5 42t43.5 17t44 -17t18 -42q0 -26 -18 -44 t-44 -18t-43.5 18t-17.5 44z" />
<glyph unicode="&#x134;" horiz-adv-x="653" d="M49 8l6 45q77 -18 150 -18q101 0 156 59t55 195v1145h53v-1145q0 -143 -64 -222t-200 -79q-96 0 -156 20zM227 1554l193 248h57l193 -248h-56l-165 197l-166 -197h-56z" />
<glyph unicode="&#x135;" horiz-adv-x="382" d="M-86 -336q25 -2 45 -2q103 0 155 68t52 213v1114h51v-1108q0 -338 -260 -338l-43 2v51zM-31 1235l193 248h57l193 -248h-56l-166 197l-165 -197h-56z" />
<glyph unicode="&#x136;" horiz-adv-x="1064" d="M184 0v1434h54v-676l675 676h72l-684 -686l715 -748h-68l-710 735v-735h-54zM506 -324q63 63 72 125q-26 0 -45 17.5t-19 44.5q0 25 17 43t42 18q29 0 46.5 -19.5t17.5 -47.5q0 -121 -96 -213z" />
<glyph unicode="&#x137;" horiz-adv-x="876" d="M166 0v1481h51v-883l539 459h78l-558 -469l584 -588h-78l-565 575v-575h-51zM426 -324q63 63 72 125q-26 0 -45 17.5t-19 44.5q0 25 17.5 43t42.5 18q29 0 46 -19.5t17 -47.5q0 -121 -96 -213z" />
<glyph unicode="&#x138;" horiz-adv-x="876" d="M166 0v1057h51v-475l539 475h78l-558 -486l584 -571h-78l-565 559v-559h-51z" />
<glyph unicode="&#x139;" horiz-adv-x="907" d="M182 1532l152 287h69l-167 -287h-54zM184 0v1434h54v-1383h600v-51h-654z" />
<glyph unicode="&#x13a;" horiz-adv-x="382" d="M160 1532l151 287h70l-168 -287h-53zM166 0v1481h51v-1481h-51z" />
<glyph unicode="&#x13b;" horiz-adv-x="907" d="M184 0v1434h54v-1383h600v-51h-654zM449 -324q62 62 71 125q-26 0 -44.5 17.5t-18.5 44.5q0 25 17 43t42 18q29 0 46.5 -19.5t17.5 -47.5q0 -120 -97 -213z" />
<glyph unicode="&#x13c;" horiz-adv-x="382" d="M121 -324q63 63 72 125q-26 0 -45 17.5t-19 44.5q0 25 17 43t42 18q29 0 46.5 -19.5t17.5 -47.5q0 -121 -96 -213zM166 0v1481h51v-1481h-51z" />
<glyph unicode="&#x13d;" horiz-adv-x="907" d="M184 0v1434h54v-1383h600v-51h-654zM543 1106l28 328h56l-45 -328h-39z" />
<glyph unicode="&#x13e;" horiz-adv-x="385" d="M166 0v1481h51v-1481h-51zM301 1153l29 328h55l-45 -328h-39z" />
<glyph unicode="&#x13f;" horiz-adv-x="907" d="M184 0v1434h54v-1383h600v-51h-654zM530 743q0 25 17.5 43.5t44.5 18.5t44 -18t17 -44q0 -25 -17 -43t-44 -18t-44.5 18t-17.5 43z" />
<glyph unicode="&#x140;" horiz-adv-x="526" d="M166 0v1481h51v-1481h-51zM305 743q0 25 17.5 43.5t44.5 18.5t44 -18t17 -44q0 -25 -17 -43t-44 -18t-44.5 18t-17.5 43z" />
<glyph unicode="&#x141;" horiz-adv-x="907" d="M59 578v59l125 78v719h54v-689l286 183v-62l-286 -180v-635h600v-51h-654v655z" />
<glyph unicode="&#x142;" horiz-adv-x="462" d="M53 670v57l152 107v647h53v-611l156 111v-57l-156 -113v-811h-53v774z" />
<glyph unicode="&#x143;" horiz-adv-x="1425" d="M184 0v1434h49l957 -1338v1338h51v-1434h-51l-954 1343v-1343h-52zM672 1532l151 287h70l-168 -287h-53z" />
<glyph unicode="&#x144;" horiz-adv-x="1099" d="M166 0v1057h51v-191q43 99 136 158t210 59q101 0 185.5 -40.5t140 -127t55.5 -204.5v-711h-51v690q0 157 -93.5 249.5t-236.5 92.5q-152 0 -249 -104.5t-97 -276.5v-651h-51zM483 1194l152 287h70l-168 -287h-54z" />
<glyph unicode="&#x145;" horiz-adv-x="1425" d="M184 0v1434h49l957 -1338v1338h51v-1434h-51l-954 1343v-1343h-52zM641 -324q63 63 72 125q-26 0 -45 17.5t-19 44.5q0 25 17.5 43t42.5 18q29 0 46 -19.5t17 -47.5q0 -121 -96 -213z" />
<glyph unicode="&#x146;" horiz-adv-x="1099" d="M166 0v1057h51v-191q43 99 136 158t210 59q101 0 185.5 -40.5t140 -127t55.5 -204.5v-711h-51v690q0 157 -93.5 249.5t-236.5 92.5q-152 0 -249 -104.5t-97 -276.5v-651h-51zM487 -324q63 63 72 125q-26 0 -44.5 17.5t-18.5 44.5q0 25 17 43t42 18q29 0 46 -19.5 t17 -47.5q0 -121 -96 -213z" />
<glyph unicode="&#x147;" horiz-adv-x="1425" d="M184 0v1434h49l957 -1338v1338h51v-1434h-51l-954 1343v-1343h-52zM487 1802h56l166 -196l165 196h56l-193 -248h-57z" />
<glyph unicode="&#x148;" horiz-adv-x="1099" d="M166 0v1057h51v-191q43 99 136 158t210 59q101 0 185.5 -40.5t140 -127t55.5 -204.5v-711h-51v690q0 157 -93.5 249.5t-236.5 92.5q-152 0 -249 -104.5t-97 -276.5v-651h-51zM332 1483h55l166 -197l166 197h55l-192 -248h-58z" />
<glyph unicode="&#x149;" horiz-adv-x="1099" d="M47 1196q63 63 72 125q-26 0 -45 17t-19 44q0 25 17.5 43.5t42.5 18.5q29 0 46 -20t17 -48q0 -121 -96 -213zM166 0v1057h51v-191q43 99 136 158t210 59q101 0 185.5 -40.5t140 -127t55.5 -204.5v-711h-51v690q0 157 -93.5 249.5t-236.5 92.5q-152 0 -249 -104.5 t-97 -276.5v-651h-51z" />
<glyph unicode="&#x14a;" horiz-adv-x="1425" d="M184 0v1434h49l957 -1338v1338h51v-1522q0 -143 -64 -222t-200 -79q-96 0 -156 20l6 45q77 -18 150 -18q102 0 157.5 59t55.5 195v88l-954 1343v-1343h-52z" />
<glyph unicode="&#x14b;" horiz-adv-x="1099" d="M166 0v1057h51v-191q43 99 136 158t210 59q101 0 185.5 -40.5t140 -127t55.5 -204.5v-762q0 -338 -260 -338l-43 2v51q25 -2 45 -2q103 0 155 68t52 213v747q0 157 -93.5 249.5t-236.5 92.5q-152 0 -249 -104.5t-97 -276.5v-651h-51z" />
<glyph unicode="&#x14c;" horiz-adv-x="1617" d="M92 717q0 157 57 295.5t153.5 236.5t228.5 154.5t278 56.5t278 -56.5t228.5 -154.5t153.5 -236.5t57 -295.5q0 -158 -57 -297t-154 -236.5t-228.5 -154t-277.5 -56.5t-277.5 56.5t-228.5 154t-154 236.5t-57 297zM147 717q0 -148 51.5 -276.5t139.5 -219t210.5 -142.5 t260.5 -52t260.5 52t210.5 142.5t139 219t51 276.5q0 194 -87 352.5t-238.5 248t-335.5 89.5q-138 0 -260.5 -52.5t-210.5 -144t-139.5 -219.5t-51.5 -274zM580 1597v54h464v-54h-464z" />
<glyph unicode="&#x14d;" horiz-adv-x="1245" d="M86 528q0 116 41 219t112 177t171 116.5t213 42.5q151 0 274 -72.5t192.5 -200t69.5 -282.5t-69.5 -282.5t-192.5 -200t-274 -72.5q-113 0 -213 42.5t-171 116.5t-112 177t-41 219zM139 528q0 -213 137 -358t347 -145t346.5 145t136.5 358q0 140 -61 255t-172 182 t-250 67q-210 0 -347 -145.5t-137 -358.5zM406 1341v54h464v-54h-464z" />
<glyph unicode="&#x14e;" horiz-adv-x="1617" d="M92 717q0 157 57 295.5t153.5 236.5t228.5 154.5t278 56.5t278 -56.5t228.5 -154.5t153.5 -236.5t57 -295.5q0 -158 -57 -297t-154 -236.5t-228.5 -154t-277.5 -56.5t-277.5 56.5t-228.5 154t-154 236.5t-57 297zM147 717q0 -148 51.5 -276.5t139.5 -219t210.5 -142.5 t260.5 -52t260.5 52t210.5 142.5t139 219t51 276.5q0 194 -87 352.5t-238.5 248t-335.5 89.5q-138 0 -260.5 -52.5t-210.5 -144t-139.5 -219.5t-51.5 -274zM596 1767h49q0 -78 42.5 -125t119.5 -47t119.5 47t42.5 125h49q0 -96 -54 -158.5t-157 -62.5t-157 62.5t-54 158.5z " />
<glyph unicode="&#x14f;" horiz-adv-x="1245" d="M86 528q0 116 41 219t112 177t171 116.5t213 42.5q151 0 274 -72.5t192.5 -200t69.5 -282.5t-69.5 -282.5t-192.5 -200t-274 -72.5q-113 0 -213 42.5t-171 116.5t-112 177t-41 219zM139 528q0 -213 137 -358t347 -145t346.5 145t136.5 358q0 140 -61 255t-172 182 t-250 67q-210 0 -347 -145.5t-137 -358.5zM412 1440h49q0 -78 42.5 -125t119.5 -47q76 0 118.5 47t42.5 125h50q0 -96 -54 -158.5t-157 -62.5t-157 62.5t-54 158.5z" />
<glyph unicode="&#x150;" horiz-adv-x="1617" d="M92 717q0 157 57 295.5t153.5 236.5t228.5 154.5t278 56.5t278 -56.5t228.5 -154.5t153.5 -236.5t57 -295.5q0 -158 -57 -297t-154 -236.5t-228.5 -154t-277.5 -56.5t-277.5 56.5t-228.5 154t-154 236.5t-57 297zM147 717q0 -148 51.5 -276.5t139.5 -219t210.5 -142.5 t260.5 -52t260.5 52t210.5 142.5t139 219t51 276.5q0 194 -87 352.5t-238.5 248t-335.5 89.5q-138 0 -260.5 -52.5t-210.5 -144t-139.5 -219.5t-51.5 -274zM635 1520l151 286h70l-168 -286h-53zM842 1520l151 286h70l-168 -286h-53z" />
<glyph unicode="&#x151;" horiz-adv-x="1245" d="M86 528q0 116 41 219t112 177t171 116.5t213 42.5q151 0 274 -72.5t192.5 -200t69.5 -282.5t-69.5 -282.5t-192.5 -200t-274 -72.5q-113 0 -213 42.5t-171 116.5t-112 177t-41 219zM139 528q0 -213 137 -358t347 -145t346.5 145t136.5 358q0 140 -61 255t-172 182 t-250 67q-210 0 -347 -145.5t-137 -358.5zM457 1194l151 287h70l-168 -287h-53zM664 1194l151 287h70l-168 -287h-53z" />
<glyph unicode="&#x152;" horiz-adv-x="2203" d="M92 717q0 157 57 295.5t153.5 236.5t228.5 154.5t278 56.5q96 0 195 -26h1054v-52h-925q170 -88 275.5 -252t115.5 -370h467v-51h-465q-3 -220 -109 -394t-282 -264h948v-51h-1079q-106 -27 -195 -27q-146 0 -277.5 56.5t-228.5 154t-154 236.5t-57 297zM147 717 q0 -148 51.5 -276.5t139.5 -219t210.5 -142.5t260.5 -52t260.5 52t210.5 142.5t139 219t51 276.5q0 194 -87 352.5t-238.5 248t-335.5 89.5q-138 0 -260.5 -52.5t-210.5 -144t-139.5 -219.5t-51.5 -274z" />
<glyph unicode="&#x153;" horiz-adv-x="2189" d="M86 528q0 116 41 219t112 177t171 116.5t213 42.5q182 0 318.5 -103t188.5 -273q50 177 183 276.5t299 99.5q149 0 263 -68.5t174 -185.5t60 -264v-37h-950q0 -237 132.5 -370t348.5 -133q244 0 392 202l39 -26q-65 -100 -172 -164t-259 -64q-194 0 -329 100t-181 273 q-53 -168 -189.5 -270.5t-317.5 -102.5q-113 0 -213 42.5t-171 116.5t-112 177t-41 219zM139 528q0 -213 137 -358t347 -145t346.5 145t136.5 358q0 140 -61 255t-172 182t-250 67q-210 0 -347 -145.5t-137 -358.5zM1161 578h895q-5 110 -44 198t-101 143t-138.5 84 t-160.5 29q-172 0 -303 -122.5t-148 -331.5z" />
<glyph unicode="&#x154;" horiz-adv-x="1048" d="M184 0v1434h318q174 0 284.5 -102.5t110.5 -266.5q0 -149 -81 -241t-208 -126l381 -698h-59l-373 688q-55 -6 -108 -6h-211v-682h-54zM238 733h233q173 0 272 93t99 239q0 135 -91.5 226t-248.5 91h-264v-649zM444 1532l152 287h70l-168 -287h-54z" />
<glyph unicode="&#x155;" horiz-adv-x="616" d="M166 0v1057h51v-223q27 110 117 179.5t221 69.5v-53q-76 0 -135 -25.5t-96.5 -68t-62 -104t-34.5 -128.5t-10 -145v-559h-51zM305 1194l152 287h69l-168 -287h-53z" />
<glyph unicode="&#x156;" horiz-adv-x="1048" d="M184 0v1434h318q174 0 284.5 -102.5t110.5 -266.5q0 -149 -81 -241t-208 -126l381 -698h-59l-373 688q-55 -6 -108 -6h-211v-682h-54zM238 733h233q173 0 272 93t99 239q0 135 -91.5 226t-248.5 91h-264v-649zM473 -324q63 63 72 125q-26 0 -45 17.5t-19 44.5 q0 25 17.5 43t42.5 18q29 0 46 -19.5t17 -47.5q0 -121 -96 -213z" />
<glyph unicode="&#x157;" horiz-adv-x="616" d="M137 -324q63 63 72 125q-26 0 -45 17.5t-19 44.5q0 25 17.5 43t42.5 18q29 0 46 -19.5t17 -47.5q0 -121 -96 -213zM166 0v1057h51v-223q27 110 117 179.5t221 69.5v-53q-76 0 -135 -25.5t-96.5 -68t-62 -104t-34.5 -128.5t-10 -145v-559h-51z" />
<glyph unicode="&#x158;" horiz-adv-x="1048" d="M184 0v1434h318q174 0 284.5 -102.5t110.5 -266.5q0 -149 -81 -241t-208 -126l381 -698h-59l-373 688q-55 -6 -108 -6h-211v-682h-54zM238 733h233q173 0 272 93t99 239q0 135 -91.5 226t-248.5 91h-264v-649zM276 1802h56l166 -196l166 196h55l-193 -248h-57z" />
<glyph unicode="&#x159;" horiz-adv-x="616" d="M123 1483h55l166 -197l166 197h55l-192 -248h-58zM166 0v1057h51v-223q27 110 117 179.5t221 69.5v-53q-76 0 -135 -25.5t-96.5 -68t-62 -104t-34.5 -128.5t-10 -145v-559h-51z" />
<glyph unicode="&#x15a;" horiz-adv-x="1009" d="M92 270l53 15q16 -50 42 -92t68.5 -81.5t109.5 -62t151 -22.5q145 0 241.5 87.5t96.5 227.5q0 72 -24.5 130t-66 98.5t-95.5 74t-113 61.5t-118.5 56t-113.5 61.5t-95.5 74t-66 98.5t-24.5 130q0 138 99.5 236t271.5 98q81 0 147.5 -23.5t110 -63t69 -75t44.5 -75.5 l-50 -21q-13 27 -29 52t-44 54t-61.5 50t-82 35t-104.5 14q-148 0 -233 -79.5t-85 -201.5q0 -64 24.5 -115.5t66 -88t95.5 -67.5t114 -58.5t119.5 -56t113.5 -65.5t95.5 -81t66 -108t24.5 -142q0 -156 -108.5 -263.5t-284.5 -107.5q-327 0 -424 297zM459 1532l151 287h70 l-168 -287h-53z" />
<glyph unicode="&#x15b;" horiz-adv-x="823" d="M80 225l51 13q11 -42 32 -77.5t55 -67.5t87.5 -50t120.5 -18q105 0 182.5 65.5t77.5 173.5q0 65 -31 113.5t-80.5 78.5t-109 55.5t-119.5 51.5t-109.5 58t-80.5 84.5t-31 121.5q0 116 81.5 186t207.5 70q67 0 123.5 -20t92.5 -52.5t57.5 -66.5t29.5 -67l-47 -15 q-11 31 -28 58t-46.5 54t-76 42.5t-105.5 15.5q-101 0 -168.5 -55.5t-67.5 -149.5q0 -59 31 -103.5t80.5 -72.5t109 -52.5t119.5 -51.5t109.5 -61.5t80.5 -91t31 -130.5q0 -127 -88.5 -209t-224.5 -82q-80 0 -143.5 23t-103 61.5t-63.5 80t-36 87.5zM350 1194l152 287h69 l-168 -287h-53z" />
<glyph unicode="&#x15c;" horiz-adv-x="1009" d="M92 270l53 15q16 -50 42 -92t68.5 -81.5t109.5 -62t151 -22.5q145 0 241.5 87.5t96.5 227.5q0 72 -24.5 130t-66 98.5t-95.5 74t-113 61.5t-118.5 56t-113.5 61.5t-95.5 74t-66 98.5t-24.5 130q0 138 99.5 236t271.5 98q81 0 147.5 -23.5t110 -63t69 -75t44.5 -75.5 l-50 -21q-13 27 -29 52t-44 54t-61.5 50t-82 35t-104.5 14q-148 0 -233 -79.5t-85 -201.5q0 -64 24.5 -115.5t66 -88t95.5 -67.5t114 -58.5t119.5 -56t113.5 -65.5t95.5 -81t66 -108t24.5 -142q0 -156 -108.5 -263.5t-284.5 -107.5q-327 0 -424 297zM295 1554l192 248h58 l192 -248h-55l-166 197l-166 -197h-55z" />
<glyph unicode="&#x15d;" horiz-adv-x="823" d="M80 225l51 13q11 -42 32 -77.5t55 -67.5t87.5 -50t120.5 -18q105 0 182.5 65.5t77.5 173.5q0 65 -31 113.5t-80.5 78.5t-109 55.5t-119.5 51.5t-109.5 58t-80.5 84.5t-31 121.5q0 116 81.5 186t207.5 70q67 0 123.5 -20t92.5 -52.5t57.5 -66.5t29.5 -67l-47 -15 q-11 31 -28 58t-46.5 54t-76 42.5t-105.5 15.5q-101 0 -168.5 -55.5t-67.5 -149.5q0 -59 31 -103.5t80.5 -72.5t109 -52.5t119.5 -51.5t109.5 -61.5t80.5 -91t31 -130.5q0 -127 -88.5 -209t-224.5 -82q-80 0 -143.5 23t-103 61.5t-63.5 80t-36 87.5zM211 1235l192 248h58 l192 -248h-55l-166 197l-166 -197h-55z" />
<glyph unicode="&#x15e;" horiz-adv-x="1009" d="M92 270l53 15q16 -50 42 -92t68.5 -81.5t109.5 -62t151 -22.5q145 0 241.5 87.5t96.5 227.5q0 72 -24.5 130t-66 98.5t-95.5 74t-113 61.5t-118.5 56t-113.5 61.5t-95.5 74t-66 98.5t-24.5 130q0 138 99.5 236t271.5 98q81 0 147.5 -23.5t110 -63t69 -75t44.5 -75.5 l-50 -21q-13 27 -29 52t-44 54t-61.5 50t-82 35t-104.5 14q-148 0 -233 -79.5t-85 -201.5q0 -64 24.5 -115.5t66 -88t95.5 -67.5t114 -58.5t119.5 -56t113.5 -65.5t95.5 -81t66 -108t24.5 -142q0 -155 -107 -261.5t-280 -109.5l-16 -108q82 -6 128 -44.5t46 -101.5 q0 -89 -58 -128.5t-147 -39.5l-57 5l6 47q32 -4 57 -4q64 0 105 27t41 87q0 52 -38.5 79.5t-107.5 27.5h-24l16 155q-292 18 -381 295z" />
<glyph unicode="&#x15f;" horiz-adv-x="823" d="M80 225l51 13q11 -42 32 -77.5t55 -67.5t87.5 -50t120.5 -18q105 0 182.5 65.5t77.5 173.5q0 65 -31 113.5t-80.5 78.5t-109 55.5t-119.5 51.5t-109.5 58t-80.5 84.5t-31 121.5q0 116 81.5 186t207.5 70q67 0 123.5 -20t92.5 -52.5t57.5 -66.5t29.5 -67l-47 -15 q-11 31 -28 58t-46.5 54t-76 42.5t-105.5 15.5q-101 0 -168.5 -55.5t-67.5 -149.5q0 -59 31 -103.5t80.5 -72.5t109 -52.5t119.5 -51.5t109.5 -61.5t80.5 -91t31 -130.5q0 -127 -89 -209t-226 -82l-16 -108q82 -6 128 -44.5t46 -101.5q0 -89 -58 -128.5t-147 -39.5l-58 5 l7 47q32 -4 57 -4q64 0 104.5 27t40.5 87q0 52 -38.5 79.5t-106.5 27.5h-25l17 155q-127 14 -199 85.5t-96 164.5z" />
<glyph unicode="&#x160;" horiz-adv-x="1009" d="M92 270l53 15q16 -50 42 -92t68.5 -81.5t109.5 -62t151 -22.5q145 0 241.5 87.5t96.5 227.5q0 72 -24.5 130t-66 98.5t-95.5 74t-113 61.5t-118.5 56t-113.5 61.5t-95.5 74t-66 98.5t-24.5 130q0 138 99.5 236t271.5 98q81 0 147.5 -23.5t110 -63t69 -75t44.5 -75.5 l-50 -21q-13 27 -29 52t-44 54t-61.5 50t-82 35t-104.5 14q-148 0 -233 -79.5t-85 -201.5q0 -64 24.5 -115.5t66 -88t95.5 -67.5t114 -58.5t119.5 -56t113.5 -65.5t95.5 -81t66 -108t24.5 -142q0 -156 -108.5 -263.5t-284.5 -107.5q-327 0 -424 297zM289 1802h55l166 -196 l166 196h55l-192 -248h-58z" />
<glyph unicode="&#x161;" horiz-adv-x="823" d="M80 225l51 13q11 -42 32 -77.5t55 -67.5t87.5 -50t120.5 -18q105 0 182.5 65.5t77.5 173.5q0 65 -31 113.5t-80.5 78.5t-109 55.5t-119.5 51.5t-109.5 58t-80.5 84.5t-31 121.5q0 116 81.5 186t207.5 70q67 0 123.5 -20t92.5 -52.5t57.5 -66.5t29.5 -67l-47 -15 q-11 31 -28 58t-46.5 54t-76 42.5t-105.5 15.5q-101 0 -168.5 -55.5t-67.5 -149.5q0 -59 31 -103.5t80.5 -72.5t109 -52.5t119.5 -51.5t109.5 -61.5t80.5 -91t31 -130.5q0 -127 -88.5 -209t-224.5 -82q-80 0 -143.5 23t-103 61.5t-63.5 80t-36 87.5zM205 1483h55l166 -197 l166 197h55l-192 -248h-58z" />
<glyph unicode="&#x162;" d="M47 1382v52h918v-52h-433v-1382l-22 -135q82 -6 128 -44.5t46 -101.5q0 -89 -58 -128.5t-147 -39.5l-57 5l6 47q32 -4 57 -4q64 0 105 27t41 87q0 52 -38.5 79.5t-107.5 27.5h-24l20 180v1382h-434z" />
<glyph unicode="&#x163;" horiz-adv-x="555" d="M39 1010v47h135v221h53v-221h265v-47h-265v-650q0 -173 48.5 -247t177.5 -74q21 0 49 4v-49q-21 -6 -72 -6q-32 0 -59 6l-19 -129q82 -6 128 -44.5t46 -101.5q0 -89 -57.5 -128.5t-146.5 -39.5l-58 5l6 47q32 -4 58 -4q64 0 104.5 27t40.5 87q0 52 -38.5 79.5 t-106.5 27.5h-25l21 186q-150 63 -150 309v695h-135z" />
<glyph unicode="&#x164;" d="M47 1382v52h918v-52h-433v-1382h-51v1382h-434zM287 1802h55l166 -196l166 196h55l-192 -248h-58z" />
<glyph unicode="&#x165;" horiz-adv-x="555" d="M39 1010v47h135v221h53v-221h265v-47h-265v-650q0 -173 48.5 -247t177.5 -74q21 0 49 4v-49q-21 -6 -72 -6q-126 0 -191 83.5t-65 243.5v695h-135zM412 1153l28 328h56l-45 -328h-39z" />
<glyph unicode="&#x166;" d="M47 1382v52h918v-52h-433v-565h295v-51h-295v-766h-51v766h-297v51h297v565h-434z" />
<glyph unicode="&#x167;" horiz-adv-x="555" d="M39 1010v47h135v221h53v-221h265v-47h-265v-305h265v-48h-265v-297q0 -173 48.5 -247t177.5 -74q21 0 49 4v-49q-21 -6 -72 -6q-126 0 -191 83.5t-65 243.5v342h-129v48h129v305h-135z" />
<glyph unicode="&#x168;" horiz-adv-x="1359" d="M172 494v940h53v-938q0 -220 117.5 -344.5t337.5 -124.5t337.5 124.5t117.5 344.5v938h53v-940q0 -240 -135.5 -380.5t-372.5 -140.5t-372.5 140.5t-135.5 380.5zM416 1585q0 72 43 115t110 43q36 0 73.5 -17t64 -37.5t61.5 -37.5t68 -17q40 0 68 30t28 77h51 q0 -72 -43.5 -115t-110.5 -43q-36 0 -73.5 17t-63.5 37.5t-61 37.5t-68 17q-40 0 -68 -30t-28 -77h-51z" />
<glyph unicode="&#x169;" horiz-adv-x="1085" d="M154 346v711h51v-690q0 -157 93.5 -249.5t236.5 -92.5q152 0 249 104.5t97 276.5v651h51v-1057h-51v190q-43 -99 -136 -158t-210 -59q-74 0 -142 24t-121.5 69.5t-85.5 118t-32 161.5zM256 1264q0 72 43.5 114.5t110.5 42.5q46 0 92 -27t89.5 -54t84.5 -27q40 0 68 30 t28 76h51q0 -72 -43 -114.5t-110 -42.5q-46 0 -92 27t-90 54t-85 27q-40 0 -68 -30t-28 -76h-51z" />
<glyph unicode="&#x16a;" horiz-adv-x="1359" d="M172 494v940h53v-938q0 -220 117.5 -344.5t337.5 -124.5t337.5 124.5t117.5 344.5v938h53v-940q0 -240 -135.5 -380.5t-372.5 -140.5t-372.5 140.5t-135.5 380.5zM473 1597v54h465v-54h-465z" />
<glyph unicode="&#x16b;" horiz-adv-x="1085" d="M154 346v711h51v-690q0 -157 93.5 -249.5t236.5 -92.5q152 0 249 104.5t97 276.5v651h51v-1057h-51v190q-43 -99 -136 -158t-210 -59q-74 0 -142 24t-121.5 69.5t-85.5 118t-32 161.5zM317 1341v54h465v-54h-465z" />
<glyph unicode="&#x16c;" horiz-adv-x="1359" d="M172 494v940h53v-938q0 -220 117.5 -344.5t337.5 -124.5t337.5 124.5t117.5 344.5v938h53v-940q0 -240 -135.5 -380.5t-372.5 -140.5t-372.5 140.5t-135.5 380.5zM471 1767h49q0 -78 42.5 -125t119.5 -47t119.5 47t42.5 125h49q0 -96 -54 -158.5t-157 -62.5t-157 62.5 t-54 158.5z" />
<glyph unicode="&#x16d;" horiz-adv-x="1085" d="M154 346v711h51v-690q0 -157 93.5 -249.5t236.5 -92.5q152 0 249 104.5t97 276.5v651h51v-1057h-51v190q-43 -99 -136 -158t-210 -59q-74 0 -142 24t-121.5 69.5t-85.5 118t-32 161.5zM338 1440h49q0 -78 42.5 -125t119.5 -47t119.5 47t42.5 125h49q0 -96 -54 -158.5 t-157 -62.5t-157 62.5t-54 158.5z" />
<glyph unicode="&#x16e;" horiz-adv-x="1359" d="M172 494v940h53v-938q0 -220 117.5 -344.5t337.5 -124.5t337.5 124.5t117.5 344.5v938h53v-940q0 -240 -135.5 -380.5t-372.5 -140.5t-372.5 140.5t-135.5 380.5zM539 1686q0 67 41.5 108t105.5 41t106 -41t42 -108t-42 -108.5t-106 -41.5t-105.5 41.5t-41.5 108.5z M590 1686q0 -43 26 -72t70 -29t70 29t26 72t-26 71.5t-70 28.5t-70 -28.5t-26 -71.5z" />
<glyph unicode="&#x16f;" horiz-adv-x="1085" d="M154 346v711h51v-690q0 -157 93.5 -249.5t236.5 -92.5q152 0 249 104.5t97 276.5v651h51v-1057h-51v190q-43 -99 -136 -158t-210 -59q-74 0 -142 24t-121.5 69.5t-85.5 118t-32 161.5zM401 1360q0 67 42 108t106 41t105.5 -41t41.5 -108t-41.5 -108.5t-105.5 -41.5 t-106 41.5t-42 108.5zM453 1360q0 -43 26 -71.5t70 -28.5t70 28.5t26 71.5t-26 71.5t-70 28.5t-70 -28.5t-26 -71.5z" />
<glyph unicode="&#x170;" horiz-adv-x="1359" d="M172 494v940h53v-938q0 -220 117.5 -344.5t337.5 -124.5t337.5 124.5t117.5 344.5v938h53v-940q0 -240 -135.5 -380.5t-372.5 -140.5t-372.5 140.5t-135.5 380.5zM479 1532l152 287h69l-168 -287h-53zM686 1532l152 287h69l-168 -287h-53z" />
<glyph unicode="&#x171;" horiz-adv-x="1085" d="M154 346v711h51v-690q0 -157 93.5 -249.5t236.5 -92.5q152 0 249 104.5t97 276.5v651h51v-1057h-51v190q-43 -99 -136 -158t-210 -59q-74 0 -142 24t-121.5 69.5t-85.5 118t-32 161.5zM356 1194l152 287h70l-168 -287h-54zM563 1194l152 287h69l-168 -287h-53z" />
<glyph unicode="&#x172;" horiz-adv-x="1359" d="M172 494v940h53v-938q0 -220 117.5 -344.5t337.5 -124.5t337.5 124.5t117.5 344.5v938h53v-940q0 -192 -88 -322t-248 -174q-69 -27 -113.5 -75.5t-44.5 -112.5q0 -69 51 -107.5t119 -38.5v-51q-91 0 -156 48.5t-65 139.5q0 54 28 99.5t74 76.5q-30 -4 -65 -4 q-237 0 -372.5 140.5t-135.5 380.5z" />
<glyph unicode="&#x173;" horiz-adv-x="1085" d="M154 346v711h51v-690q0 -157 93.5 -249.5t236.5 -92.5q152 0 249 104.5t97 276.5v651h51v-1057q-170 -67 -170 -190q0 -69 51 -107.5t119 -38.5v-51q-91 0 -156 48.5t-65 139.5q0 66 49.5 124.5t120.5 82.5v182q-43 -99 -136 -158t-210 -59q-74 0 -142 24t-121.5 69.5 t-85.5 118t-32 161.5z" />
<glyph unicode="&#x174;" horiz-adv-x="1867" d="M29 1434h55l401 -1352l412 1352h74l411 -1352l402 1352h55l-430 -1434h-55l-420 1366l-420 -1366h-55zM717 1554l192 248h58l192 -248h-55l-166 197l-166 -197h-55z" />
<glyph unicode="&#x175;" horiz-adv-x="1648" d="M14 1057h58l360 -981q2 4 361 981h63l361 -981l360 981h57l-395 -1057h-51l-363 993l-364 -993h-51zM604 1235l193 248h57l193 -248h-56l-166 197l-166 -197h-55z" />
<glyph unicode="&#x176;" horiz-adv-x="995" d="M25 1434h59l414 -693l413 693h60l-447 -744v-690h-53v690zM279 1554l192 248h57l193 -248h-55l-166 197l-166 -197h-55z" />
<glyph unicode="&#x177;" horiz-adv-x="983" d="M14 1057h58l426 -1000l413 1000h58l-598 -1424h-60l158 363zM283 1235l192 248h57l193 -248h-55l-166 197l-166 -197h-55z" />
<glyph unicode="&#x178;" horiz-adv-x="995" d="M25 1434h59l414 -693l413 693h60l-447 -744v-690h-53v690zM268 1716q0 29 20 48.5t48 19.5t47.5 -19.5t19.5 -48.5t-19.5 -48t-47.5 -19t-48 19t-20 48zM592 1716q0 29 19.5 48.5t47.5 19.5t48 -19.5t20 -48.5t-20 -48t-48 -19t-47.5 19t-19.5 48z" />
<glyph unicode="&#x179;" horiz-adv-x="1200" d="M78 0v51l969 1331h-936v52h997v-52l-967 -1331h971v-51h-1034zM567 1532l152 287h69l-167 -287h-54z" />
<glyph unicode="&#x17a;" horiz-adv-x="937" d="M72 0v49l708 959h-682v49h748v-49l-709 -959h721v-49h-786zM393 1194l152 287h69l-168 -287h-53z" />
<glyph unicode="&#x17b;" horiz-adv-x="1200" d="M78 0v51l969 1331h-936v52h997v-52l-967 -1331h971v-51h-1034zM541 1667q0 25 18.5 43.5t44.5 18.5t45 -18.5t19 -43.5q0 -26 -19 -44.5t-45 -18.5t-44.5 18.5t-18.5 44.5z" />
<glyph unicode="&#x17c;" horiz-adv-x="937" d="M72 0v49l708 959h-682v49h748v-49l-709 -959h721v-49h-786zM401 1352q0 25 19 43t45 18t44.5 -18t18.5 -43q0 -26 -18.5 -45t-44.5 -19t-45 19t-19 45z" />
<glyph unicode="&#x17d;" horiz-adv-x="1200" d="M78 0v51l969 1331h-936v52h997v-52l-967 -1331h971v-51h-1034zM379 1802h55l166 -196l166 196h55l-192 -248h-58z" />
<glyph unicode="&#x17e;" horiz-adv-x="937" d="M72 0v49l708 959h-682v49h748v-49l-709 -959h721v-49h-786zM244 1483h55l166 -197l166 197h55l-192 -248h-58z" />
<glyph unicode="&#x192;" horiz-adv-x="892" d="M-102 -379l10 49q40 -12 108 -12q100 0 164 70.5t88 234.5l115 815h-166v47h172l43 293q14 91 45.5 157t74 101t88 50.5t97.5 15.5q32 0 60.5 -4t40.5 -8l12 -3l-10 -49q-41 13 -109 13q-100 0 -164 -71t-88 -235l-39 -260h252v-47h-258l-119 -848q-11 -75 -34 -132.5 t-52 -93t-66.5 -58t-74.5 -31t-78 -8.5q-32 0 -60 3.5t-40 7.5z" />
<glyph unicode="&#x1fa;" horiz-adv-x="1239" d="M35 0l540 1389q-47 12 -75.5 50.5t-28.5 94.5q0 67 41.5 108t105.5 41t106 -41t42 -108q0 -56 -29.5 -94.5t-77.5 -50.5l543 -1389h-57l-209 543h-635l-209 -543h-57zM319 592h599l-300 770zM522 1534q0 -41 23 -69t63 -31h10q44 0 70.5 28.5t26.5 71.5t-26.5 71.5 t-70.5 28.5t-70 -28.5t-26 -71.5zM590 1739l135 274h70l-152 -274h-53z" />
<glyph unicode="&#x1fb;" horiz-adv-x="1015" d="M88 324q0 144 112 241t283 97q119 0 205 -47t131 -115v227q0 148 -86 226.5t-231 78.5q-171 0 -338 -102l-27 45q182 108 363 108q179 0 274.5 -96t95.5 -262v-725h-41l-10 147q-43 -72 -128.5 -123t-207.5 -51q-177 0 -286 100t-109 251zM141 322q0 -122 94 -209.5 t248 -87.5q150 0 246 86t96 211t-98 206.5t-244 81.5q-153 0 -247.5 -83t-94.5 -205zM356 1341q0 67 42 108.5t106 41.5t105.5 -41.5t41.5 -108.5t-41.5 -108t-105.5 -41t-106 41t-42 108zM408 1341q0 -43 26 -71.5t70 -28.5t70 28.5t26 71.5t-26 72t-70 29t-70 -29t-26 -72 zM459 1552l151 287h70l-168 -287h-53z" />
<glyph unicode="&#x1fc;" horiz-adv-x="1572" d="M18 0l711 1434h698v-52h-575v-622h508v-51h-508v-658h600v-51h-653v543h-457l-266 -543h-58zM367 592h432v790h-43zM920 1532l151 287h70l-168 -287h-53z" />
<glyph unicode="&#x1fd;" horiz-adv-x="1898" d="M88 324q0 144 112 241t283 97q119 0 205 -47t131 -115v227q0 148 -86 226.5t-231 78.5q-171 0 -338 -102l-27 45q182 108 363 108q164 0 258 -82.5t108 -226.5q60 147 183 228t272 81t263.5 -68.5t174.5 -185.5t60 -264v-37h-951q0 -236 133 -369.5t349 -133.5 q243 0 391 202l39 -26q-65 -100 -171.5 -164t-258.5 -64q-167 0 -291.5 76.5t-186.5 212.5q-40 -144 -142.5 -216.5t-246.5 -72.5q-177 0 -286 100t-109 251zM141 322q0 -122 94 -209.5t248 -87.5q150 0 246 86t96 211t-98 206.5t-244 81.5q-153 0 -247.5 -83t-94.5 -205z M846 1194l151 287h70l-168 -287h-53zM870 578h895q-5 110 -44 198t-101 143t-138.5 84t-160.5 29q-172 0 -303 -122.5t-148 -331.5z" />
<glyph unicode="&#x1fe;" horiz-adv-x="1617" d="M92 717q0 157 57 295.5t153.5 236.5t228.5 154.5t278 56.5q243 0 432 -147l119 151l39 -32l-119 -152q115 -102 180.5 -247.5t65.5 -315.5q0 -158 -57 -297t-154 -236.5t-228.5 -154t-277.5 -56.5q-245 0 -436 148l-117 -150l-39 29l119 152q-115 102 -179.5 248 t-64.5 317zM147 717q0 -159 58 -294.5t162 -229.5l843 1079q-174 135 -401 135q-138 0 -260.5 -52.5t-210.5 -144t-139.5 -219.5t-51.5 -274zM406 162q174 -135 403 -135q138 0 260.5 52t210.5 142.5t139 219t51 276.5q0 157 -59 291.5t-164 230.5zM752 1532l151 287h70 l-168 -287h-53z" />
<glyph unicode="&#x1ff;" horiz-adv-x="1245" d="M86 528q0 116 41 219t112 177t171 116.5t213 42.5q180 0 319 -104l82 104l41 -32l-82 -105q83 -76 129.5 -184.5t46.5 -233.5q0 -155 -69.5 -282.5t-192.5 -200t-274 -72.5q-185 0 -322 103l-82 -105l-39 31l84 107q-85 76 -131.5 184t-46.5 235zM141 528 q0 -113 41 -210.5t115 -165.5l612 784q-124 94 -286 94q-210 0 -346 -144.5t-136 -357.5zM336 119q126 -92 287 -92q210 0 345.5 144t135.5 357q0 111 -40.5 209t-113.5 166zM551 1194l151 287h70l-168 -287h-53z" />
<glyph unicode="&#x218;" horiz-adv-x="1009" d="M92 270l53 15q16 -50 42 -92t68.5 -81.5t109.5 -62t151 -22.5q145 0 241.5 87.5t96.5 227.5q0 72 -24.5 130t-66 98.5t-95.5 74t-113 61.5t-118.5 56t-113.5 61.5t-95.5 74t-66 98.5t-24.5 130q0 138 99.5 236t271.5 98q81 0 147.5 -23.5t110 -63t69 -75t44.5 -75.5 l-50 -21q-13 27 -29 52t-44 54t-61.5 50t-82 35t-104.5 14q-148 0 -233 -79.5t-85 -201.5q0 -64 24.5 -115.5t66 -88t95.5 -67.5t114 -58.5t119.5 -56t113.5 -65.5t95.5 -81t66 -108t24.5 -142q0 -156 -108.5 -263.5t-284.5 -107.5q-327 0 -424 297zM442 -324q63 63 72 125 q-26 0 -44.5 17.5t-18.5 44.5q0 25 17 43t42 18q29 0 46 -19.5t17 -47.5q0 -121 -96 -213z" />
<glyph unicode="&#x219;" horiz-adv-x="823" d="M80 225l51 13q11 -42 32 -77.5t55 -67.5t87.5 -50t120.5 -18q105 0 182.5 65.5t77.5 173.5q0 65 -31 113.5t-80.5 78.5t-109 55.5t-119.5 51.5t-109.5 58t-80.5 84.5t-31 121.5q0 116 81.5 186t207.5 70q67 0 123.5 -20t92.5 -52.5t57.5 -66.5t29.5 -67l-47 -15 q-11 31 -28 58t-46.5 54t-76 42.5t-105.5 15.5q-101 0 -168.5 -55.5t-67.5 -149.5q0 -59 31 -103.5t80.5 -72.5t109 -52.5t119.5 -51.5t109.5 -61.5t80.5 -91t31 -130.5q0 -127 -88.5 -209t-224.5 -82q-80 0 -143.5 23t-103 61.5t-63.5 80t-36 87.5zM352 -324q63 63 72 125 q-26 0 -45 17.5t-19 44.5q0 25 17.5 43t42.5 18q29 0 46 -19.5t17 -47.5q0 -121 -96 -213z" />
<glyph unicode="&#x21a;" d="M47 1382v52h918v-52h-433v-1382h-51v1382h-434zM438 -324q63 63 72 125q-26 0 -45 17.5t-19 44.5q0 25 17.5 43t42.5 18q29 0 46 -19.5t17 -47.5q0 -121 -96 -213z" />
<glyph unicode="&#x21b;" horiz-adv-x="555" d="M39 1010v47h135v221h53v-221h265v-47h-265v-650q0 -173 48.5 -247t177.5 -74q21 0 49 4v-49q-21 -6 -72 -6q-126 0 -191 83.5t-65 243.5v695h-135zM295 -324q63 63 72 125q-26 0 -45 17.5t-19 44.5q0 25 17 43t42 18q29 0 46.5 -19.5t17.5 -47.5q0 -121 -96 -213z" />
<glyph unicode="&#x237;" horiz-adv-x="382" d="M-86 -336q25 -2 45 -2q103 0 155 68t52 213v1114h51v-1108q0 -338 -260 -338l-43 2v51z" />
<glyph unicode="&#x2c6;" horiz-adv-x="933" d="M246 1235l192 248h58l192 -248h-55l-166 197l-166 -197h-55z" />
<glyph unicode="&#x2c7;" horiz-adv-x="933" d="M246 1483h55l166 -197l166 197h55l-192 -248h-58z" />
<glyph unicode="&#x2d8;" horiz-adv-x="937" d="M258 1440h49q0 -78 42.5 -125t119.5 -47t119.5 47t42.5 125h49q0 -96 -54 -158.5t-157 -62.5t-157 62.5t-54 158.5z" />
<glyph unicode="&#x2d9;" horiz-adv-x="937" d="M406 1352q0 25 18.5 43t44.5 18t44.5 -18t18.5 -43q0 -26 -18.5 -45t-44.5 -19t-44.5 19t-18.5 45z" />
<glyph unicode="&#x2da;" horiz-adv-x="937" d="M322 1360q0 67 41.5 108t105.5 41t105.5 -41t41.5 -108t-41.5 -108.5t-105.5 -41.5t-105.5 41.5t-41.5 108.5zM373 1360q0 -43 26 -71.5t70 -28.5t70 28.5t26 71.5t-26 71.5t-70 28.5t-70 -28.5t-26 -71.5z" />
<glyph unicode="&#x2db;" horiz-adv-x="933" d="M356 -199q0 65 42.5 119t105.5 80h74q-74 -25 -122 -74.5t-48 -115.5q0 -69 51 -107.5t119 -38.5v-51q-91 0 -156.5 48.5t-65.5 139.5z" />
<glyph unicode="&#x2dc;" horiz-adv-x="935" d="M184 1264q0 72 43.5 114.5t110.5 42.5q46 0 92 -27t89.5 -54t84.5 -27q40 0 68 30t28 76h52q0 -72 -43.5 -114.5t-110.5 -42.5q-46 0 -92 27t-89.5 54t-84.5 27q-40 0 -68 -30t-28 -76h-52z" />
<glyph unicode="&#x2dd;" horiz-adv-x="923" d="M248 1194l151 287h70l-168 -287h-53zM455 1194l151 287h70l-168 -287h-53z" />
<glyph unicode="&#x1e80;" horiz-adv-x="1867" d="M29 1434h55l401 -1352l412 1352h74l411 -1352l402 1352h55l-430 -1434h-55l-420 1366l-420 -1366h-55zM760 1819h69l152 -287h-53z" />
<glyph unicode="&#x1e81;" horiz-adv-x="1648" d="M14 1057h58l360 -981q2 4 361 981h63l361 -981l360 981h57l-395 -1057h-51l-363 993l-364 -993h-51zM711 1481h69l152 -287h-53z" />
<glyph unicode="&#x1e82;" horiz-adv-x="1867" d="M29 1434h55l401 -1352l412 1352h74l411 -1352l402 1352h55l-430 -1434h-55l-420 1366l-420 -1366h-55zM881 1532l151 287h70l-168 -287h-53z" />
<glyph unicode="&#x1e83;" horiz-adv-x="1648" d="M14 1057h58l360 -981q2 4 361 981h63l361 -981l360 981h57l-395 -1057h-51l-363 993l-364 -993h-51zM764 1194l151 287h70l-168 -287h-53z" />
<glyph unicode="&#x1e84;" horiz-adv-x="1867" d="M29 1434h55l401 -1352l412 1352h74l411 -1352l402 1352h55l-430 -1434h-55l-420 1366l-420 -1366h-55zM705 1663q0 29 19.5 48.5t47.5 19.5t48 -19.5t20 -48.5t-20 -48.5t-48 -19.5t-47.5 19.5t-19.5 48.5zM1028 1663q0 29 20 48.5t48 19.5t47.5 -19.5t19.5 -48.5 t-19.5 -48.5t-47.5 -19.5t-48 19.5t-20 48.5z" />
<glyph unicode="&#x1e85;" horiz-adv-x="1648" d="M14 1057h58l360 -981q2 4 361 981h63l361 -981l360 981h57l-395 -1057h-51l-363 993l-364 -993h-51zM592 1337q0 29 19.5 48.5t47.5 19.5t48 -19.5t20 -48.5t-20 -48t-48 -19t-47.5 19t-19.5 48zM915 1337q0 29 20 48.5t48 19.5t48 -19.5t20 -48.5t-20 -48t-48 -19 t-48 19t-20 48z" />
<glyph unicode="&#x1ef2;" horiz-adv-x="995" d="M25 1434h59l414 -693l413 693h60l-447 -744v-690h-53v690zM332 1819h69l152 -287h-53z" />
<glyph unicode="&#x1ef3;" horiz-adv-x="983" d="M14 1057h58l426 -1000l413 1000h58l-598 -1424h-60l158 363zM328 1481h69l152 -287h-53z" />
<glyph unicode="&#x2000;" horiz-adv-x="1006" />
<glyph unicode="&#x2001;" horiz-adv-x="2013" />
<glyph unicode="&#x2002;" horiz-adv-x="1006" />
<glyph unicode="&#x2003;" horiz-adv-x="2013" />
<glyph unicode="&#x2004;" horiz-adv-x="671" />
<glyph unicode="&#x2005;" horiz-adv-x="503" />
<glyph unicode="&#x2006;" horiz-adv-x="335" />
<glyph unicode="&#x2007;" horiz-adv-x="335" />
<glyph unicode="&#x2008;" horiz-adv-x="251" />
<glyph unicode="&#x2009;" horiz-adv-x="402" />
<glyph unicode="&#x200a;" horiz-adv-x="111" />
<glyph unicode="&#x2010;" horiz-adv-x="634" d="M78 588v47h477v-47h-477z" />
<glyph unicode="&#x2011;" horiz-adv-x="634" d="M78 588v47h477v-47h-477z" />
<glyph unicode="&#x2012;" horiz-adv-x="634" d="M78 588v47h477v-47h-477z" />
<glyph unicode="&#x2013;" horiz-adv-x="1140" d="M80 584v47h983v-47h-983z" />
<glyph unicode="&#x2014;" horiz-adv-x="1675" d="M80 584v47h1517v-47h-1517z" />
<glyph unicode="&#x2018;" horiz-adv-x="303" d="M88 1225q0 117 96 213l35 -33q-63 -63 -72 -125q26 0 45 -17t19 -44q0 -25 -17.5 -43.5t-41.5 -18.5q-29 0 -46.5 20t-17.5 48z" />
<glyph unicode="&#x2019;" horiz-adv-x="303" d="M88 1190q63 63 72 125q-26 0 -45 17t-19 44q0 25 17.5 43.5t42.5 18.5q29 0 46 -20t17 -48q0 -117 -96 -213z" />
<glyph unicode="&#x201a;" horiz-adv-x="397" d="M119 -152q62 62 71 125q-26 0 -44.5 17.5t-18.5 44.5q0 25 17 43t42 18q29 0 46.5 -19.5t17.5 -47.5q0 -117 -96 -213z" />
<glyph unicode="&#x201c;" horiz-adv-x="507" d="M88 1225q0 117 96 213l35 -33q-63 -63 -72 -125q26 0 45 -17t19 -44q0 -25 -17.5 -43.5t-41.5 -18.5q-29 0 -46.5 20t-17.5 48zM291 1225q0 117 96 213l35 -33q-63 -63 -72 -125q26 0 45 -17t19 -44q0 -25 -17.5 -43.5t-42.5 -18.5q-29 0 -46 20t-17 48z" />
<glyph unicode="&#x201d;" horiz-adv-x="507" d="M88 1190q63 63 72 125q-26 0 -45 17t-19 44q0 25 17.5 43.5t42.5 18.5q29 0 46 -20t17 -48q0 -117 -96 -213zM291 1190q62 62 71 125q-26 0 -44.5 17t-18.5 44q0 25 17.5 43.5t41.5 18.5q29 0 46.5 -20t17.5 -48q0 -117 -96 -213z" />
<glyph unicode="&#x201e;" horiz-adv-x="569" d="M88 -152q63 63 72 125q-26 0 -45 17.5t-19 44.5q0 25 17.5 43t42.5 18q29 0 46 -19.5t17 -47.5q0 -117 -96 -213zM291 -152q62 62 71 125q-26 0 -44.5 17.5t-18.5 44.5q0 25 17 43t42 18q29 0 46.5 -19.5t17.5 -47.5q0 -117 -96 -213z" />
<glyph unicode="&#x2020;" horiz-adv-x="673" d="M80 1012v47h231v375h51v-375h240v-47h-240v-1012h-51v1012h-231z" />
<glyph unicode="&#x2021;" horiz-adv-x="673" d="M80 428v47h231v483h-231v48h231v428h51v-428h240v-48h-240v-483h240v-47h-240v-428h-51v428h-231z" />
<glyph unicode="&#x2022;" horiz-adv-x="831" d="M63 635q0 148 101 250t252 102t251.5 -102t100.5 -250t-100.5 -250t-251.5 -102t-252 102t-101 250z" />
<glyph unicode="&#x202f;" horiz-adv-x="402" />
<glyph unicode="&#x2030;" horiz-adv-x="2160" d="M111 1169q0 122 79.5 206.5t202.5 84.5t203 -84.5t80 -206.5t-80 -206t-203 -84t-202.5 84t-79.5 206zM147 0l1100 1434h68l-1100 -1434h-68zM164 1169q0 -101 64.5 -170t164.5 -69t165 69t65 170t-65 170.5t-165 69.5t-164.5 -69.5t-64.5 -170.5zM786 264 q0 122 80 206.5t203 84.5t203 -84.5t80 -206.5t-80 -206.5t-203 -84.5t-203 84.5t-80 206.5zM840 264q0 -101 64.5 -170t164.5 -69t164.5 69t64.5 170t-64.5 170.5t-164.5 69.5t-164.5 -69.5t-64.5 -170.5zM1485 264q0 122 79.5 206.5t202.5 84.5t203 -84.5t80 -206.5 t-80 -206.5t-203 -84.5t-202.5 84.5t-79.5 206.5zM1538 264q0 -101 64.5 -170t164.5 -69t165 69t65 170t-65 170.5t-165 69.5t-164.5 -69.5t-64.5 -170.5z" />
<glyph unicode="&#x2039;" horiz-adv-x="493" d="M82 594l256 371h53l-252 -371l252 -371h-53z" />
<glyph unicode="&#x203a;" horiz-adv-x="493" d="M82 223l252 371l-252 371h53l256 -371l-256 -371h-53z" />
<glyph unicode="&#x2044;" horiz-adv-x="829" d="M-25 -84l826 1602h55l-825 -1602h-56z" />
<glyph unicode="&#x205f;" horiz-adv-x="503" />
<glyph unicode="&#x20ac;" horiz-adv-x="1253" d="M63 557v49h115q-8 49 -8 111q0 67 12 135h-119v49h130q28 113 87.5 213.5t143 178t195.5 122.5t237 45q190 0 313 -84l-26 -43q-129 76 -287 76q-109 0 -209.5 -40t-178.5 -109t-135 -161.5t-85 -197.5h667l-4 -49h-673q-13 -73 -13 -135t8 -111h660l-4 -49h-645 q24 -108 78.5 -204t132.5 -168.5t182 -115t219 -42.5q180 0 309 90l29 -39q-48 -38 -138 -71.5t-200 -33.5q-125 0 -239 46t-200 125.5t-146 185.5t-85 227h-123z" />
<glyph unicode="&#x2116;" horiz-adv-x="2306" d="M184 0v1434h49l957 -1342v1342h51v-1434h-51l-954 1348v-1348h-52zM1458 1108q0 148 96.5 250t249.5 102t249.5 -102t96.5 -250q0 -150 -96 -252t-250 -102t-250 102t-96 252zM1477 541v49h655v-49h-655zM1505 1108q0 -128 85 -216.5t214 -88.5t214 88.5t85 216.5 q0 126 -85 214.5t-214 88.5t-214 -88.5t-85 -214.5z" />
<glyph unicode="&#x2122;" horiz-adv-x="1402" d="M68 1389v45h448v-45h-201v-691h-47v691h-200zM614 698v736h48l313 -588l313 588h47v-736h-45v658l-299 -563h-33l-299 563v-658h-45z" />
<glyph unicode="&#x2212;" horiz-adv-x="1124" d="M88 614v48h948v-48h-948z" />
<glyph unicode="&#x25fc;" horiz-adv-x="1054" d="M0 0v1055h1055v-1055h-1055z" />
<glyph unicode="&#xf6c3;" horiz-adv-x="354" d="M111 -324q62 62 71 125q-26 0 -44.5 17.5t-18.5 44.5q0 25 17 43t42 18q29 0 46.5 -19.5t17.5 -47.5q0 -120 -97 -213z" />
<glyph horiz-adv-x="634" d="M78 700v48h477v-48h-477z" />
<glyph horiz-adv-x="1140" d="M80 700v48h983v-48h-983z" />
<glyph horiz-adv-x="1675" d="M80 700v48h1517v-48h-1517z" />
<glyph horiz-adv-x="761" d="M82 731l256 371h53l-252 -371l252 -371h-53zM350 731l256 371h53l-251 -371l251 -371h-53z" />
<glyph horiz-adv-x="761" d="M82 360l252 371l-252 371h53l256 -371l-256 -371h-53zM350 360l252 371l-252 371h53l256 -371l-256 -371h-53z" />
<glyph horiz-adv-x="493" d="M82 731l256 371h53l-252 -371l252 -371h-53z" />
<glyph horiz-adv-x="493" d="M82 360l252 371l-252 371h53l256 -371l-256 -371h-53z" />
<glyph horiz-adv-x="548" d="M178 27v1339q0 120 54.5 175.5t138.5 55.5h26v-51h-28q-68 0 -103 -48t-35 -136v-1331q0 -88 35 -136.5t103 -48.5h28v-51h-26q-84 0 -138.5 56t-54.5 176z" />
<glyph horiz-adv-x="548" d="M152 -154h28q68 0 102.5 48.5t34.5 136.5v1331q0 88 -34.5 136t-102.5 48h-28v51h26q84 0 138.5 -55.5t54.5 -175.5v-1339q0 -120 -54.5 -176t-138.5 -56h-26v51z" />
<glyph horiz-adv-x="548" d="M178 -205v1802h219v-51h-166v-1700h166v-51h-219z" />
<glyph horiz-adv-x="536" d="M152 -154h165v1700h-165v51h219v-1802h-219v51z" />
<glyph horiz-adv-x="608" d="M88 672v49q77 0 113.5 52.5t36.5 162.5v430q0 120 54 175.5t138 55.5h27v-51h-29q-68 0 -102.5 -48t-34.5 -136v-426q0 -52 -9.5 -93.5t-21 -65t-30 -42.5t-29 -25.5t-25.5 -13.5q19 -9 33 -19.5t36 -36.5t34 -72.5t12 -110.5v-426q0 -88 34.5 -136.5t102.5 -48.5h29v-51 h-27q-83 0 -137.5 56t-54.5 176v430q0 110 -36.5 162.5t-113.5 52.5z" />
<glyph horiz-adv-x="458" d="M203 -291v1929h53v-1929h-53z" />
<glyph horiz-adv-x="608" d="M152 -154h28q68 0 102.5 48.5t34.5 136.5v426q0 64 12 110.5t34 72.5t36 36.5t33 19.5q-15 7 -25.5 13.5t-29 25.5t-30 42.5t-21 65t-9.5 93.5v426q0 88 -34.5 136t-102.5 48h-28v51h26q84 0 138.5 -55.5t54.5 -175.5v-430q0 -110 36.5 -162.5t112.5 -52.5v-49 q-76 0 -112.5 -52.5t-36.5 -162.5v-430q0 -120 -54.5 -176t-138.5 -56h-26v51z" />
<glyph horiz-adv-x="823" d="M72 -166l624 1757h56l-625 -1757h-55z" />
<glyph horiz-adv-x="823" d="M72 1591h55l625 -1757h-56z" />
<glyph horiz-adv-x="466" d="M172 1399q0 25 17 43t44 18t44.5 -18t17.5 -43t-17.5 -43.5t-44.5 -18.5t-44 18t-17 44zM207 0l4 1116h43l4 -1116h-51z" />
<glyph horiz-adv-x="929" d="M102 342q0 73 21.5 137.5t56 112t76.5 91t84 82t76.5 77t56 85.5t21.5 97v92h51v-92q0 -55 -21.5 -105t-56 -90.5t-76 -80.5t-82.5 -83t-75.5 -88.5t-56 -106t-21.5 -128.5q0 -138 88 -227.5t231 -89.5q64 0 118 19t90.5 51.5t61 65.5t41.5 70l43 -20 q-20 -42 -48.5 -80.5t-71 -76t-103.5 -59.5t-131 -22q-171 0 -272 106t-101 263zM451 1399q0 25 17 43t44 18t44 -18t17 -43q0 -26 -17 -44t-44 -18t-44 18t-17 44z" />
<glyph horiz-adv-x="419" d="M147 727q0 25 17.5 43t44.5 18t44 -18t17 -43t-17 -43t-44 -18t-44.5 18t-17.5 43z" />
<glyph horiz-adv-x="831" d="M63 725q0 148 101 250t252 102t251.5 -102t100.5 -250t-100.5 -250t-251.5 -102t-252 102t-101 250z" />
<glyph horiz-adv-x="1095" d="M113 717q0 145 10.5 253t39 204t77 156.5t125.5 95t182 34.5q88 0 156 -23t115.5 -69.5t79.5 -108.5t50 -149t25.5 -180t7.5 -213q0 -145 -10.5 -253t-39 -204.5t-77 -157t-125.5 -95t-182 -34.5q-76 0 -137 18t-106 50t-78 82.5t-54.5 110t-35 138t-18.5 161t-5 184.5z M166 717q0 -90 2.5 -155t11.5 -142t25 -130.5t44.5 -107t68 -85.5t97.5 -52t132 -20t132 20t97.5 53t68 86.5t44.5 107.5t25 130.5t11.5 141.5t2.5 153q0 90 -2.5 155t-11.5 142t-25 130.5t-44.5 107t-68 85.5t-97.5 52t-132 20t-132 -20t-97.5 -53t-68 -86.5t-44.5 -107.5 t-25 -130.5t-11.5 -141.5t-2.5 -153z" />
<glyph horiz-adv-x="1095" d="M203 1274l358 160h39v-1383h291v-51h-670v51h328v1321l-322 -145z" />
<glyph horiz-adv-x="1095" d="M145 0v29q0 61 25 122t67 114t96.5 106t115 104.5t120.5 104.5t114.5 110t96.5 116t67 129t25 142q0 142 -89 237t-244 95q-73 0 -132 -23.5t-97.5 -64t-63 -87t-37.5 -101.5l-47 14q5 33 19 70.5t44.5 81.5t71 79t103.5 58.5t137 23.5q96 0 172 -31.5t122.5 -85.5 t70.5 -122t24 -144q0 -74 -25 -146.5t-67 -134t-96.5 -121t-115 -113.5t-120.5 -106t-114.5 -103t-96.5 -99.5t-67 -101t-25 -103.5h751v-49h-805z" />
<glyph horiz-adv-x="1095" d="M125 258l45 16q98 -249 379 -249q155 0 262 104t107 262q0 169 -104 270t-290 101h-104v45l446 575h-698v52h762v-54l-445 -567h39q197 0 322 -108.5t125 -313.5q0 -171 -121.5 -294.5t-300.5 -123.5q-94 0 -170 25t-125 68t-80 90.5t-49 101.5z" />
<glyph horiz-adv-x="1095" d="M74 389v47l702 998h39v-996h205v-49h-205v-389h-51v389h-690zM133 438h631v893z" />
<glyph horiz-adv-x="1095" d="M123 262l45 17q41 -114 131.5 -183t239.5 -69q169 0 274 117t105 286q0 174 -108 291t-275 117q-181 0 -306 -125l-41 14l27 707h676v-48h-631l-24 -606q47 40 123 73.5t176 33.5q191 0 313.5 -132t122.5 -325q0 -189 -121.5 -322t-310.5 -133q-86 0 -158 24.5 t-121.5 66.5t-83.5 91t-53 105z" />
<glyph horiz-adv-x="1095" d="M121 590q0 438 117 654t358 216q174 0 315 -110l-32 -37q-132 96 -283 96q-69 0 -127.5 -22t-101.5 -60t-76.5 -93t-55 -117.5t-35.5 -137t-20 -148.5t-6 -155q53 93 151 162t230 69q106 0 188.5 -37.5t132 -101.5t74.5 -143.5t25 -169.5q0 -224 -111.5 -353t-308.5 -129 q-85 0 -153.5 24t-115 69t-79.5 101.5t-51.5 128.5t-26.5 143t-8 151zM174 584q0 -559 381 -559q162 0 264.5 112.5t102.5 321.5q0 171 -97 284t-270 113q-130 0 -227.5 -75t-153.5 -197z" />
<glyph horiz-adv-x="1095" d="M127 1382v52h840v-52l-559 -1382h-54l561 1382h-788z" />
<glyph horiz-adv-x="1095" d="M109 383q0 73 20 135t51 104t72 74.5t78.5 49.5t75.5 26q-34 12 -71 37t-76 65t-64 100.5t-25 129.5q0 160 108.5 258t268.5 98t268.5 -98t108.5 -258q0 -69 -25 -129.5t-64 -100.5t-76 -65t-71 -37q38 -9 75.5 -26t78.5 -49.5t72 -74.5t51 -104t20 -135 q0 -178 -125 -294t-313 -116t-313 116t-125 294zM162 383q0 -145 104 -251.5t281 -106.5t281 106.5t104 251.5q0 168 -110.5 264t-274.5 96t-274.5 -96t-110.5 -264zM221 1104q0 -126 95.5 -217.5t230.5 -91.5t230 91.5t95 217.5q0 130 -86.5 218.5t-238.5 88.5t-239 -89 t-87 -218z" />
<glyph horiz-adv-x="1095" d="M121 979q0 226 116.5 353.5t303.5 127.5q101 0 179 -35.5t125.5 -93.5t77.5 -140t41 -166t11 -181q0 -442 -114 -656.5t-361 -214.5q-173 0 -316 111l29 41q137 -100 287 -100q422 0 422 733q-53 -93 -151 -162.5t-230 -69.5q-106 0 -188.5 37.5t-132 102t-74.5 144 t-25 169.5zM174 975q0 -171 97 -284t270 -113q130 0 227.5 75t153.5 197q0 559 -381 559q-162 0 -264.5 -112.5t-102.5 -321.5z" />
<glyph d="M47 1382v52h918v-52h-433v-1382h-51v1382h-434zM432 -324q63 63 72 125q-26 0 -45 17.5t-19 44.5q0 25 17.5 43t42.5 18q29 0 46 -19.5t17 -47.5q0 -121 -96 -213z" />
<glyph horiz-adv-x="555" d="M39 1010v47h135v221h53v-221h265v-47h-265v-650q0 -173 48.5 -247t177.5 -74q21 0 49 4v-49q-21 -6 -72 -6q-126 0 -191 83.5t-65 243.5v695h-135zM266 -324q63 63 72 125q-26 0 -45 17.5t-19 44.5q0 25 17.5 43t42.5 18q29 0 46 -19.5t17 -47.5q0 -121 -96 -213z" />
</font>
</defs>
</svg>
