<?xml version="1.0" standalone="no"?>
<!DOCTYPE svg PUBLIC "-//W3C//DTD SVG 1.1//EN" "http://www.w3.org/Graphics/SVG/1.1/DTD/svg11.dtd" >
<svg xmlns="http://www.w3.org/2000/svg">
<metadata></metadata>
<defs>
<font id="geomanistitalic" horiz-adv-x="473" >
<font-face units-per-em="2048" ascent="1536" descent="-512" />
<missing-glyph horiz-adv-x="514" />
<glyph unicode="&#x2e;&#x2e;&#x2e;" horiz-adv-x="1478" d="M106 98q0 65 51.5 114.5t118.5 49.5q54 0 89.5 -36t35.5 -89q0 -65 -52.5 -114.5t-119.5 -49.5q-53 0 -88 36t-35 89zM612 98q0 65 51.5 114.5t118.5 49.5q54 0 89.5 -36t35.5 -89q0 -65 -52.5 -114.5t-119.5 -49.5q-53 0 -88 36t-35 89zM1118 98q0 65 51.5 114.5 t118.5 49.5q54 0 89.5 -36t35.5 -89q0 -65 -52.5 -114.5t-119.5 -49.5q-53 0 -88 36t-35 89z" />
<glyph unicode=" "  horiz-adv-x="514" />
<glyph unicode="&#x09;" horiz-adv-x="514" />
<glyph unicode="&#xa0;" horiz-adv-x="514" />
<glyph unicode="!" horiz-adv-x="563" d="M156 98q0 65 51.5 114.5t118.5 49.5q54 0 89.5 -36t35.5 -89q0 -65 -52.5 -114.5t-119.5 -49.5q-53 0 -88 36t-35 89zM246 385l160 1049h233l-195 -1049h-198z" />
<glyph unicode="&#x22;" horiz-adv-x="684" d="M270 987l64 447h186l-86 -447h-164zM582 987l63 447h186l-86 -447h-163z" />
<glyph unicode="#" horiz-adv-x="1339" d="M121 379l63 174h219l123 326h-217l64 174h219l143 381h191l-142 -381h263l141 381h192l-141 -381h217l-61 -174h-221l-123 -326h219l-64 -174h-221l-141 -379h-193l142 379h-263l-141 -379h-192l143 379h-219zM596 553h262l123 326h-262z" />
<glyph unicode="$" horiz-adv-x="1052" d="M106 297l207 90q20 -88 79.5 -145.5t168.5 -57.5q110 0 180 60t70 159q0 52 -29.5 94.5t-77.5 73.5t-105 60.5t-114.5 64t-105.5 75.5t-77.5 103.5t-29.5 139.5q0 172 118.5 294.5t309.5 145.5l19 115h151l-18 -115q74 -12 131.5 -45t90 -78t50 -84.5t25.5 -79.5 l-203 -84q-48 168 -211 168q-103 0 -167 -58t-64 -140q0 -49 30 -90t78 -71t106 -59.5t116.5 -64.5t106.5 -76t78 -103t30 -138q0 -179 -123.5 -311t-321.5 -160l-26 -156h-152l27 153q-71 7 -128.5 31.5t-95 57.5t-64.5 74.5t-40 79.5t-19 77z" />
<glyph unicode="%" horiz-adv-x="1599" d="M141 0l1327 1434h230l-1329 -1434h-228zM254 1085q0 152 115.5 263.5t273.5 111.5q130 0 209.5 -79.5t79.5 -200.5q0 -153 -116.5 -263t-278.5 -110q-127 0 -205 78t-78 200zM432 1108q0 -60 36.5 -98.5t96.5 -38.5q80 0 134.5 55t54.5 131q0 60 -37 98.5t-99 38.5 q-78 0 -132 -55t-54 -131zM903 252q0 152 116.5 263.5t274.5 111.5q129 0 209 -81t80 -202q0 -152 -117.5 -261.5t-277.5 -109.5q-128 0 -206.5 78.5t-78.5 200.5zM1081 274q0 -61 36 -99t97 -38q80 0 134.5 55.5t54.5 131.5q0 60 -36.5 98.5t-98.5 38.5q-77 0 -132 -55.5 t-55 -131.5z" />
<glyph unicode="&#x26;" horiz-adv-x="1312" d="M127 346q0 276 317 453q-92 123 -92 248q0 81 33.5 155.5t93.5 131.5t149.5 91.5t194.5 34.5q169 0 263 -85.5t94 -225.5q0 -146 -93 -252t-272 -203l232 -266q41 60 61.5 116t34.5 142h209q-22 -127 -61.5 -225.5t-114.5 -192.5l120 -149l-178 -146l-114 148 q-81 -67 -192.5 -107.5t-236.5 -40.5q-212 0 -330 104t-118 269zM354 385q0 -98 73 -154.5t183 -56.5q77 0 150.5 28.5t122.5 71.5l-326 379q-88 -38 -145.5 -108t-57.5 -160zM559 1057q0 -64 37 -121t104 -121q273 137 273 299q0 72 -47.5 118t-130.5 46q-98 0 -167 -64 t-69 -157z" />
<glyph unicode="'" horiz-adv-x="374" d="M270 987l64 447h186l-86 -447h-164z" />
<glyph unicode="(" horiz-adv-x="653" d="M131 94l184 1112q67 396 463 396l-33 -193q-173 0 -204 -178l-193 -1161q-14 -83 19.5 -131t124.5 -48l-33 -192q-200 0 -281 98t-47 297z" />
<glyph unicode=")" horiz-adv-x="653" d="M92 -301l33 192q175 0 203 179l194 1161q31 178 -143 178l31 193q200 0 281.5 -98.5t47.5 -297.5l-186 -1112q-34 -199 -147.5 -297t-313.5 -98z" />
<glyph unicode="*" horiz-adv-x="882" d="M250 963l215 110l-178 113l102 133l174 -111l37 226h160l-37 -228l211 113l55 -131l-213 -113l178 -110l-102 -136l-174 113l-37 -225h-160l37 225l-211 -113z" />
<glyph unicode="+" horiz-adv-x="1126" d="M170 547l31 182h389l69 416h193l-70 -416h389l-30 -182h-389l-70 -416h-193l70 416h-389z" />
<glyph unicode="," horiz-adv-x="466" d="M55 -182q45 29 89 71t61 86q-47 9 -73 44t-26 79q0 66 51 115t117 49q57 0 92 -34.5t35 -94.5q0 -114 -72 -224t-188 -190z" />
<glyph unicode="-" horiz-adv-x="724" d="M174 518l35 203h547l-35 -203h-547z" />
<glyph unicode="." horiz-adv-x="468" d="M106 98q0 65 51.5 114.5t118.5 49.5q54 0 89.5 -36t35.5 -89q0 -65 -52.5 -114.5t-119.5 -49.5q-53 0 -88 36t-35 89z" />
<glyph unicode="/" horiz-adv-x="899" d="M2 -221l913 1757h203l-913 -1757h-203z" />
<glyph unicode="0" horiz-adv-x="1157" d="M195.5 311.5q-16.5 165.5 21.5 405.5q29 185 75 319t116 231t170 145t233 48q177 0 271 -86t111.5 -251.5t-19.5 -405.5q-61 -376 -200 -560t-399 -184q-176 0 -269.5 86.5t-110 252zM416.5 437q-1.5 -65 8.5 -107t31.5 -77t59.5 -51t92 -16q47 0 86 13t68.5 35.5 t54.5 60.5t42.5 78.5t33 99t26.5 114t23 130.5q14 89 20.5 151t8 127.5t-8.5 107t-31.5 77t-59.5 51.5t-93 16q-54 0 -97.5 -16.5t-76 -51t-56.5 -77t-43 -107t-32.5 -128t-26.5 -150.5q-14 -89 -21 -152t-8.5 -128z" />
<glyph unicode="1" horiz-adv-x="667" d="M272 1337l291 97h185l-240 -1434h-225l202 1206l-174 -57z" />
<glyph unicode="2" horiz-adv-x="1077" d="M88 0l14 82q16 89 70 175.5t127 155.5t158 136.5t167 130.5t149 124t108 130t41 137q0 80 -50 129t-141 49q-178 0 -266 -194l-197 57q21 59 59 115t97.5 111t149 88.5t194.5 33.5q179 0 285 -99t106 -253q0 -92 -38.5 -179.5t-101 -157t-139.5 -134.5t-157 -122 t-148.5 -108t-120 -104.5t-67.5 -101.5h641l-33 -201h-907z" />
<glyph unicode="3" horiz-adv-x="1091" d="M127 307l205 64q13 -84 69.5 -136.5t161.5 -52.5q120 0 204.5 81.5t84.5 203.5q0 92 -56.5 143.5t-166.5 51.5h-162l31 178l403 393h-567l33 201h825l-35 -205l-397 -379q129 0 228 -98.5t99 -241.5q0 -152 -73 -275.5t-199 -192.5t-280 -69q-86 0 -155 21t-113 54 t-75.5 78t-45.5 89.5t-19 91.5z" />
<glyph unicode="4" horiz-adv-x="1175" d="M117 348l28 166l770 920h261l-150 -889h178l-33 -197h-178l-57 -348h-223l57 348h-653zM393 545h410l104 620z" />
<glyph unicode="5" horiz-adv-x="1089" d="M127 307l207 64q10 -85 68 -137t165 -52q127 0 212 94t85 226q0 99 -56.5 163t-166.5 64q-111 0 -217 -84l-184 31l157 758h770l-34 -203h-568l-76 -367q108 60 230 60q170 0 275.5 -105.5t105.5 -275.5q0 -154 -74 -285.5t-202 -208t-281 -76.5q-84 0 -153.5 21t-115 54 t-78 78t-48.5 89.5t-21 91.5z" />
<glyph unicode="6" horiz-adv-x="1134" d="M174 434q0 88 8.5 177t30.5 192.5t56.5 195t91.5 177.5t129.5 147.5t176 99t226.5 37.5q186 0 313 -98l-125 -180q-82 65 -219 65q-77 0 -141.5 -27.5t-107.5 -71t-76.5 -102.5t-51.5 -115t-28 -116q49 51 133 89t180 38q166 0 263 -105t97 -274q0 -261 -152.5 -425.5 t-397.5 -164.5q-108 0 -188 35t-127 98.5t-69 145t-22 182.5zM400.5 460.5q-3.5 -52.5 3.5 -106.5t28.5 -89t66.5 -57t111 -22q130 0 210.5 91.5t80.5 242.5q0 98 -52 157.5t-151 59.5q-80 0 -155 -43t-127 -112q-12 -69 -15.5 -121.5z" />
<glyph unicode="7" horiz-adv-x="1017" d="M238 0l688 1231h-664l33 203h913l-26 -166l-701 -1268h-243z" />
<glyph unicode="8" horiz-adv-x="1140" d="M145 344q0 86 28.5 160t74.5 124.5t91 83t91 52.5q-50 34 -89.5 101t-39.5 155q0 186 144.5 313t361.5 127q176 0 283.5 -94.5t107.5 -243.5q0 -68 -23 -130t-60.5 -105.5t-75.5 -73.5t-76 -49q67 -33 117 -109t50 -186q0 -216 -158.5 -356t-400.5 -140 q-194 0 -310 101.5t-116 269.5zM381 379q0 -86 57.5 -142.5t161.5 -56.5q133 0 215 80t82 191q0 92 -59.5 146t-159.5 54q-126 0 -211.5 -76t-85.5 -196zM528 1026q0 -76 50 -125t133 -49q106 0 181 67.5t75 165.5q0 73 -49.5 120.5t-139.5 47.5q-114 0 -182 -66.5 t-68 -160.5z" />
<glyph unicode="9" horiz-adv-x="1134" d="M168 72l125 180q83 -66 219 -66q77 0 141.5 27.5t108 71t76.5 102.5t51.5 115t28.5 116q-49 -51 -133.5 -88.5t-180.5 -37.5q-166 0 -263 104.5t-97 273.5q0 260 153 425t398 165q108 0 188 -35t126.5 -98.5t68.5 -145t22 -182.5q0 -88 -8.5 -177t-30.5 -192.5 t-56.5 -195t-91.5 -177.5t-129.5 -147.5t-176 -99t-226.5 -37.5q-185 0 -313 99zM473 913q0 -98 52 -157.5t151 -59.5q80 0 155 43.5t127 112.5q12 69 15.5 121t-3.5 106.5t-28.5 89t-66.5 56.5t-111 22q-130 0 -210.5 -91.5t-80.5 -242.5z" />
<glyph unicode=":" horiz-adv-x="466" d="M106 98q0 65 51.5 114.5t118.5 49.5q54 0 89.5 -36t35.5 -89q0 -65 -52.5 -114.5t-119.5 -49.5q-53 0 -88 36t-35 89zM233 858q0 67 53 116.5t120 49.5q53 0 87.5 -36t34.5 -89q0 -67 -52.5 -116.5t-119.5 -49.5q-53 0 -88 36t-35 89z" />
<glyph unicode=";" horiz-adv-x="466" d="M55 -182q45 29 89 71t61 86q-47 9 -73 44t-26 79q0 66 51 115t117 49q57 0 92 -34.5t35 -94.5q0 -114 -72 -224t-188 -190zM233 858q0 67 53 116.5t120 49.5q53 0 87.5 -36t34.5 -89q0 -67 -52.5 -116.5t-119.5 -49.5q-53 0 -88 36t-35 89z" />
<glyph unicode="&#x3c;" horiz-adv-x="1026" d="M182 555l29 168l907 383l-33 -199l-669 -272l579 -264l-32 -199z" />
<glyph unicode="=" horiz-adv-x="1126" d="M137 356l31 183h971l-31 -183h-971zM199 721l30 180h971l-31 -180h-970z" />
<glyph unicode="&#x3e;" horiz-adv-x="1026" d="M119 172l33 201l671 270l-581 272l32 191l783 -383l-29 -168z" />
<glyph unicode="?" horiz-adv-x="972" d="M262 1186q19 37 44 71.5t65 72.5t87.5 66t113.5 46t139 18q170 0 273 -96t103 -236q0 -76 -23.5 -141t-61 -112t-84 -88.5t-94.5 -78t-89 -71.5t-70.5 -77.5t-37.5 -88.5l-15 -86h-217l17 98q10 59 40 112t69.5 92t85.5 76t90 72.5t79.5 72.5t57.5 84t22 100 q0 72 -49.5 120t-132.5 48q-148 0 -236 -154zM313 98q0 65 52.5 114.5t119.5 49.5q53 0 88 -36t35 -89q0 -65 -52.5 -114.5t-119.5 -49.5q-53 0 -88 36t-35 89z" />
<glyph unicode="@" horiz-adv-x="1839" d="M156 412q0 202 79 383t214 309.5t320.5 204t391.5 75.5q162 0 297 -50t225 -137t139.5 -206t49.5 -256q0 -275 -122 -441.5t-320 -166.5q-88 0 -143.5 41t-67.5 106q-13 -19 -37 -41.5t-61 -47.5t-90 -41.5t-111 -16.5q-147 0 -237.5 93.5t-90.5 244.5q0 131 63.5 240 t168.5 169t225 60q62 0 113.5 -21t73 -40.5t34.5 -38.5l14 88h174l-84 -504q-22 -137 90 -137q99 0 166.5 122t67.5 316q0 236 -148 374t-415 138q-167 0 -316 -64.5t-254.5 -173t-167 -255.5t-61.5 -308q0 -256 154 -413.5t417 -157.5q205 0 393 98l66 -125 q-90 -57 -217 -93t-268 -36q-213 0 -378.5 90t-256 251.5t-90.5 367.5zM784 487q0 -89 49.5 -143.5t131.5 -54.5q107 0 185.5 78.5t78.5 207.5q0 87 -49.5 141t-135.5 54q-107 0 -183.5 -79.5t-76.5 -203.5z" />
<glyph unicode="A" horiz-adv-x="1323" d="M20 0l762 1434h236l282 -1434h-225l-78 418h-524l-219 -418h-234zM569 608h398l-103 580z" />
<glyph unicode="B" horiz-adv-x="1142" d="M150 0l239 1434h422q185 0 290 -87.5t105 -232.5q0 -118 -64.5 -213t-172.5 -149q85 -38 131.5 -111t46.5 -168q0 -136 -72.5 -245.5t-192.5 -168.5t-261 -59h-471zM410 197h206q127 0 210 69t83 195q0 91 -59.5 138.5t-157.5 47.5h-207zM516 834h203q104 0 177 67 t73 170q0 76 -49 120t-136 44h-200z" />
<glyph unicode="C" horiz-adv-x="1325" d="M180 602q0 176 69.5 335.5t186 273.5t276.5 181.5t335 67.5q137 0 241.5 -41.5t173.5 -97.5l-92 -201q-54 48 -144 87.5t-204 39.5q-124 0 -236 -49t-192.5 -132t-128 -196.5t-47.5 -238.5q0 -194 115 -319.5t313 -125.5q192 0 401 136l41 -199q-84 -58 -207 -104 t-276 -46q-188 0 -331.5 82.5t-218.5 225t-75 321.5z" />
<glyph unicode="D" horiz-adv-x="1323" d="M150 0l239 1434h338q314 0 485.5 -155.5t171.5 -434.5q0 -262 -111 -453.5t-313 -291t-473 -99.5h-337zM410 199h133q272 0 438 163t166 451q0 199 -114 309.5t-316 110.5h-133z" />
<glyph unicode="E" horiz-adv-x="978" d="M150 0l239 1434h709l-35 -205h-481l-66 -400h418l-35 -202h-418l-69 -422h501l-34 -205h-729z" />
<glyph unicode="F" horiz-adv-x="960" d="M150 0l239 1434h707l-35 -205h-479l-70 -416h420l-33 -203h-420l-102 -610h-227z" />
<glyph unicode="G" horiz-adv-x="1519" d="M180 600q0 139 43.5 270t124 237t187 185.5t239 123.5t273.5 44q85 0 162 -15.5t130 -39t99 -55t73 -58.5t48 -55l-158 -150q-21 25 -49.5 49t-74.5 51.5t-112.5 44.5t-142.5 17q-169 0 -307 -83t-215.5 -225t-77.5 -312q0 -200 116 -322.5t306 -122.5q144 0 249 42.5 t154 86.5l41 242h-295l33 195h510l-92 -547q-270 -230 -647 -230q-273 0 -445 173.5t-172 453.5z" />
<glyph unicode="H" horiz-adv-x="1433" d="M150 0l239 1434h227l-100 -605h680l100 605h228l-240 -1434h-227l104 623h-680l-104 -623h-227z" />
<glyph unicode="I" horiz-adv-x="528" d="M150 0l239 1434h227l-239 -1434h-227z" />
<glyph unicode="J" horiz-adv-x="737" d="M45 10l61 201q64 -16 123 -16q79 0 128.5 46t64.5 136l176 1057h227l-182 -1094q-30 -176 -142.5 -264t-279.5 -88q-99 0 -176 22z" />
<glyph unicode="K" horiz-adv-x="1208" d="M150 0l239 1434h227l-110 -662l624 662h271l-670 -693l461 -741h-264l-432 709l-119 -709h-227z" />
<glyph unicode="L" horiz-adv-x="925" d="M150 0l239 1434h227l-204 -1229h501l-34 -205h-729z" />
<glyph unicode="M" horiz-adv-x="1806" d="M147 0l240 1434h293l289 -1047l637 1047h292l-239 -1434h-219l186 1110l-594 -983h-217l-262 983l-186 -1110h-220z" />
<glyph unicode="N" horiz-adv-x="1452" d="M147 0l240 1434h229l523 -1078l180 1078h223l-239 -1434h-226l-524 1071l-180 -1071h-226z" />
<glyph unicode="O" horiz-adv-x="1617" d="M178 604q0 174 70.5 333t188.5 273t279.5 182t336.5 68q140 0 257.5 -48.5t197.5 -133.5t124.5 -201t44.5 -250q0 -232 -118 -429t-319 -311t-437 -114q-187 0 -330 82t-219 225t-76 324zM418 631q0 -195 116.5 -320t305.5 -125q95 0 185.5 30t165 86.5t131 131t87.5 169 t31 196.5q0 196 -116.5 322t-305.5 126q-160 0 -298 -81.5t-220 -224t-82 -310.5z" />
<glyph unicode="P" horiz-adv-x="1075" d="M150 0l239 1434h408q180 0 290.5 -101.5t110.5 -261.5q0 -141 -73.5 -257.5t-196.5 -181.5t-266 -65h-191l-94 -567h-227zM506 766h162q127 0 211 77t84 197q0 89 -58.5 142t-156.5 53h-164z" />
<glyph unicode="Q" horiz-adv-x="1617" d="M178 604q0 174 70.5 333t188.5 273t279.5 182t336.5 68q140 0 257.5 -48.5t197.5 -133.5t124.5 -201t44.5 -250q0 -165 -62 -314.5t-173 -266.5l114 -127l-165 -150l-123 135q-211 -131 -465 -131q-187 0 -330 82t-219 225t-76 324zM418 631q0 -195 116.5 -320 t305.5 -125q161 0 284 74l-127 146l168 143l131 -148q144 170 144 398q0 196 -116.5 322t-305.5 126q-160 0 -298 -81.5t-220 -224t-82 -310.5z" />
<glyph unicode="R" horiz-adv-x="1159" d="M150 0l239 1434h385q199 0 307.5 -99.5t108.5 -259.5q0 -144 -83 -262.5t-218 -171.5l239 -641h-251l-203 592h-199l-98 -592h-227zM508 786h154q125 0 207.5 71t82.5 194q0 86 -54.5 135t-160.5 49h-153z" />
<glyph unicode="S" horiz-adv-x="1052" d="M106 297l205 90q20 -88 80 -145.5t170 -57.5t180 60t70 159q0 49 -23 90t-61 69t-86.5 57.5t-99 54t-99 59t-86.5 72.5t-61 94.5t-23 124.5q0 190 138 313t358 123q76 0 140 -21t105 -53t71 -73t44.5 -76.5t20.5 -69.5l-197 -84q-9 30 -23.5 56.5t-39 53t-64.5 42.5 t-90 16q-103 0 -167 -58t-64 -140q0 -51 30 -94t78 -75.5t106 -64.5t116.5 -68.5t106.5 -79.5t78 -106t30 -139q0 -201 -136.5 -327t-371.5 -126q-84 0 -155 21.5t-118.5 55.5t-82.5 78.5t-53.5 86t-25.5 82.5z" />
<glyph unicode="T" horiz-adv-x="1046" d="M246 1229l35 205h948l-35 -205h-360l-205 -1229h-228l205 1229h-360z" />
<glyph unicode="U" horiz-adv-x="1394" d="M231 526l152 908h227l-151 -906q-8 -45 -7 -85q0 -101 50 -167q70 -92 227 -92q156 0 257 93t128 253l152 904h225l-152 -906q-45 -277 -206.5 -416t-425.5 -139q-265 1 -391 151q-95 113 -95 283q0 56 10 119z" />
<glyph unicode="V" horiz-adv-x="1349" d="M256 1434h246l211 -1166l606 1166h254l-776 -1434h-246z" />
<glyph unicode="W" horiz-adv-x="1966" d="M260 1434h244l100 -1151l510 1151h215l127 -1151l486 1151h241l-635 -1434h-256l-127 1094l-491 -1094h-256z" />
<glyph unicode="X" horiz-adv-x="1271" d="M10 0l608 754l-333 680h260l235 -494l391 494h289l-569 -703l356 -731h-241l-273 549l-444 -549h-279z" />
<glyph unicode="Y" horiz-adv-x="1142" d="M256 1434h254l203 -560l395 560h258l-571 -770l-111 -664h-225l110 664z" />
<glyph unicode="Z" horiz-adv-x="1226" d="M70 0l26 156l955 1075h-752l33 203h1050l-26 -156l-955 -1075h783l-35 -203h-1079z" />
<glyph unicode="[" horiz-adv-x="653" d="M63 -301l318 1903h395l-31 -193h-174l-254 -1518h175l-33 -192h-396z" />
<glyph unicode="\" horiz-adv-x="899" d="M299 1536h199l323 -1757h-198z" />
<glyph unicode="]" horiz-adv-x="647" d="M92 -301l33 192h174l254 1518h-174l31 193h395l-318 -1903h-395z" />
<glyph unicode="^" horiz-adv-x="1105" d="M195 651l505 783h185l243 -783h-208l-160 566l-350 -566h-215z" />
<glyph unicode="_" horiz-adv-x="1249" d="M20 -238l31 179h1131l-31 -179h-1131z" />
<glyph unicode="`" horiz-adv-x="995" d="M555 1485h238l94 -293h-187z" />
<glyph unicode="a" horiz-adv-x="1060" d="M109 281q0 173 137 287t342 114q85 0 148 -23t95 -55l17 101q3 21 3 39q0 64 -40 105q-52 52 -158 52q-143 0 -307 -84l-67 156q215 123 423 123q93 0 163 -20t113 -56t68 -86q24 -50 26 -112q0 -12 1 -25q0 -51 -8 -107l-115 -690h-194l-4 80q-116 -107 -293 -107 q-154 0 -252 85t-98 223zM336 311q0 -70 54 -114.5t145 -44.5q109 0 184.5 59t75.5 151q0 72 -54 115t-145 43q-112 0 -186 -59.5t-74 -149.5z" />
<glyph unicode="b" horiz-adv-x="1261" d="M125 0l248 1481h223l-92 -555q16 21 46 47t77 55t114 48.5t138 19.5q193 0 308.5 -131.5t115.5 -331.5q0 -140 -47.5 -263t-129 -210t-194.5 -137t-240 -50q-72 0 -134.5 20t-103 50.5t-62.5 53t-34 42.5l-22 -139h-211zM422 461q0 -128 70 -209.5t194 -81.5 q159 0 273 120.5t114 305.5q0 135 -72 218t-192 83q-157 0 -272 -126t-115 -310z" />
<glyph unicode="c" horiz-adv-x="1026" d="M139 449q0 177 89.5 326.5t240 235t324.5 85.5q112 0 202 -40.5t140 -90.5l-101 -189q-102 117 -262 117q-170 0 -286.5 -121.5t-116.5 -292.5q0 -134 80 -220.5t210 -86.5q149 0 297 119l50 -185q-36 -26 -63 -42.5t-77.5 -41t-112.5 -37t-132 -12.5q-216 0 -349 134 t-133 342z" />
<glyph unicode="d" horiz-adv-x="1261" d="M139 438q0 183 79 334t219 237.5t311 86.5q70 0 130.5 -19.5t98.5 -48.5t60.5 -55t31.5 -47l92 555h223l-247 -1481h-211l24 139q-21 -22 -46 -43t-73 -52.5t-114.5 -51t-138.5 -19.5q-199 0 -319 129t-120 336zM367 465q0 -133 73 -214t193 -81q164 0 274.5 127.5 t110.5 302.5q0 139 -72.5 218t-191.5 79q-161 0 -274 -124.5t-113 -307.5z" />
<glyph unicode="e" horiz-adv-x="1150" d="M141 440q0 140 50 263t133.5 208.5t196 135t235.5 49.5q216 0 328 -121.5t112 -331.5q0 -96 -22 -162h-805q-4 -29 -4 -55q0 -103 62 -172q78 -86 222 -86q104 0 183.5 45t130.5 104l137 -110q-28 -38 -70 -74.5t-102.5 -74.5t-143 -61.5t-172.5 -23.5 q-218 0 -344.5 129.5t-126.5 337.5zM403 635h572q3 23 3 44q0 97 -56 157q-68 73 -187 73q-117 0 -208.5 -74.5t-123.5 -199.5z" />
<glyph unicode="f" horiz-adv-x="634" d="M166 0l147 885h-116l30 184h117l8 47q17 98 59 170.5t101 113.5t125 60t141 19l78 -4l-31 -191q-28 4 -53 4q-164 0 -197 -176l-8 -43h207l-31 -184h-206l-148 -885h-223z" />
<glyph unicode="g" horiz-adv-x="1251" d="M137 434q0 139 49 262t132 210.5t198 138.5t242 51q70 0 129.5 -19t97 -48.5t59 -54.5t33.5 -48l25 143h211l-156 -928q-21 -122 -63.5 -215t-100 -153t-134 -97.5t-158 -53t-179.5 -15.5q-103 0 -208 29.5t-171 72.5l101 172q42 -28 121.5 -55t177.5 -27q70 0 130.5 14 t113 44t88.5 84t49 127l12 71q-13 -15 -30 -31t-53 -42t-75 -45t-96 -33.5t-117 -14.5q-198 0 -313 127.5t-115 333.5zM365 469q0 -135 73 -216t193 -81q164 0 274.5 123.5t110.5 304.5q0 135 -73 216t-193 81q-160 0 -272.5 -122t-112.5 -306z" />
<glyph unicode="h" horiz-adv-x="1136" d="M125 0l248 1481h223l-92 -551q50 69 138 117.5t189 48.5q80 0 140.5 -24.5t94.5 -67.5t54 -101q19 -57 19 -120q0 -67 -11 -140l-108 -643h-221l110 662q5 29 5 54q0 70 -36 116q-50 62 -145 63q-105 0 -181 -70t-95 -180l-109 -645h-223z" />
<glyph unicode="i" d="M125 0l178 1069h223l-178 -1069h-223zM317 1313q0 65 49.5 112.5t114.5 47.5q52 0 85.5 -34t33.5 -85q0 -65 -49.5 -112.5t-114.5 -47.5q-52 0 -85.5 34t-33.5 85z" />
<glyph unicode="j" d="M-152 -387l31 188q29 -2 47 -2q166 0 195 185l182 1085h223l-182 -1094q-62 -366 -434 -366zM317 1313q0 65 49.5 112.5t114.5 47.5q52 0 85.5 -34t33.5 -85q0 -65 -50.5 -112.5t-115.5 -47.5q-52 0 -84.5 33.5t-32.5 85.5z" />
<glyph unicode="k" horiz-adv-x="1034" d="M125 0l248 1481h223l-145 -869l458 457h267l-500 -487l350 -582h-248l-336 561l-94 -561h-223z" />
<glyph unicode="l" d="M125 0l248 1481h223l-248 -1481h-223z" />
<glyph unicode="m" horiz-adv-x="1751" d="M125 0l178 1069h219l-22 -139q44 68 129.5 117t187.5 49q110 0 181 -47t96 -131q62 85 156 131.5t204 46.5q176 0 252 -109q54 -78 54 -192q0 -45 -9 -97l-117 -698h-221l107 641q8 43 8 78q0 68 -28 111q-42 65 -142 65q-96 0 -168 -68t-92 -188l-107 -639h-223l111 662 q6 32 6 60q0 66 -32 110q-45 62 -140 63q-93 0 -165.5 -69.5t-90.5 -182.5l-109 -643h-223z" />
<glyph unicode="n" horiz-adv-x="1134" d="M125 0l178 1069h219l-22 -139q50 69 139 117.5t190 48.5q80 0 140.5 -24.5t94.5 -67.5t54 -101q19 -57 19 -120q0 -67 -11 -140l-108 -643h-221l110 662q5 29 5 54q0 70 -36 116q-50 62 -145 63q-105 0 -180 -70t-94 -180l-109 -645h-223z" />
<glyph unicode="o" horiz-adv-x="1251" d="M139 449q0 134 54 254.5t144.5 206t213 136t254.5 50.5q217 0 351 -135t134 -343q0 -177 -90.5 -326t-243 -234t-331.5 -85q-218 0 -352 133.5t-134 342.5zM367 473q0 -133 78.5 -217t207.5 -84q82 0 158 32.5t132 88.5t89 134t33 165q0 134 -80 219.5t-211 85.5 q-169 0 -288 -123.5t-119 -300.5z" />
<glyph unicode="p" horiz-adv-x="1263" d="M61 -383l244 1452h211l-24 -141q19 22 45.5 44t74 53.5t114 51t138.5 19.5q199 0 319 -130t120 -337q0 -183 -80 -333.5t-221 -236.5t-312 -86q-71 0 -131 19t-97 48.5t-58.5 54.5t-30.5 46l-88 -524h-224zM424 467q0 -137 72.5 -216t191.5 -79q161 0 273 123.5 t112 306.5q0 134 -72 214.5t-192 80.5q-164 0 -274.5 -127.5t-110.5 -302.5z" />
<glyph unicode="q" horiz-adv-x="1263" d="M141 436q0 139 48 262t130.5 210t197 137.5t243.5 50.5q70 0 131 -20t99 -49.5t60.5 -54.5t30.5 -44l25 141h211l-244 -1452h-221l88 524q-18 -21 -47.5 -46t-76.5 -54.5t-113.5 -48.5t-137.5 -19q-197 0 -310.5 127.5t-113.5 335.5zM369 471q0 -133 71.5 -216t190.5 -83 q103 0 190.5 51t142 150t54.5 227q0 129 -69 213t-193 84q-160 0 -273.5 -120.5t-113.5 -305.5z" />
<glyph unicode="r" horiz-adv-x="690" d="M125 0l178 1069h219l-26 -168q45 83 136.5 139t201.5 56l-39 -226q-85 0 -150 -30.5t-108 -88t-69.5 -128.5t-41.5 -162l-78 -461h-223z" />
<glyph unicode="s" horiz-adv-x="872" d="M80 186l151 111q34 -59 94 -99t146 -40q80 0 133 40t53 107q0 37 -24.5 66t-63.5 50t-86 41t-94 45.5t-86 56.5t-63.5 80.5t-24.5 111.5q0 157 119.5 248.5t296.5 91.5q64 0 118.5 -19.5t91 -51.5t59.5 -63t38 -65l-164 -98q-54 114 -180 114q-69 0 -116.5 -36t-47.5 -95 q0 -37 24.5 -65.5t64 -48t87.5 -38.5t95.5 -43t87 -54.5t64 -79.5t24.5 -113q0 -166 -120.5 -266.5t-305.5 -100.5q-143 0 -234 62t-137 151z" />
<glyph unicode="t" horiz-adv-x="643" d="M172 885l31 184h119l38 223h222l-39 -223h217l-31 -184h-215l-84 -498q-8 -43 -8 -76q0 -57 24 -85q36 -42 132 -42l43 2l-33 -192q-39 -8 -109 -8q-165 0 -233 100q-47 69 -47 181q0 51 10 110l82 508h-119z" />
<glyph unicode="u" horiz-adv-x="1126" d="M177 284v12q0 60 9 124l111 649h221l-110 -661q-5 -29 -5 -55q0 -70 36 -116q49 -63 143 -63q105 0 181 69.5t95 180.5l109 645h223l-180 -1069h-219l24 139q-50 -71 -133 -118.5t-184 -47.5q-80 0 -142 24t-98.5 66t-58 99t-22.5 122z" />
<glyph unicode="v" horiz-adv-x="1064" d="M188 1069h232l147 -827l424 827h240l-572 -1069h-251z" />
<glyph unicode="w" horiz-adv-x="1683" d="M193 1069h239l96 -819q-1 6 379 819h219l107 -819l369 819h245l-518 -1069h-248l-112 766l-369 -766h-246z" />
<glyph unicode="x" horiz-adv-x="1060" d="M16 0l480 549l-279 520h240l180 -356l295 356h268l-450 -520l294 -549h-231l-205 383l-327 -383h-265z" />
<glyph unicode="y" horiz-adv-x="1073" d="M190 1069h234l160 -780l413 780h240l-799 -1436h-217l215 385z" />
<glyph unicode="z" horiz-adv-x="952" d="M61 0l25 145l668 736h-529l31 188h801l-25 -147l-665 -736h551l-31 -186h-826z" />
<glyph unicode="{" horiz-adv-x="753" d="M158 547l35 207q77 0 121.5 51t66.5 182l37 219q34 199 147.5 297.5t313.5 98.5l-33 -193q-172 0 -203 -178l-53 -313q-12 -67 -38 -120.5t-58 -83t-56 -44.5t-43 -21q18 -5 37 -19t42.5 -46.5t30 -80.5t-2.5 -120l-53 -313q-31 -179 143 -179l-31 -192 q-201 0 -282.5 98.5t-47.5 296.5l37 219q22 130 -7 182t-103 52z" />
<glyph unicode="|" horiz-adv-x="546" d="M92 -453l352 2100h211l-352 -2100h-211z" />
<glyph unicode="}" horiz-adv-x="751" d="M92 -301l33 192q172 0 203 179l53 313q12 66 38 119t57.5 82.5t56 44.5t42.5 20q-13 4 -27.5 14t-34 30.5t-30.5 50t-17.5 73.5t5.5 101l51 313q31 178 -143 178l31 193q200 0 281.5 -98.5t47.5 -297.5l-37 -219q-22 -131 5.5 -182t105.5 -51l-35 -207q-74 0 -120 -52 t-68 -182l-37 -219q-34 -199 -147.5 -297t-313.5 -98z" />
<glyph unicode="~" horiz-adv-x="1107" d="M156 463q24 142 116 232.5t222 90.5q52 0 104.5 -19t88.5 -42t79 -42t78 -19q55 0 88 34t43 88h182q-24 -130 -112.5 -225.5t-217.5 -95.5q-60 0 -111 19t-81.5 41.5t-74 41.5t-89.5 19q-55 0 -90 -35t-45 -88h-180z" />
<glyph unicode="&#xa1;" horiz-adv-x="563" d="M113 -313l192 1048h199l-158 -1048h-233zM301 981q0 67 52.5 116.5t119.5 49.5q53 0 88 -36t35 -89q0 -67 -51.5 -116.5t-118.5 -49.5q-54 0 -89.5 36t-35.5 89z" />
<glyph unicode="&#xa2;" horiz-adv-x="1034" d="M168 604q0 125 46.5 239t126 198t187.5 139t228 67l32 187h152l-33 -191q84 -14 150.5 -49t105.5 -74l-100 -188q-102 117 -262 117q-170 0 -287 -122t-117 -292q0 -134 80.5 -220.5t210.5 -86.5q150 0 297 118l49 -184q-42 -31 -74 -51t-99 -45.5t-138 -32.5l-23 -133 h-151l22 133q-185 25 -294 153.5t-109 317.5z" />
<glyph unicode="&#xa3;" horiz-adv-x="1155" d="M76 0l33 201h129l71 422h-112l28 176h115l39 237q31 189 166 306.5t336 117.5q89 0 158.5 -27.5t110 -71.5t62 -89.5t27.5 -91.5l-203 -80q-11 59 -56.5 104t-129.5 45q-101 0 -165.5 -61t-82.5 -164l-37 -225h330l-29 -176h-331l-72 -422h639l-33 -201h-993z" />
<glyph unicode="&#xa5;" horiz-adv-x="1167" d="M211 344l27 154h303l28 166h-305l27 153h215l-250 617h256l203 -560l395 560h256l-459 -617h244l-27 -153h-329l-29 -166h332l-27 -154h-330l-57 -344h-225l57 344h-305z" />
<glyph unicode="&#xa7;" horiz-adv-x="1011" d="M49 -166l199 80q18 -64 70 -110t145 -46q96 0 152.5 49.5t56.5 131.5q0 52 -31 93t-90 81l-246 163q-145 96 -145 254q0 110 64 193.5t169 128.5q-110 103 -110 242q0 176 129 291.5t336 115.5q77 0 141.5 -20t106 -50t72 -69.5t45.5 -74.5t22 -68l-197 -78 q-51 155 -217 155q-98 0 -153.5 -49t-55.5 -133q0 -52 31 -92.5t90 -79.5l209 -137q182 -119 182 -285q0 -109 -63.5 -191.5t-169.5 -127.5q110 -100 110 -240q0 -177 -130 -292t-337 -115q-77 0 -141.5 20t-105.5 49.5t-71.5 69t-45 73.5t-21.5 68zM373 559q0 -75 57 -110 l201 -127q76 3 128 53.5t52 118.5q0 79 -94 139l-162 98q-77 -1 -129.5 -52t-52.5 -120z" />
<glyph unicode="&#xa8;" horiz-adv-x="995" d="M418 1319q0 56 42.5 97.5t100.5 41.5q45 0 74 -30t29 -74q0 -56 -43 -96.5t-101 -40.5q-45 0 -73.5 29.5t-28.5 72.5zM776 1319q0 56 42.5 97.5t101.5 41.5q45 0 73.5 -30t28.5 -74q0 -56 -42.5 -96.5t-100.5 -40.5q-46 0 -74.5 29t-28.5 73z" />
<glyph unicode="&#xa9;" horiz-adv-x="1632" d="M188 610q0 173 67 329.5t181.5 271t275.5 182t341 67.5q140 0 258.5 -49t199 -134.5t125.5 -202.5t45 -251q0 -173 -66 -330t-179.5 -271.5t-275.5 -182.5t-345 -68q-139 0 -257.5 50t-199 136t-125.5 203t-45 250zM350 618q0 -220 133.5 -361.5t354.5 -141.5 q189 0 346 93t246.5 253t89.5 352q0 219 -134.5 360.5t-357.5 141.5q-186 0 -342 -93t-246 -253t-90 -351zM559 649q0 191 125.5 325t321.5 134q58 0 106.5 -15t81.5 -39.5t53 -48t35 -49.5l-127 -102q-66 94 -174 94q-112 0 -178 -80.5t-66 -199.5q0 -83 43 -135t123 -52 q105 0 197 92l106 -100q-54 -60 -137 -107t-192 -47q-147 0 -232.5 92.5t-85.5 237.5z" />
<glyph unicode="&#xaa;" horiz-adv-x="839" d="M223 846q0 133 102.5 219t258.5 86q61 0 108 -15.5t72 -37.5l10 65q10 67 -27 105.5t-114 38.5q-108 0 -230 -64l-53 123q157 94 326 94q162 0 227.5 -84t40.5 -225l-86 -518h-149l-7 55q-84 -74 -215 -74q-117 0 -190.5 63.5t-73.5 168.5zM399 870q0 -52 40 -84t108 -32 q80 0 135 42.5t55 110.5q0 52 -39.5 83.5t-105.5 31.5q-83 0 -138 -43.5t-55 -108.5z" />
<glyph unicode="&#xab;" horiz-adv-x="940" d="M164 600l309 381h211l-315 -383l182 -377h-195zM518 600l309 381h211l-315 -383l182 -377h-194z" />
<glyph unicode="&#xad;" horiz-adv-x="724" d="M174 518l35 203h547l-35 -203h-547z" />
<glyph unicode="&#xae;" horiz-adv-x="925" d="M211 1034q0 201 141.5 343.5t354.5 142.5q171 0 270.5 -100t99.5 -255q0 -130 -61 -240t-176.5 -177.5t-261.5 -67.5q-168 0 -267.5 100t-99.5 254zM317 1044q0 -119 72.5 -194.5t200.5 -75.5q170 0 276.5 109t106.5 272q0 121 -73.5 194.5t-205.5 73.5q-165 0 -271 -109 t-106 -270zM457 879l73 442h168q65 0 99 -30.5t34 -84.5t-26 -91t-64 -52l52 -184h-113l-39 161h-49l-27 -161h-108zM606 1130h53q25 0 41.5 16.5t16.5 41.5q0 41 -41 41h-53z" />
<glyph unicode="&#xaf;" horiz-adv-x="917" d="M408 1262l28 168h522l-28 -168h-522z" />
<glyph unicode="&#xb0;" horiz-adv-x="751" d="M244 1102q0 145 111 251.5t263 106.5q122 0 196.5 -75.5t74.5 -190.5q0 -147 -109.5 -251.5t-265.5 -104.5q-123 0 -196.5 74.5t-73.5 189.5zM414 1122q0 -57 33.5 -93t93.5 -36q78 0 129 53t51 128q0 57 -33.5 94t-93.5 37q-77 0 -128.5 -54t-51.5 -129z" />
<glyph unicode="&#xb2;" horiz-adv-x="718" d="M190 621l15 90q11 70 63 132t117 106.5t128.5 85t107 85t43.5 88.5q0 37 -27 61.5t-72 24.5q-28 0 -50 -8.5t-39.5 -26.5t-26 -29.5t-21.5 -33.5l-139 51q17 36 41.5 68t60.5 64.5t87.5 51.5t111.5 19q108 0 179 -61t71 -154q0 -62 -29.5 -117t-74 -93t-97.5 -74.5 t-100 -63.5t-83 -59t-44 -62h364l-24 -145h-562z" />
<glyph unicode="&#xb3;" horiz-adv-x="714" d="M211 807l141 53q30 -102 125 -102q62 0 103 36.5t41 100.5q0 48 -32 74t-93 26h-86l20 119l191 174h-297l24 146h512l-18 -119l-234 -207q82 -5 135.5 -59t53.5 -142q0 -141 -94.5 -222t-235.5 -81q-60 0 -108.5 19t-78 50t-46.5 65t-23 69z" />
<glyph unicode="&#xb4;" horiz-adv-x="995" d="M506 1192l190 293h238l-240 -293h-188z" />
<glyph unicode="&#xb6;" horiz-adv-x="1075" d="M250 997q0 118 63 219.5t167 159.5t222 58h183l-256 -1526h-180l126 760q-143 1 -234 95t-91 234zM756 -92l256 1526h180l-256 -1526h-180z" />
<glyph unicode="&#xb7;" horiz-adv-x="487" d="M205 623q0 67 50.5 116t117.5 49q54 0 89.5 -35.5t35.5 -88.5q0 -67 -52.5 -116.5t-119.5 -49.5q-53 0 -87 36t-34 89z" />
<glyph unicode="&#xb8;" horiz-adv-x="917" d="M203 -455l47 125q32 -8 63 -8q48 0 81.5 21t33.5 65q0 31 -28 47.5t-72 16.5l-35 -2l65 213h125l-34 -111q64 -12 98.5 -52t34.5 -100q0 -115 -76.5 -172t-194.5 -57q-59 0 -108 14z" />
<glyph unicode="&#xb9;" horiz-adv-x="552" d="M313 1372l185 62h141l-135 -813h-172l106 643l-102 -37z" />
<glyph unicode="&#xba;" horiz-adv-x="970" d="M223 971q0 135 67.5 248t182.5 177t250 64q162 0 265.5 -101.5t103.5 -258.5q0 -133 -68 -245.5t-183 -176.5t-249 -64q-162 0 -265.5 100.5t-103.5 256.5zM399 991q0 -98 58.5 -160.5t154.5 -62.5q125 0 214 90.5t89 220.5q0 99 -58.5 162.5t-154.5 63.5 q-126 0 -214.5 -91.5t-88.5 -222.5z" />
<glyph unicode="&#xbb;" horiz-adv-x="940" d="M102 221l316 383l-182 377h194l193 -379l-310 -381h-211zM457 221l315 383l-182 377h194l193 -379l-309 -381h-211z" />
<glyph unicode="&#xbc;" horiz-adv-x="1658" d="M315 -84l1051 1602h201l-1051 -1602h-201zM352 1372l185 62h141l-135 -813h-172l106 643l-102 -37zM965 156l20 129l461 528h182l-84 -508h101l-25 -149h-100l-27 -156h-168l27 156h-387zM1159 305h217l54 316z" />
<glyph unicode="&#xbd;" horiz-adv-x="1681" d="M281 -84l1050 1602h201l-1051 -1602h-200zM352 1372l185 62h141l-135 -813h-172l106 643l-102 -37zM1018 0l14 90q11 70 63 132t117 106.5t128.5 85.5t107 85.5t43.5 88.5q0 38 -26.5 62t-71.5 24q-28 0 -50 -8.5t-39.5 -26.5t-26.5 -30t-22 -34l-139 52q17 36 41.5 68 t60.5 64t87.5 51t111.5 19q108 0 179 -61t71 -154q0 -62 -29.5 -117t-74 -93t-97.5 -74.5t-100 -63.5t-83 -59t-44 -62h365l-25 -145h-561z" />
<glyph unicode="&#xbe;" horiz-adv-x="1761" d="M231 807l142 53q30 -102 125 -102q62 0 102.5 36.5t40.5 100.5q0 48 -32 74t-93 26h-86l21 119l190 174h-297l25 146h512l-19 -119l-233 -207q82 -5 135 -59t53 -142q0 -141 -94.5 -222t-235.5 -81q-60 0 -108.5 19t-78 50t-46.5 65t-23 69zM422 -84l1051 1602h200 l-1050 -1602h-201zM1044 156l21 129l461 528h182l-84 -508h100l-24 -149h-101l-26 -156h-168l27 156h-388zM1239 305h217l53 316z" />
<glyph unicode="&#xbf;" horiz-adv-x="972" d="M72 -8q0 76 23.5 141t61 112t84 88.5t94.5 78t89 71.5t70.5 77.5t37.5 88.5l15 86h217l-16 -98q-10 -59 -40 -111.5t-70 -92t-86 -76.5t-89.5 -72.5t-79.5 -72t-58 -83.5t-22 -100q0 -72 49.5 -120t132.5 -48q148 0 236 153l176 -80q-24 -48 -59 -91t-89 -87t-131.5 -70 t-168.5 -26q-170 0 -273.5 96t-103.5 236zM551 983q0 65 52.5 114.5t119.5 49.5q53 0 88 -36t35 -89q0 -65 -52.5 -114.5t-119.5 -49.5q-53 0 -88 36t-35 89z" />
<glyph unicode="&#xc0;" horiz-adv-x="1323" d="M20 0l762 1434h236l282 -1434h-225l-78 418h-524l-219 -418h-234zM569 608h398l-103 580zM682 1810h238l94 -292h-187z" />
<glyph unicode="&#xc1;" horiz-adv-x="1323" d="M20 0l762 1434h236l282 -1434h-225l-78 418h-524l-219 -418h-234zM569 608h398l-103 580zM805 1518l190 292h238l-240 -292h-188z" />
<glyph unicode="&#xc2;" horiz-adv-x="1323" d="M20 0l762 1434h236l282 -1434h-225l-78 418h-524l-219 -418h-234zM569 608h398l-103 580zM608 1524l242 276h229l146 -276h-187l-90 157l-137 -157h-203z" />
<glyph unicode="&#xc3;" horiz-adv-x="1323" d="M20 0l762 1434h236l282 -1434h-225l-78 418h-524l-219 -418h-234zM569 608h398l-103 580zM575 1538q19 110 88.5 178t161.5 68q46 0 92.5 -21t85 -42t66.5 -21q32 0 56 23t30 61h152q-19 -112 -86 -179t-160 -67q-46 0 -92 21t-85.5 42t-70.5 21q-32 0 -55.5 -22.5 t-30.5 -61.5h-152z" />
<glyph unicode="&#xc4;" horiz-adv-x="1323" d="M20 0l762 1434h236l282 -1434h-225l-78 418h-524l-219 -418h-234zM569 608h398l-103 580zM645 1645q0 56 42.5 97.5t100.5 41.5q45 0 74 -30.5t29 -74.5q0 -56 -42.5 -96.5t-100.5 -40.5q-45 0 -74 30t-29 73zM1004 1645q0 56 42 97.5t101 41.5q45 0 73.5 -30.5 t28.5 -74.5q0 -56 -42.5 -96.5t-100.5 -40.5q-46 0 -74 29.5t-28 73.5z" />
<glyph unicode="&#xc5;" horiz-adv-x="1323" d="M20 0l762 1434h236l282 -1434h-225l-78 418h-524l-219 -418h-234zM569 608h398l-103 580zM739 1671q0 93 66.5 155t163.5 62q80 0 130 -44.5t50 -114.5q0 -95 -67 -158.5t-164 -63.5q-78 0 -128.5 46t-50.5 118zM860 1683q0 -31 20 -49t52 -18q40 0 67 28t27 70 q0 30 -19.5 49t-52.5 19q-40 0 -67 -29t-27 -70z" />
<glyph unicode="&#xc6;" horiz-adv-x="1708" d="M16 0l961 1434h852l-35 -205h-481l-66 -400h416l-35 -202h-416l-69 -422h499l-34 -205h-727l69 418h-409l-275 -418h-250zM662 608h321l102 621h-20z" />
<glyph unicode="&#xc7;" horiz-adv-x="1325" d="M180 602q0 176 69.5 335.5t186 273.5t276.5 181.5t335 67.5q137 0 241.5 -41.5t173.5 -97.5l-92 -201q-54 48 -144 87.5t-204 39.5q-124 0 -236 -49t-192.5 -132t-128 -196.5t-47.5 -238.5q0 -194 115 -319.5t313 -125.5q192 0 401 136l41 -199q-84 -58 -207 -104 t-276 -46h-35l-18 -61q64 -12 98.5 -52t34.5 -100q0 -115 -76.5 -172t-194.5 -57q-59 0 -108 14l47 125q32 -8 63 -8q48 0 81.5 21t33.5 65q0 31 -28 47.5t-72 16.5l-35 -2l55 180q-219 45 -345 211.5t-126 400.5z" />
<glyph unicode="&#xc8;" horiz-adv-x="978" d="M150 0l239 1434h709l-35 -205h-481l-66 -400h418l-35 -202h-418l-69 -422h501l-34 -205h-729zM569 1810h238l94 -292h-186z" />
<glyph unicode="&#xc9;" horiz-adv-x="978" d="M150 0l239 1434h709l-35 -205h-481l-66 -400h418l-35 -202h-418l-69 -422h501l-34 -205h-729zM645 1518l191 292h237l-239 -292h-189z" />
<glyph unicode="&#xca;" horiz-adv-x="978" d="M150 0l239 1434h709l-35 -205h-481l-66 -400h418l-35 -202h-418l-69 -422h501l-34 -205h-729zM461 1524l241 276h230l145 -276h-186l-90 157l-137 -157h-203z" />
<glyph unicode="&#xcb;" horiz-adv-x="978" d="M150 0l239 1434h709l-35 -205h-481l-66 -400h418l-35 -202h-418l-69 -422h501l-34 -205h-729zM502 1645q0 56 42.5 97.5t100.5 41.5q45 0 74 -30.5t29 -74.5q0 -56 -43 -96.5t-101 -40.5q-45 0 -73.5 29.5t-28.5 73.5zM860 1645q0 56 42.5 97.5t101.5 41.5 q45 0 73.5 -30.5t28.5 -74.5q0 -56 -42.5 -96.5t-100.5 -40.5q-46 0 -74.5 29.5t-28.5 73.5z" />
<glyph unicode="&#xcc;" horiz-adv-x="528" d="M150 0l239 1434h227l-239 -1434h-227zM309 1810h238l94 -292h-186z" />
<glyph unicode="&#xcd;" horiz-adv-x="528" d="M150 0l239 1434h227l-239 -1434h-227zM401 1518l191 292h237l-239 -292h-189z" />
<glyph unicode="&#xce;" horiz-adv-x="528" d="M150 0l239 1434h227l-239 -1434h-227zM215 1524l242 276h229l145 -276h-186l-90 157l-137 -157h-203z" />
<glyph unicode="&#xcf;" horiz-adv-x="528" d="M150 0l239 1434h227l-239 -1434h-227zM254 1645q0 56 42.5 97.5t100.5 41.5q45 0 74 -30.5t29 -74.5q0 -56 -43 -96.5t-101 -40.5q-45 0 -73.5 29.5t-28.5 73.5zM612 1645q0 56 42.5 97.5t101.5 41.5q45 0 73.5 -30.5t28.5 -74.5q0 -56 -42.5 -96.5t-100.5 -40.5 q-46 0 -74.5 29.5t-28.5 73.5z" />
<glyph unicode="&#xd0;" horiz-adv-x="1337" d="M152 623l32 200h117l102 611h338q315 0 486.5 -156t171.5 -434q0 -262 -111 -453.5t-313 -291t-473 -99.5h-338l104 623h-116zM424 199h133q272 0 438 163t166 451q0 199 -114 309.5t-316 110.5h-133l-70 -410h260l-32 -200h-260z" />
<glyph unicode="&#xd1;" horiz-adv-x="1452" d="M147 0l240 1434h229l523 -1078l180 1078h223l-239 -1434h-226l-524 1071l-180 -1071h-226zM670 1538q19 110 88.5 178t161.5 68q46 0 92 -21t84.5 -42t66.5 -21q32 0 56 23t30 61h152q-19 -112 -86 -179t-160 -67q-46 0 -92 21t-85.5 42t-70.5 21q-32 0 -55.5 -22.5 t-30.5 -61.5h-151z" />
<glyph unicode="&#xd2;" horiz-adv-x="1617" d="M178 604q0 174 70.5 333t188.5 273t279.5 182t336.5 68q140 0 257.5 -48.5t197.5 -133.5t124.5 -201t44.5 -250q0 -232 -118 -429t-319 -311t-437 -114q-187 0 -330 82t-219 225t-76 324zM418 631q0 -195 116.5 -320t305.5 -125q95 0 185.5 30t165 86.5t131 131t87.5 169 t31 196.5q0 196 -116.5 322t-305.5 126q-160 0 -298 -81.5t-220 -224t-82 -310.5zM842 1810h237l95 -292h-187z" />
<glyph unicode="&#xd3;" horiz-adv-x="1617" d="M178 604q0 174 70.5 333t188.5 273t279.5 182t336.5 68q140 0 257.5 -48.5t197.5 -133.5t124.5 -201t44.5 -250q0 -232 -118 -429t-319 -311t-437 -114q-187 0 -330 82t-219 225t-76 324zM418 631q0 -195 116.5 -320t305.5 -125q95 0 185.5 30t165 86.5t131 131t87.5 169 t31 196.5q0 196 -116.5 322t-305.5 126q-160 0 -298 -81.5t-220 -224t-82 -310.5zM938 1518l190 292h238l-240 -292h-188z" />
<glyph unicode="&#xd4;" horiz-adv-x="1617" d="M178 604q0 174 70.5 333t188.5 273t279.5 182t336.5 68q140 0 257.5 -48.5t197.5 -133.5t124.5 -201t44.5 -250q0 -232 -118 -429t-319 -311t-437 -114q-187 0 -330 82t-219 225t-76 324zM418 631q0 -195 116.5 -320t305.5 -125q95 0 185.5 30t165 86.5t131 131t87.5 169 t31 196.5q0 196 -116.5 322t-305.5 126q-160 0 -298 -81.5t-220 -224t-82 -310.5zM754 1524l241 276h230l145 -276h-186l-90 157l-138 -157h-202z" />
<glyph unicode="&#xd5;" horiz-adv-x="1617" d="M178 604q0 174 70.5 333t188.5 273t279.5 182t336.5 68q140 0 257.5 -48.5t197.5 -133.5t124.5 -201t44.5 -250q0 -232 -118 -429t-319 -311t-437 -114q-187 0 -330 82t-219 225t-76 324zM418 631q0 -195 116.5 -320t305.5 -125q95 0 185.5 30t165 86.5t131 131t87.5 169 t31 196.5q0 196 -116.5 322t-305.5 126q-160 0 -298 -81.5t-220 -224t-82 -310.5zM725 1538q19 110 88.5 178t161.5 68q46 0 92.5 -21t85 -42t66.5 -21q32 0 56 23t30 61h151q-19 -112 -86 -179t-160 -67q-46 0 -92 21t-85 42t-70 21q-32 0 -55.5 -22.5t-30.5 -61.5h-152z " />
<glyph unicode="&#xd6;" horiz-adv-x="1617" d="M178 604q0 174 70.5 333t188.5 273t279.5 182t336.5 68q140 0 257.5 -48.5t197.5 -133.5t124.5 -201t44.5 -250q0 -232 -118 -429t-319 -311t-437 -114q-187 0 -330 82t-219 225t-76 324zM418 631q0 -195 116.5 -320t305.5 -125q95 0 185.5 30t165 86.5t131 131t87.5 169 t31 196.5q0 196 -116.5 322t-305.5 126q-160 0 -298 -81.5t-220 -224t-82 -310.5zM793 1645q0 56 42.5 97.5t100.5 41.5q45 0 73.5 -30.5t28.5 -74.5q0 -56 -42.5 -96.5t-100.5 -40.5q-45 0 -73.5 29.5t-28.5 73.5zM1151 1645q0 56 42 97.5t101 41.5q45 0 74 -30.5t29 -74.5 q0 -56 -43 -96.5t-101 -40.5q-46 0 -74 29.5t-28 73.5z" />
<glyph unicode="&#xd7;" horiz-adv-x="1085" d="M121 283l407 360l-270 346l141 129l267 -344l389 348l110 -131l-393 -356l277 -359l-140 -126l-274 354l-399 -354z" />
<glyph unicode="&#xd8;" horiz-adv-x="1617" d="M178 604q0 174 70.5 333t188.5 273t279.5 182t336.5 68q216 0 372 -112l125 131l111 -103l-125 -131q141 -174 141 -418q0 -232 -118 -429t-319 -311t-437 -114q-220 0 -377 113l-125 -131l-111 102l125 131q-137 170 -137 416zM418 631q0 -152 69 -262l773 807 q-107 71 -242 71q-160 0 -298 -81.5t-220 -224t-82 -310.5zM592 260q107 -74 248 -74q95 0 185.5 30t165 86.5t131 131t87.5 169t31 196.5q0 153 -76 268z" />
<glyph unicode="&#xd9;" horiz-adv-x="1394" d="M231 526l152 908h227l-151 -906q-27 -161 42.5 -252.5t227.5 -91.5q156 0 257 93t128 253l152 904h225l-152 -906q-45 -277 -206.5 -416t-425.5 -139q-265 0 -391.5 150.5t-84.5 402.5zM748 1810h237l94 -292h-186z" />
<glyph unicode="&#xda;" horiz-adv-x="1394" d="M231 526l152 908h227l-151 -906q-27 -161 42.5 -252.5t227.5 -91.5q156 0 257 93t128 253l152 904h225l-152 -906q-45 -277 -206.5 -416t-425.5 -139q-265 0 -391.5 150.5t-84.5 402.5zM840 1518l190 292h238l-240 -292h-188z" />
<glyph unicode="&#xdb;" horiz-adv-x="1394" d="M231 526l152 908h227l-151 -906q-27 -161 42.5 -252.5t227.5 -91.5q156 0 257 93t128 253l152 904h225l-152 -906q-45 -277 -206.5 -416t-425.5 -139q-265 0 -391.5 150.5t-84.5 402.5zM643 1524l242 276h229l146 -276h-187l-90 157l-137 -157h-203z" />
<glyph unicode="&#xdc;" horiz-adv-x="1394" d="M231 526l152 908h227l-151 -906q-27 -161 42.5 -252.5t227.5 -91.5q156 0 257 93t128 253l152 904h225l-152 -906q-45 -277 -206.5 -416t-425.5 -139q-265 0 -391.5 150.5t-84.5 402.5zM676 1645q0 56 42.5 97.5t100.5 41.5q45 0 74 -30.5t29 -74.5q0 -56 -43 -96.5 t-101 -40.5q-45 0 -73.5 29.5t-28.5 73.5zM1034 1645q0 56 42.5 97.5t101.5 41.5q45 0 73.5 -30.5t28.5 -74.5q0 -56 -42.5 -96.5t-100.5 -40.5q-46 0 -74.5 29.5t-28.5 73.5z" />
<glyph unicode="&#xdd;" horiz-adv-x="1142" d="M256 1434h254l203 -560l395 560h258l-571 -770l-111 -664h-225l110 664zM717 1518l190 292h238l-240 -292h-188z" />
<glyph unicode="&#xde;" horiz-adv-x="1097" d="M150 0l239 1434h227l-45 -267h220q174 0 277 -101t103 -255q0 -227 -148.5 -368.5t-371.5 -141.5h-223l-51 -301h-227zM461 500h196q126 0 201.5 78t75.5 202q0 89 -51.5 139t-145.5 50h-198z" />
<glyph unicode="&#xdf;" horiz-adv-x="1124" d="M123 0l186 1116q31 185 156.5 274t308.5 89q167 0 260.5 -77.5t93.5 -195.5q0 -107 -56 -183.5t-134 -113.5q96 -44 158.5 -133.5t62.5 -210.5q0 -108 -32.5 -199.5t-91.5 -158.5t-140.5 -113.5t-181 -70t-211.5 -23.5l30 186q76 0 145.5 21t128 62t93.5 111t35 159 q0 64 -25 113t-68 77t-95.5 41.5t-112.5 13.5l31 185q96 0 164.5 50.5t68.5 137.5q0 57 -41.5 94t-114.5 37q-84 0 -140 -46t-71 -136l-184 -1106h-223z" />
<glyph unicode="&#xe0;" horiz-adv-x="1060" d="M109 281q0 173 137 287t342 114q85 0 148 -23t95 -55l17 101q15 92 -37 144t-158 52q-143 0 -307 -84l-67 156q215 123 423 123q93 0 163 -20t113 -56t67.5 -86.5t27 -112t-7.5 -131.5l-115 -690h-194l-4 80q-116 -107 -293 -107q-154 0 -252 85t-98 223zM336 311 q0 -70 54 -114.5t145 -44.5q109 0 184.5 59t75.5 151q0 72 -54 115t-145 43q-112 0 -186 -59.5t-74 -149.5zM526 1485h238l94 -293h-186z" />
<glyph unicode="&#xe1;" horiz-adv-x="1060" d="M109 281q0 173 137 287t342 114q85 0 148 -23t95 -55l17 101q15 92 -37 144t-158 52q-143 0 -307 -84l-67 156q215 123 423 123q93 0 163 -20t113 -56t67.5 -86.5t27 -112t-7.5 -131.5l-115 -690h-194l-4 80q-116 -107 -293 -107q-154 0 -252 85t-98 223zM336 311 q0 -70 54 -114.5t145 -44.5q109 0 184.5 59t75.5 151q0 72 -54 115t-145 43q-112 0 -186 -59.5t-74 -149.5zM610 1192l191 293h237l-239 -293h-189z" />
<glyph unicode="&#xe2;" horiz-adv-x="1060" d="M109 281q0 173 137 287t342 114q85 0 148 -23t95 -55l17 101q15 92 -37 144t-158 52q-143 0 -307 -84l-67 156q215 123 423 123q93 0 163 -20t113 -56t67.5 -86.5t27 -112t-7.5 -131.5l-115 -690h-194l-4 80q-116 -107 -293 -107q-154 0 -252 85t-98 223zM336 311 q0 -70 54 -114.5t145 -44.5q109 0 184.5 59t75.5 151q0 72 -54 115t-145 43q-112 0 -186 -59.5t-74 -149.5zM424 1206l242 277h229l145 -277h-186l-90 158l-137 -158h-203z" />
<glyph unicode="&#xe3;" horiz-adv-x="1060" d="M109 281q0 173 137 287t342 114q85 0 148 -23t95 -55l17 101q15 92 -37 144t-158 52q-143 0 -307 -84l-67 156q215 123 423 123q93 0 163 -20t113 -56t67.5 -86.5t27 -112t-7.5 -131.5l-115 -690h-194l-4 80q-116 -107 -293 -107q-154 0 -252 85t-98 223zM336 311 q0 -70 54 -114.5t145 -44.5q109 0 184.5 59t75.5 151q0 72 -54 115t-145 43q-112 0 -186 -59.5t-74 -149.5zM381 1217q19 110 88 177.5t162 67.5q46 0 92 -21t84.5 -42t66.5 -21q33 0 57 23t30 61h151q-19 -112 -86 -178.5t-160 -66.5q-46 0 -92 20.5t-85.5 41.5t-70.5 21 q-33 0 -56 -22t-30 -61h-151z" />
<glyph unicode="&#xe4;" horiz-adv-x="1060" d="M109 281q0 173 137 287t342 114q85 0 148 -23t95 -55l17 101q15 92 -37 144t-158 52q-143 0 -307 -84l-67 156q215 123 423 123q93 0 163 -20t113 -56t67.5 -86.5t27 -112t-7.5 -131.5l-115 -690h-194l-4 80q-116 -107 -293 -107q-154 0 -252 85t-98 223zM336 311 q0 -70 54 -114.5t145 -44.5q109 0 184.5 59t75.5 151q0 72 -54 115t-145 43q-112 0 -186 -59.5t-74 -149.5zM467 1319q0 56 42.5 97.5t100.5 41.5q45 0 74 -30t29 -74q0 -56 -43 -96.5t-101 -40.5q-45 0 -73.5 29.5t-28.5 72.5zM825 1319q0 56 42.5 97.5t101.5 41.5 q45 0 73.5 -30t28.5 -74q0 -56 -42.5 -96.5t-100.5 -40.5q-46 0 -74.5 29t-28.5 73z" />
<glyph unicode="&#xe5;" horiz-adv-x="1060" d="M109 281q0 173 137 287t342 114q85 0 148 -23t95 -55l17 101q15 92 -37 144t-158 52q-143 0 -307 -84l-67 156q215 123 423 123q93 0 163 -20t113 -56t67.5 -86.5t27 -112t-7.5 -131.5l-115 -690h-194l-4 80q-116 -107 -293 -107q-154 0 -252 85t-98 223zM336 311 q0 -70 54 -114.5t145 -44.5q109 0 184.5 59t75.5 151q0 72 -54 115t-145 43q-112 0 -186 -59.5t-74 -149.5zM561 1333q0 93 66.5 155t163.5 62q80 0 130 -44.5t50 -114.5q0 -95 -67.5 -158.5t-164.5 -63.5q-78 0 -128 46t-50 118zM682 1346q0 -31 20 -49.5t52 -18.5 q40 0 67 28t27 70q0 30 -19.5 49t-52.5 19q-40 0 -67 -28.5t-27 -69.5z" />
<glyph unicode="&#xe6;" horiz-adv-x="1812" d="M109 281q0 173 136.5 287t340.5 114q85 0 149 -23t94 -55l17 101q15 92 -36 144t-157 52q-143 0 -307 -84l-67 156q215 123 423 123q133 0 215 -45.5t111 -126.5q167 172 389 172q216 0 328.5 -121.5t112.5 -331.5q0 -106 -25 -162h-803q-22 -141 55.5 -227t221.5 -86 q109 0 190.5 45t132.5 104l127 -110q-28 -38 -69 -74.5t-101 -74.5t-142.5 -61.5t-172.5 -23.5q-143 0 -247 52.5t-155 150.5q-63 -89 -165.5 -146t-247.5 -57q-154 0 -251 85t-97 223zM336 311q0 -70 54 -114.5t145 -44.5q109 0 184.5 59t75.5 151q0 72 -54 115t-145 43 q-112 0 -186 -59.5t-74 -149.5zM1063 635h571q15 129 -52.5 201.5t-186.5 72.5q-117 0 -208.5 -74.5t-123.5 -199.5z" />
<glyph unicode="&#xe7;" horiz-adv-x="1026" d="M139 449q0 177 89.5 326.5t240 235t324.5 85.5q112 0 202 -40.5t140 -90.5l-101 -189q-102 117 -262 117q-170 0 -286.5 -121.5t-116.5 -292.5q0 -134 80 -220.5t210 -86.5q149 0 297 119l50 -185q-36 -26 -63.5 -42.5t-79 -41t-115.5 -37t-138 -12.5l-18 -61 q64 -12 98.5 -52t34.5 -100q0 -115 -76 -172t-194 -57q-60 0 -109 14l47 125q32 -8 64 -8q48 0 81 21t33 65q0 31 -28 47.5t-72 16.5l-35 -2l56 178q-162 37 -257.5 162t-95.5 299z" />
<glyph unicode="&#xe8;" horiz-adv-x="1150" d="M141 440q0 140 50 263t133.5 208.5t196 135t235.5 49.5q216 0 328 -121.5t112 -331.5q0 -96 -22 -162h-805q-20 -141 58 -227t222 -86q104 0 183.5 45t130.5 104l137 -110q-28 -38 -70 -74.5t-102.5 -74.5t-143 -61.5t-172.5 -23.5q-218 0 -344.5 129.5t-126.5 337.5z M403 635h572q15 128 -53 201t-187 73q-117 0 -208.5 -74.5t-123.5 -199.5zM578 1485h237l94 -293h-186z" />
<glyph unicode="&#xe9;" horiz-adv-x="1150" d="M141 440q0 140 50 263t133.5 208.5t196 135t235.5 49.5q216 0 328 -121.5t112 -331.5q0 -96 -22 -162h-805q-20 -141 58 -227t222 -86q104 0 183.5 45t130.5 104l137 -110q-28 -38 -70 -74.5t-102.5 -74.5t-143 -61.5t-172.5 -23.5q-218 0 -344.5 129.5t-126.5 337.5z M403 635h572q15 128 -53 201t-187 73q-117 0 -208.5 -74.5t-123.5 -199.5zM657 1192l191 293h237l-239 -293h-189z" />
<glyph unicode="&#xea;" horiz-adv-x="1150" d="M141 440q0 140 50 263t133.5 208.5t196 135t235.5 49.5q216 0 328 -121.5t112 -331.5q0 -96 -22 -162h-805q-20 -141 58 -227t222 -86q104 0 183.5 45t130.5 104l137 -110q-28 -38 -70 -74.5t-102.5 -74.5t-143 -61.5t-172.5 -23.5q-218 0 -344.5 129.5t-126.5 337.5z M403 635h572q15 128 -53 201t-187 73q-117 0 -208.5 -74.5t-123.5 -199.5zM481 1206l242 277h229l146 -277h-187l-90 158l-137 -158h-203z" />
<glyph unicode="&#xeb;" horiz-adv-x="1150" d="M141 440q0 140 50 263t133.5 208.5t196 135t235.5 49.5q216 0 328 -121.5t112 -331.5q0 -96 -22 -162h-805q-20 -141 58 -227t222 -86q104 0 183.5 45t130.5 104l137 -110q-28 -38 -70 -74.5t-102.5 -74.5t-143 -61.5t-172.5 -23.5q-218 0 -344.5 129.5t-126.5 337.5z M403 635h572q15 128 -53 201t-187 73q-117 0 -208.5 -74.5t-123.5 -199.5zM516 1319q0 56 42.5 97.5t100.5 41.5q45 0 74 -30t29 -74q0 -56 -43 -96.5t-101 -40.5q-45 0 -73.5 29.5t-28.5 72.5zM874 1319q0 56 42.5 97.5t101.5 41.5q45 0 73.5 -30t28.5 -74 q0 -56 -42.5 -96.5t-100.5 -40.5q-46 0 -74.5 29t-28.5 73z" />
<glyph unicode="&#xec;" d="M125 0l178 1069h223l-178 -1069h-223zM225 1485h238l94 -293h-186z" />
<glyph unicode="&#xed;" d="M125 0l178 1069h223l-178 -1069h-223zM311 1192l191 293h237l-239 -293h-189z" />
<glyph unicode="&#xee;" d="M125 0l178 1069h223l-178 -1069h-223zM135 1206l242 277h229l146 -277h-187l-90 158l-137 -158h-203z" />
<glyph unicode="&#xef;" d="M125 0l178 1069h223l-178 -1069h-223zM162 1319q0 56 42.5 97.5t100.5 41.5q45 0 74 -30t29 -74q0 -56 -43 -96.5t-101 -40.5q-45 0 -73.5 29.5t-28.5 72.5zM520 1319q0 56 42.5 97.5t101.5 41.5q45 0 73.5 -30t28.5 -74q0 -56 -42.5 -96.5t-100.5 -40.5q-46 0 -74.5 29 t-28.5 73z" />
<glyph unicode="&#xf0;" horiz-adv-x="1208" d="M139 428q0 168 81.5 305.5t220 214t304.5 76.5q104 0 168 -33q-49 100 -145 176l-348 -123l4 150l225 82q-71 58 -178 123l152 110q127 -58 256 -157l280 100l-4 -152l-166 -59q123 -120 188.5 -268t65.5 -311q0 -133 -43.5 -255.5t-124 -220t-206.5 -155.5t-279 -58 q-208 0 -329.5 129t-121.5 326zM367 453q0 -123 68 -203t188 -80q90 0 164.5 35t121.5 92.5t72 128.5t25 147q0 115 -73.5 192t-193.5 77q-113 0 -199 -54.5t-129.5 -142t-43.5 -192.5z" />
<glyph unicode="&#xf1;" horiz-adv-x="1134" d="M125 0l178 1069h219l-22 -139q50 69 139 117.5t190 48.5q80 0 140.5 -24.5t94.5 -67.5t53.5 -101t19 -123.5t-10.5 -136.5l-108 -643h-221l110 662q18 108 -31.5 170.5t-144.5 62.5q-105 0 -180 -70t-94 -180l-109 -645h-223zM434 1217q19 110 88 177.5t162 67.5 q46 0 92.5 -21t85 -42t66.5 -21q32 0 56 23t30 61h151q-19 -112 -85.5 -178.5t-159.5 -66.5q-46 0 -92 20.5t-85.5 41.5t-70.5 21q-33 0 -56 -22t-30 -61h-152z" />
<glyph unicode="&#xf2;" horiz-adv-x="1251" d="M139 449q0 134 54 254.5t144.5 206t213 136t254.5 50.5q217 0 351 -135t134 -343q0 -177 -90.5 -326t-243 -234t-331.5 -85q-218 0 -352 133.5t-134 342.5zM367 473q0 -133 78.5 -217t207.5 -84q82 0 158 32.5t132 88.5t89 134t33 165q0 134 -80 219.5t-211 85.5 q-169 0 -288 -123.5t-119 -300.5zM598 1485h238l94 -293h-187z" />
<glyph unicode="&#xf3;" horiz-adv-x="1251" d="M139 449q0 134 54 254.5t144.5 206t213 136t254.5 50.5q217 0 351 -135t134 -343q0 -177 -90.5 -326t-243 -234t-331.5 -85q-218 0 -352 133.5t-134 342.5zM367 473q0 -133 78.5 -217t207.5 -84q82 0 158 32.5t132 88.5t89 134t33 165q0 134 -80 219.5t-211 85.5 q-169 0 -288 -123.5t-119 -300.5zM698 1192l191 293h237l-239 -293h-189z" />
<glyph unicode="&#xf4;" horiz-adv-x="1251" d="M139 449q0 134 54 254.5t144.5 206t213 136t254.5 50.5q217 0 351 -135t134 -343q0 -177 -90.5 -326t-243 -234t-331.5 -85q-218 0 -352 133.5t-134 342.5zM367 473q0 -133 78.5 -217t207.5 -84q82 0 158 32.5t132 88.5t89 134t33 165q0 134 -80 219.5t-211 85.5 q-169 0 -288 -123.5t-119 -300.5zM526 1206l242 277h229l146 -277h-187l-90 158l-137 -158h-203z" />
<glyph unicode="&#xf5;" horiz-adv-x="1251" d="M139 449q0 134 54 254.5t144.5 206t213 136t254.5 50.5q217 0 351 -135t134 -343q0 -177 -90.5 -326t-243 -234t-331.5 -85q-218 0 -352 133.5t-134 342.5zM367 473q0 -133 78.5 -217t207.5 -84q82 0 158 32.5t132 88.5t89 134t33 165q0 134 -80 219.5t-211 85.5 q-169 0 -288 -123.5t-119 -300.5zM489 1217q19 110 88 177.5t162 67.5q46 0 92.5 -21t85 -42t66.5 -21q32 0 56 23t30 61h152q-19 -112 -86 -178.5t-160 -66.5q-46 0 -92 20.5t-85.5 41.5t-70.5 21q-33 0 -56 -22t-30 -61h-152z" />
<glyph unicode="&#xf6;" horiz-adv-x="1251" d="M139 449q0 134 54 254.5t144.5 206t213 136t254.5 50.5q217 0 351 -135t134 -343q0 -177 -90.5 -326t-243 -234t-331.5 -85q-218 0 -352 133.5t-134 342.5zM367 473q0 -133 78.5 -217t207.5 -84q82 0 158 32.5t132 88.5t89 134t33 165q0 134 -80 219.5t-211 85.5 q-169 0 -288 -123.5t-119 -300.5zM559 1319q0 56 42.5 97.5t100.5 41.5q45 0 74 -30t29 -74q0 -56 -42.5 -96.5t-100.5 -40.5q-45 0 -74 29.5t-29 72.5zM918 1319q0 56 42 97.5t101 41.5q45 0 73.5 -30t28.5 -74q0 -56 -42.5 -96.5t-100.5 -40.5q-46 0 -74 29t-28 73z" />
<glyph unicode="&#xf7;" horiz-adv-x="1128" d="M172 547l31 182h968l-30 -182h-969zM481 248q0 57 44.5 99t103.5 42q45 0 75.5 -30.5t30.5 -75.5q0 -57 -45 -100.5t-102 -43.5q-46 0 -76.5 32t-30.5 77zM606 993q0 57 45.5 100.5t102.5 43.5q46 0 76 -32t30 -77q0 -58 -44.5 -99.5t-102.5 -41.5q-47 0 -77 30.5 t-30 75.5z" />
<glyph unicode="&#xf8;" horiz-adv-x="1253" d="M139 449q0 134 54 254.5t144.5 206t213 136t254.5 50.5q158 0 282 -80l97 100l100 -90l-96 -100q102 -127 102 -308q0 -177 -90.5 -326t-243 -234t-331.5 -85q-157 0 -277 74l-98 -104l-96 90l94 98q-109 128 -109 318zM367 473q0 -102 43 -172l524 551q-70 45 -160 45 q-169 0 -288 -123.5t-119 -300.5zM504 209q61 -37 149 -37q82 0 158 32.5t132 88.5t89 134t33 165q0 94 -41 162z" />
<glyph unicode="&#xf9;" horiz-adv-x="1126" d="M177 284q-1 65 9 136l111 649h221l-110 -661q-18 -108 31 -171t143 -63q105 0 181 69.5t95 180.5l109 645h223l-180 -1069h-219l24 139q-50 -71 -133 -118.5t-184 -47.5q-80 0 -142 24t-98.5 66t-58 99t-22.5 122zM567 1485h238l94 -293h-186z" />
<glyph unicode="&#xfa;" horiz-adv-x="1126" d="M177 284q-1 65 9 136l111 649h221l-110 -661q-18 -108 31 -171t143 -63q105 0 181 69.5t95 180.5l109 645h223l-180 -1069h-219l24 139q-50 -71 -133 -118.5t-184 -47.5q-80 0 -142 24t-98.5 66t-58 99t-22.5 122zM641 1192l190 293h238l-240 -293h-188z" />
<glyph unicode="&#xfb;" horiz-adv-x="1126" d="M177 284q-1 65 9 136l111 649h221l-110 -661q-18 -108 31 -171t143 -63q105 0 181 69.5t95 180.5l109 645h223l-180 -1069h-219l24 139q-50 -71 -133 -118.5t-184 -47.5q-80 0 -142 24t-98.5 66t-58 99t-22.5 122zM461 1206l241 277h230l145 -277h-186l-90 158l-137 -158 h-203z" />
<glyph unicode="&#xfc;" horiz-adv-x="1126" d="M177 284q-1 65 9 136l111 649h221l-110 -661q-18 -108 31 -171t143 -63q105 0 181 69.5t95 180.5l109 645h223l-180 -1069h-219l24 139q-50 -71 -133 -118.5t-184 -47.5q-80 0 -142 24t-98.5 66t-58 99t-22.5 122zM500 1319q0 56 42.5 97.5t100.5 41.5q45 0 73.5 -30 t28.5 -74q0 -56 -42.5 -96.5t-100.5 -40.5q-45 0 -73.5 29.5t-28.5 72.5zM858 1319q0 56 42 97.5t101 41.5q45 0 74 -30t29 -74q0 -56 -42.5 -96.5t-100.5 -40.5q-46 0 -74.5 29t-28.5 73z" />
<glyph unicode="&#xfd;" horiz-adv-x="1073" d="M190 1069h234l160 -780l413 780h240l-799 -1436h-217l215 385zM616 1192l191 293h237l-239 -293h-189z" />
<glyph unicode="&#xfe;" horiz-adv-x="1263" d="M61 -383l314 1864h223l-90 -537q23 24 52 46t74 48t105 42t125 16q199 0 319 -130t120 -337q0 -183 -80 -333.5t-221 -236.5t-312 -86q-71 0 -131 19t-97 48.5t-58.5 54.5t-30.5 46l-88 -524h-224zM424 467q0 -137 72.5 -216t191.5 -79q161 0 273 123.5t112 306.5 q0 134 -72 214.5t-192 80.5q-164 0 -274.5 -127.5t-110.5 -302.5z" />
<glyph unicode="&#xff;" horiz-adv-x="1073" d="M190 1069h234l160 -780l413 780h240l-799 -1436h-217l215 385zM469 1319q0 56 42.5 97.5t100.5 41.5q45 0 74 -30t29 -74q0 -56 -43 -96.5t-101 -40.5q-45 0 -73.5 29.5t-28.5 72.5zM827 1319q0 56 42.5 97.5t101.5 41.5q45 0 73.5 -30t28.5 -74q0 -56 -42.5 -96.5 t-100.5 -40.5q-46 0 -74.5 29t-28.5 73z" />
<glyph unicode="&#x100;" horiz-adv-x="1323" d="M20 0l762 1434h236l282 -1434h-225l-78 418h-524l-219 -418h-234zM569 608h398l-103 580zM659 1552l29 168h522l-28 -168h-523z" />
<glyph unicode="&#x101;" horiz-adv-x="1060" d="M109 281q0 173 137 287t342 114q85 0 148 -23t95 -55l17 101q15 92 -37 144t-158 52q-143 0 -307 -84l-67 156q215 123 423 123q93 0 163 -20t113 -56t67.5 -86.5t27 -112t-7.5 -131.5l-115 -690h-194l-4 80q-116 -107 -293 -107q-154 0 -252 85t-98 223zM336 311 q0 -70 54 -114.5t145 -44.5q109 0 184.5 59t75.5 151q0 72 -54 115t-145 43q-112 0 -186 -59.5t-74 -149.5zM487 1262l29 168h522l-28 -168h-523z" />
<glyph unicode="&#x102;" horiz-adv-x="1323" d="M20 0l762 1434h236l282 -1434h-225l-78 418h-524l-219 -418h-234zM569 608h398l-103 580zM676 1800h160q-10 -60 11.5 -98.5t84.5 -38.5t98 38.5t45 98.5h172q-21 -122 -109.5 -199t-224.5 -77q-134 0 -196 77t-41 199z" />
<glyph unicode="&#x103;" horiz-adv-x="1060" d="M109 281q0 173 137 287t342 114q85 0 148 -23t95 -55l17 101q15 92 -37 144t-158 52q-143 0 -307 -84l-67 156q215 123 423 123q93 0 163 -20t113 -56t67.5 -86.5t27 -112t-7.5 -131.5l-115 -690h-194l-4 80q-116 -107 -293 -107q-154 0 -252 85t-98 223zM336 311 q0 -70 54 -114.5t145 -44.5q109 0 184.5 59t75.5 151q0 72 -54 115t-145 43q-112 0 -186 -59.5t-74 -149.5zM489 1473h160q-10 -61 11.5 -99.5t84.5 -38.5t98.5 39t45.5 99h172q-21 -123 -109.5 -200t-224.5 -77q-134 0 -196.5 77.5t-41.5 199.5z" />
<glyph unicode="&#x104;" horiz-adv-x="1323" d="M20 0l762 1434h236l282 -1434q-17 -6 -39.5 -18.5t-50.5 -33t-46.5 -50.5t-18.5 -62t25 -52t65 -20l-29 -174q-26 -4 -53 -4q-89 0 -150 43t-61 127q0 44 20.5 85.5t53 72t66 52t65.5 34.5h-72l-78 418h-524l-219 -418h-234zM569 608h398l-103 580z" />
<glyph unicode="&#x105;" horiz-adv-x="1060" d="M109 281q0 173 137 287t342 114q85 0 148 -23t95 -55l17 101q15 92 -37 144t-158 52q-143 0 -307 -84l-67 156q215 123 423 123q93 0 163 -20t113 -56t67.5 -86.5t27 -112t-7.5 -131.5l-115 -690q-17 -6 -39.5 -18.5t-50.5 -33t-46.5 -50.5t-18.5 -62t25 -52t65 -20 l-29 -174q-26 -4 -53 -4q-89 0 -150 43t-61 127q0 44 20.5 85.5t53 72t66 52t65.5 34.5h-41l-4 80q-116 -107 -293 -107q-154 0 -252 85t-98 223zM336 311q0 -70 54 -114.5t145 -44.5q109 0 184.5 59t75.5 151q0 72 -54 115t-145 43q-112 0 -186 -59.5t-74 -149.5z" />
<glyph unicode="&#x106;" horiz-adv-x="1325" d="M180 602q0 176 69.5 335.5t186 273.5t276.5 181.5t335 67.5q137 0 241.5 -41.5t173.5 -97.5l-92 -201q-54 48 -144 87.5t-204 39.5q-124 0 -236 -49t-192.5 -132t-128 -196.5t-47.5 -238.5q0 -194 115 -319.5t313 -125.5q192 0 401 136l41 -199q-84 -58 -207 -104 t-276 -46q-188 0 -331.5 82.5t-218.5 225t-75 321.5zM897 1518l190 292h238l-240 -292h-188z" />
<glyph unicode="&#x107;" horiz-adv-x="1026" d="M139 449q0 177 89.5 326.5t240 235t324.5 85.5q112 0 202 -40.5t140 -90.5l-101 -189q-102 117 -262 117q-170 0 -286.5 -121.5t-116.5 -292.5q0 -134 80 -220.5t210 -86.5q149 0 297 119l50 -185q-36 -26 -63 -42.5t-77.5 -41t-112.5 -37t-132 -12.5q-216 0 -349 134 t-133 342zM670 1192l190 293h238l-240 -293h-188z" />
<glyph unicode="&#x108;" horiz-adv-x="1325" d="M180 602q0 176 69.5 335.5t186 273.5t276.5 181.5t335 67.5q137 0 241.5 -41.5t173.5 -97.5l-92 -201q-54 48 -144 87.5t-204 39.5q-124 0 -236 -49t-192.5 -132t-128 -196.5t-47.5 -238.5q0 -194 115 -319.5t313 -125.5q192 0 401 136l41 -199q-84 -58 -207 -104 t-276 -46q-188 0 -331.5 82.5t-218.5 225t-75 321.5zM752 1524l241 276h230l145 -276h-186l-90 157l-138 -157h-202z" />
<glyph unicode="&#x109;" horiz-adv-x="1026" d="M139 449q0 177 89.5 326.5t240 235t324.5 85.5q112 0 202 -40.5t140 -90.5l-101 -189q-102 117 -262 117q-170 0 -286.5 -121.5t-116.5 -292.5q0 -134 80 -220.5t210 -86.5q149 0 297 119l50 -185q-36 -26 -63 -42.5t-77.5 -41t-112.5 -37t-132 -12.5q-216 0 -349 134 t-133 342zM506 1206l242 277h229l145 -277h-186l-90 158l-137 -158h-203z" />
<glyph unicode="&#x10a;" horiz-adv-x="1325" d="M180 602q0 176 69.5 335.5t186 273.5t276.5 181.5t335 67.5q137 0 241.5 -41.5t173.5 -97.5l-92 -201q-54 48 -144 87.5t-204 39.5q-124 0 -236 -49t-192.5 -132t-128 -196.5t-47.5 -238.5q0 -194 115 -319.5t313 -125.5q192 0 401 136l41 -199q-84 -58 -207 -104 t-276 -46q-188 0 -331.5 82.5t-218.5 225t-75 321.5zM944 1636q0 65 49.5 112.5t114.5 47.5q52 0 85.5 -34t33.5 -85q0 -65 -49.5 -112t-114.5 -47q-52 0 -85.5 33.5t-33.5 84.5z" />
<glyph unicode="&#x10b;" horiz-adv-x="1026" d="M139 449q0 177 89.5 326.5t240 235t324.5 85.5q112 0 202 -40.5t140 -90.5l-101 -189q-102 117 -262 117q-170 0 -286.5 -121.5t-116.5 -292.5q0 -134 80 -220.5t210 -86.5q149 0 297 119l50 -185q-36 -26 -63 -42.5t-77.5 -41t-112.5 -37t-132 -12.5q-216 0 -349 134 t-133 342zM698 1313q0 65 49.5 112.5t114.5 47.5q52 0 85.5 -34t33.5 -85q0 -65 -49.5 -112.5t-114.5 -47.5q-52 0 -85.5 34t-33.5 85z" />
<glyph unicode="&#x10c;" horiz-adv-x="1325" d="M180 602q0 176 69.5 335.5t186 273.5t276.5 181.5t335 67.5q137 0 241.5 -41.5t173.5 -97.5l-92 -201q-54 48 -144 87.5t-204 39.5q-124 0 -236 -49t-192.5 -132t-128 -196.5t-47.5 -238.5q0 -194 115 -319.5t313 -125.5q192 0 401 136l41 -199q-84 -58 -207 -104 t-276 -46q-188 0 -331.5 82.5t-218.5 225t-75 321.5zM795 1800h192l86 -155l139 155h199l-240 -276h-229z" />
<glyph unicode="&#x10d;" horiz-adv-x="1026" d="M139 449q0 177 89.5 326.5t240 235t324.5 85.5q112 0 202 -40.5t140 -90.5l-101 -189q-102 117 -262 117q-170 0 -286.5 -121.5t-116.5 -292.5q0 -134 80 -220.5t210 -86.5q149 0 297 119l50 -185q-36 -26 -63 -42.5t-77.5 -41t-112.5 -37t-132 -12.5q-216 0 -349 134 t-133 342zM543 1483h192l86 -156l140 156h198l-239 -277h-230z" />
<glyph unicode="&#x10e;" horiz-adv-x="1323" d="M150 0l239 1434h338q314 0 485.5 -155.5t171.5 -434.5q0 -262 -111 -453.5t-313 -291t-473 -99.5h-337zM410 199h133q272 0 438 163t166 451q0 199 -114 309.5t-316 110.5h-133zM559 1800h193l86 -155l139 155h199l-240 -276h-229z" />
<glyph unicode="&#x10f;" horiz-adv-x="1271" d="M139 438q0 183 79 334t219 237.5t311 86.5q70 0 130.5 -19.5t98.5 -48.5t60.5 -55t31.5 -47l92 555h223l-247 -1481h-211l24 139q-21 -22 -46 -43t-73 -52.5t-114.5 -51t-138.5 -19.5q-199 0 -319 129t-120 336zM367 465q0 -133 73 -214t193 -81q164 0 274.5 127.5 t110.5 302.5q0 139 -72.5 218t-191.5 79q-161 0 -274 -124.5t-113 -307.5zM1417 1124l74 357h229l-149 -357h-154z" />
<glyph unicode="&#x110;" horiz-adv-x="1323" d="M152 623l32 200h117l102 611h338q315 0 486.5 -156t171.5 -434q0 -262 -111 -453.5t-313 -291t-473 -99.5h-338l104 623h-116zM424 199h133q272 0 438 163t166 451q0 199 -114 309.5t-316 110.5h-133l-70 -410h260l-32 -200h-260z" />
<glyph unicode="&#x111;" horiz-adv-x="1261" d="M139 438q0 183 79 334t219 237.5t311 86.5q70 0 130.5 -19.5t98.5 -48.5t60.5 -55t31.5 -47l43 256h-262l24 151h263l24 148h223l-24 -148h127l-25 -151h-129l-196 -1182h-211l24 139q-21 -22 -46 -43t-73 -52.5t-114.5 -51t-138.5 -19.5q-199 0 -319 129t-120 336z M367 465q0 -133 73 -214t193 -81q164 0 274.5 127.5t110.5 302.5q0 139 -72.5 218t-191.5 79q-161 0 -274 -124.5t-113 -307.5z" />
<glyph unicode="&#x112;" horiz-adv-x="978" d="M150 0l239 1434h709l-35 -205h-481l-66 -400h418l-35 -202h-418l-69 -422h501l-34 -205h-729zM518 1552l29 168h522l-29 -168h-522z" />
<glyph unicode="&#x113;" horiz-adv-x="1150" d="M141 440q0 140 50 263t133.5 208.5t196 135t235.5 49.5q216 0 328 -121.5t112 -331.5q0 -96 -22 -162h-805q-20 -141 58 -227t222 -86q104 0 183.5 45t130.5 104l137 -110q-28 -38 -70 -74.5t-102.5 -74.5t-143 -61.5t-172.5 -23.5q-218 0 -344.5 129.5t-126.5 337.5z M403 635h572q15 128 -53 201t-187 73q-117 0 -208.5 -74.5t-123.5 -199.5zM543 1262l28 168h523l-29 -168h-522z" />
<glyph unicode="&#x114;" horiz-adv-x="978" d="M150 0l239 1434h709l-35 -205h-481l-66 -400h418l-35 -202h-418l-69 -422h501l-34 -205h-729zM526 1800h160q-10 -60 11.5 -98.5t84.5 -38.5t98.5 38.5t45.5 98.5h172q-21 -122 -109.5 -199t-224.5 -77q-134 0 -196.5 77t-41.5 199z" />
<glyph unicode="&#x115;" horiz-adv-x="1150" d="M141 440q0 140 50 263t133.5 208.5t196 135t235.5 49.5q216 0 328 -121.5t112 -331.5q0 -96 -22 -162h-805q-20 -141 58 -227t222 -86q104 0 183.5 45t130.5 104l137 -110q-28 -38 -70 -74.5t-102.5 -74.5t-143 -61.5t-172.5 -23.5q-218 0 -344.5 129.5t-126.5 337.5z M403 635h572q15 128 -53 201t-187 73q-117 0 -208.5 -74.5t-123.5 -199.5zM543 1473h159q-10 -60 12 -99t85 -39t98 39t45 99h172q-21 -123 -109.5 -200t-224.5 -77q-134 0 -196 77.5t-41 199.5z" />
<glyph unicode="&#x116;" horiz-adv-x="978" d="M150 0l239 1434h709l-35 -205h-481l-66 -400h418l-35 -202h-418l-69 -422h501l-34 -205h-729zM668 1636q0 65 49 112.5t114 47.5q52 0 85.5 -34t33.5 -85q0 -65 -49.5 -112t-114.5 -47q-52 0 -85 33.5t-33 84.5z" />
<glyph unicode="&#x117;" horiz-adv-x="1150" d="M141 440q0 140 50 263t133.5 208.5t196 135t235.5 49.5q216 0 328 -121.5t112 -331.5q0 -96 -22 -162h-805q-20 -141 58 -227t222 -86q104 0 183.5 45t130.5 104l137 -110q-28 -38 -70 -74.5t-102.5 -74.5t-143 -61.5t-172.5 -23.5q-218 0 -344.5 129.5t-126.5 337.5z M403 635h572q15 128 -53 201t-187 73q-117 0 -208.5 -74.5t-123.5 -199.5zM672 1313q0 65 49.5 112.5t114.5 47.5q52 0 85 -34t33 -85q0 -65 -49 -112.5t-114 -47.5q-52 0 -85.5 34t-33.5 85z" />
<glyph unicode="&#x118;" horiz-adv-x="978" d="M150 0l239 1434h709l-35 -205h-481l-66 -400h418l-35 -202h-418l-69 -422h501l-34 -205q-25 -9 -57 -27t-65.5 -56.5t-33.5 -80.5q0 -32 25 -52t65 -20l-29 -174q-26 -4 -53 -4q-89 0 -150 43t-61 127q0 44 20 85.5t51 72t62.5 52t61.5 34.5h-565z" />
<glyph unicode="&#x119;" horiz-adv-x="1150" d="M141 440q0 140 50 263t133.5 208.5t196 135t235.5 49.5q216 0 328 -121.5t112 -331.5q0 -96 -22 -162h-805q-20 -141 58 -227t222 -86q104 0 183.5 45t130.5 104l137 -110q-45 -60 -123.5 -118t-181.5 -89q-25 -9 -57 -27t-65.5 -56.5t-33.5 -80.5q0 -32 25 -52t65 -20 l-29 -174q-26 -4 -53 -4q-89 0 -150 43t-61 127q0 69 44.5 125t107.5 92q-207 7 -327 136t-120 331zM403 635h572q15 128 -53 201t-187 73q-117 0 -208.5 -74.5t-123.5 -199.5z" />
<glyph unicode="&#x11a;" horiz-adv-x="978" d="M150 0l239 1434h709l-35 -205h-481l-66 -400h418l-35 -202h-418l-69 -422h501l-34 -205h-729zM524 1800h193l86 -155l139 155h199l-240 -276h-229z" />
<glyph unicode="&#x11b;" horiz-adv-x="1150" d="M141 440q0 140 50 263t133.5 208.5t196 135t235.5 49.5q216 0 328 -121.5t112 -331.5q0 -96 -22 -162h-805q-20 -141 58 -227t222 -86q104 0 183.5 45t130.5 104l137 -110q-28 -38 -70 -74.5t-102.5 -74.5t-143 -61.5t-172.5 -23.5q-218 0 -344.5 129.5t-126.5 337.5z M403 635h572q15 128 -53 201t-187 73q-117 0 -208.5 -74.5t-123.5 -199.5zM524 1483h193l86 -156l139 156h199l-240 -277h-229z" />
<glyph unicode="&#x11c;" horiz-adv-x="1519" d="M180 600q0 139 43.5 270t124 237t187 185.5t239 123.5t273.5 44q85 0 162 -15.5t130 -39t99 -55t73 -58.5t48 -55l-158 -150q-21 25 -49.5 49t-74.5 51.5t-112.5 44.5t-142.5 17q-169 0 -307 -83t-215.5 -225t-77.5 -312q0 -200 116 -322.5t306 -122.5q144 0 249 42.5 t154 86.5l41 242h-295l33 195h510l-92 -547q-270 -230 -647 -230q-273 0 -445 173.5t-172 453.5zM760 1524l241 276h230l145 -276h-186l-90 157l-137 -157h-203z" />
<glyph unicode="&#x11d;" horiz-adv-x="1251" d="M137 434q0 139 49 262t132 210.5t198 138.5t242 51q70 0 129.5 -19t97 -48.5t59 -54.5t33.5 -48l25 143h211l-156 -928q-21 -122 -63.5 -215t-100 -153t-134 -97.5t-158 -53t-179.5 -15.5q-103 0 -208 29.5t-171 72.5l101 172q42 -28 121.5 -55t177.5 -27q70 0 130.5 14 t113 44t88.5 84t49 127l12 71q-13 -15 -30 -31t-53 -42t-75 -45t-96 -33.5t-117 -14.5q-198 0 -313 127.5t-115 333.5zM365 469q0 -135 73 -216t193 -81q164 0 274.5 123.5t110.5 304.5q0 135 -73 216t-193 81q-160 0 -272.5 -122t-112.5 -306zM518 1206l242 277h229 l146 -277h-187l-90 158l-137 -158h-203z" />
<glyph unicode="&#x11e;" horiz-adv-x="1519" d="M180 600q0 139 43.5 270t124 237t187 185.5t239 123.5t273.5 44q85 0 162 -15.5t130 -39t99 -55t73 -58.5t48 -55l-158 -150q-21 25 -49.5 49t-74.5 51.5t-112.5 44.5t-142.5 17q-169 0 -307 -83t-215.5 -225t-77.5 -312q0 -200 116 -322.5t306 -122.5q144 0 249 42.5 t154 86.5l41 242h-295l33 195h510l-92 -547q-270 -230 -647 -230q-273 0 -445 173.5t-172 453.5zM819 1800h160q-10 -60 11.5 -98.5t84.5 -38.5t98.5 38.5t45.5 98.5h172q-21 -122 -109.5 -199t-224.5 -77q-134 0 -196.5 77t-41.5 199z" />
<glyph unicode="&#x11f;" horiz-adv-x="1251" d="M137 434q0 139 49 262t132 210.5t198 138.5t242 51q70 0 129.5 -19t97 -48.5t59 -54.5t33.5 -48l25 143h211l-156 -928q-21 -122 -63.5 -215t-100 -153t-134 -97.5t-158 -53t-179.5 -15.5q-103 0 -208 29.5t-171 72.5l101 172q42 -28 121.5 -55t177.5 -27q70 0 130.5 14 t113 44t88.5 84t49 127l12 71q-13 -15 -30 -31t-53 -42t-75 -45t-96 -33.5t-117 -14.5q-198 0 -313 127.5t-115 333.5zM365 469q0 -135 73 -216t193 -81q164 0 274.5 123.5t110.5 304.5q0 135 -73 216t-193 81q-160 0 -272.5 -122t-112.5 -306zM584 1473h159q-10 -60 12 -99 t85 -39t98 39t45 99h172q-21 -123 -109.5 -200t-224.5 -77q-134 0 -196 77.5t-41 199.5z" />
<glyph unicode="&#x120;" horiz-adv-x="1519" d="M180 600q0 139 43.5 270t124 237t187 185.5t239 123.5t273.5 44q85 0 162 -15.5t130 -39t99 -55t73 -58.5t48 -55l-158 -150q-21 25 -49.5 49t-74.5 51.5t-112.5 44.5t-142.5 17q-169 0 -307 -83t-215.5 -225t-77.5 -312q0 -200 116 -322.5t306 -122.5q144 0 249 42.5 t154 86.5l41 242h-295l33 195h510l-92 -547q-270 -230 -647 -230q-273 0 -445 173.5t-172 453.5zM950 1636q0 65 49.5 112.5t114.5 47.5q52 0 85.5 -34t33.5 -85q0 -65 -49.5 -112t-114.5 -47q-52 0 -85.5 33.5t-33.5 84.5z" />
<glyph unicode="&#x121;" horiz-adv-x="1251" d="M137 434q0 139 49 262t132 210.5t198 138.5t242 51q70 0 129.5 -19t97 -48.5t59 -54.5t33.5 -48l25 143h211l-156 -928q-21 -122 -63.5 -215t-100 -153t-134 -97.5t-158 -53t-179.5 -15.5q-103 0 -208 29.5t-171 72.5l101 172q42 -28 121.5 -55t177.5 -27q70 0 130.5 14 t113 44t88.5 84t49 127l12 71q-13 -15 -30 -31t-53 -42t-75 -45t-96 -33.5t-117 -14.5q-198 0 -313 127.5t-115 333.5zM365 469q0 -135 73 -216t193 -81q164 0 274.5 123.5t110.5 304.5q0 135 -73 216t-193 81q-160 0 -272.5 -122t-112.5 -306zM690 1313q0 65 49.5 112.5 t114.5 47.5q52 0 85.5 -34t33.5 -85q0 -65 -49.5 -112.5t-114.5 -47.5q-52 0 -85.5 34t-33.5 85z" />
<glyph unicode="&#x122;" horiz-adv-x="1519" d="M180 600q0 139 43.5 270t124 237t187 185.5t239 123.5t273.5 44q85 0 162 -15.5t130 -39t99 -55t73 -58.5t48 -55l-158 -150q-21 25 -49.5 49t-74.5 51.5t-112.5 44.5t-142.5 17q-169 0 -307 -83t-215.5 -225t-77.5 -312q0 -200 116 -322.5t306 -122.5q144 0 249 42.5 t154 86.5l41 242h-295l33 195h510l-92 -547q-270 -230 -647 -230q-273 0 -445 173.5t-172 453.5zM621 -455q93 68 124 136q-41 7 -63.5 38.5t-22.5 71.5q0 58 46 102t106 44q52 0 83.5 -33.5t31.5 -89.5q0 -97 -64 -192t-164 -163z" />
<glyph unicode="&#x123;" horiz-adv-x="1251" d="M137 434q0 139 49 262t132 210.5t198 138.5t242 51q70 0 129.5 -19t97 -48.5t59 -54.5t33.5 -48l25 143h211l-156 -928q-21 -122 -63.5 -215t-100 -153t-134 -97.5t-158 -53t-179.5 -15.5q-103 0 -208 29.5t-171 72.5l101 172q42 -28 121.5 -55t177.5 -27q70 0 130.5 14 t113 44t88.5 84t49 127l12 71q-13 -15 -30 -31t-53 -42t-75 -45t-96 -33.5t-117 -14.5q-198 0 -313 127.5t-115 333.5zM365 469q0 -135 73 -216t193 -81q164 0 274.5 123.5t110.5 304.5q0 135 -73 216t-193 81q-160 0 -272.5 -122t-112.5 -306zM698 1300q0 97 64 192 t164 163l78 -86q-95 -69 -125 -135q41 -7 63.5 -38.5t22.5 -72.5q0 -58 -46 -101.5t-106 -43.5q-52 0 -83.5 33t-31.5 89z" />
<glyph unicode="&#x124;" horiz-adv-x="1433" d="M150 0l239 1434h227l-100 -605h680l100 605h228l-240 -1434h-227l104 623h-680l-104 -623h-227zM672 1524l241 276h230l145 -276h-186l-90 157l-138 -157h-202z" />
<glyph unicode="&#x125;" horiz-adv-x="1136" d="M125 0l248 1481h223l-92 -551q50 69 138 117.5t189 48.5q80 0 140.5 -24.5t94.5 -67.5t53.5 -101t19 -123.5t-10.5 -136.5l-108 -643h-221l110 662q18 108 -31.5 170.5t-144.5 62.5q-105 0 -181 -70t-95 -180l-109 -645h-223zM530 1534l242 276h229l146 -276h-186 l-91 158l-137 -158h-203z" />
<glyph unicode="&#x126;" horiz-adv-x="1433" d="M150 0l176 1051h-121l26 163h121l37 220h227l-36 -220h680l36 220h228l-37 -220h121l-27 -163h-121l-176 -1051h-227l104 623h-680l-104 -623h-227zM516 829h680l37 222h-680z" />
<glyph unicode="&#x127;" horiz-adv-x="1136" d="M125 0l199 1190h-117l26 151h117l23 140h223l-23 -140h265l-27 -151h-264l-43 -260q50 69 138 117.5t189 48.5q80 0 140.5 -24.5t94.5 -67.5t53.5 -101t19 -123.5t-10.5 -136.5l-108 -643h-221l110 662q18 108 -31.5 170.5t-144.5 62.5q-105 0 -181 -70t-95 -180 l-109 -645h-223z" />
<glyph unicode="&#x128;" horiz-adv-x="528" d="M150 0l239 1434h227l-239 -1434h-227zM178 1538q19 110 88.5 178t161.5 68q46 0 92.5 -21t85 -42t66.5 -21q32 0 56 23t30 61h151q-19 -112 -86 -179t-159 -67q-46 0 -92 21t-85.5 42t-70.5 21q-32 0 -55.5 -22.5t-30.5 -61.5h-152z" />
<glyph unicode="&#x129;" d="M94 1217q19 110 88 177.5t162 67.5q46 0 92.5 -21t85 -42t66.5 -21q32 0 56 23t30 61h151q-19 -112 -85.5 -178.5t-159.5 -66.5q-46 0 -92 20.5t-85.5 41.5t-70.5 21q-33 0 -56 -22t-30 -61h-152zM125 0l178 1069h223l-178 -1069h-223z" />
<glyph unicode="&#x12a;" horiz-adv-x="528" d="M150 0l239 1434h227l-239 -1434h-227zM264 1552l29 168h522l-29 -168h-522z" />
<glyph unicode="&#x12b;" d="M125 0l178 1069h223l-178 -1069h-223zM186 1262l29 168h522l-28 -168h-523z" />
<glyph unicode="&#x12c;" horiz-adv-x="528" d="M150 0l239 1434h227l-239 -1434h-227zM281 1800h159q-10 -60 12 -98.5t85 -38.5t98 38.5t45 98.5h172q-21 -122 -109.5 -199t-224.5 -77q-134 0 -196 77t-41 199z" />
<glyph unicode="&#x12d;" d="M125 0l178 1069h223l-178 -1069h-223zM197 1473h159q-10 -60 12 -99t85 -39t98 39t45 99h172q-21 -123 -109.5 -200t-224.5 -77q-134 0 -196 77.5t-41 199.5z" />
<glyph unicode="&#x12e;" horiz-adv-x="528" d="M18 -244q0 44 20 85.5t51 72t62.5 52t61.5 34.5h-63l239 1434h227l-239 -1434q-25 -9 -57 -27t-65.5 -56.5t-33.5 -80.5q0 -32 25 -52t65 -20l-28 -174q-27 -4 -54 -4q-89 0 -150 43t-61 127z" />
<glyph unicode="&#x12f;" d="M-10 -244q0 44 19.5 85.5t51 72t62.5 52t61 34.5h-59l178 1069h223l-178 -1069q-17 -6 -39.5 -18.5t-50.5 -33t-46.5 -50.5t-18.5 -62t25 -52t65 -20l-29 -174q-26 -4 -53 -4q-89 0 -150 43t-61 127zM317 1313q0 65 49.5 112.5t114.5 47.5q52 0 85.5 -34t33.5 -85 q0 -65 -49.5 -112.5t-114.5 -47.5q-52 0 -85.5 34t-33.5 85z" />
<glyph unicode="&#x130;" horiz-adv-x="528" d="M150 0l239 1434h227l-239 -1434h-227zM403 1636q0 65 49.5 112.5t114.5 47.5q52 0 85.5 -34t33.5 -85q0 -65 -49.5 -112t-114.5 -47q-52 0 -85.5 33.5t-33.5 84.5z" />
<glyph unicode="&#x131;" d="M125 0l178 1069h223l-178 -1069h-223z" />
<glyph unicode="&#x132;" horiz-adv-x="1265" d="M150 0l239 1434h227l-239 -1434h-227zM573 10l62 201q64 -16 123 -16q79 0 128 46t64 136l176 1057h228l-183 -1094q-30 -176 -142 -264t-279 -88q-100 0 -177 22z" />
<glyph unicode="&#x133;" horiz-adv-x="948" d="M125 0l178 1069h223l-178 -1069h-223zM317 1313q0 65 49.5 112.5t114.5 47.5q52 0 85.5 -34t33.5 -85q0 -65 -49.5 -112.5t-114.5 -47.5q-52 0 -85.5 34t-33.5 85zM322 -387l30 188q29 -2 47 -2q166 0 195 185l182 1085h223l-182 -1094q-62 -366 -434 -366zM791 1313 q0 65 49 112.5t114 47.5q52 0 85.5 -34t33.5 -85q0 -65 -50.5 -112.5t-115.5 -47.5q-52 0 -84 33.5t-32 85.5z" />
<glyph unicode="&#x134;" horiz-adv-x="737" d="M45 10l61 201q64 -16 123 -16q79 0 128.5 46t64.5 136l176 1057h227l-182 -1094q-30 -176 -142.5 -264t-279.5 -88q-99 0 -176 22zM403 1524l242 276h229l146 -276h-186l-91 157l-137 -157h-203z" />
<glyph unicode="&#x135;" d="M-152 -387l31 188q29 -2 47 -2q166 0 195 185l182 1085h223l-182 -1094q-62 -366 -434 -366zM131 1206l242 277h229l146 -277h-187l-90 158l-137 -158h-203z" />
<glyph unicode="&#x136;" horiz-adv-x="1208" d="M150 0l239 1434h227l-110 -662l624 662h271l-670 -693l461 -741h-264l-432 709l-119 -709h-227zM424 -455q94 69 125 136q-41 7 -63.5 38.5t-22.5 71.5q0 58 45.5 102t105.5 44q52 0 83.5 -33.5t31.5 -89.5q0 -97 -64 -192t-163 -163z" />
<glyph unicode="&#x137;" horiz-adv-x="1034" d="M125 0l248 1481h223l-145 -869l458 457h267l-500 -487l350 -582h-248l-336 561l-94 -561h-223zM334 -455q94 69 125 136q-41 7 -63.5 38.5t-22.5 71.5q0 58 45.5 102t105.5 44q52 0 83.5 -33.5t31.5 -89.5q0 -97 -64 -192t-163 -163z" />
<glyph unicode="&#x138;" horiz-adv-x="1034" d="M125 0l178 1069h223l-77 -469l466 469h261l-510 -496l360 -573h-256l-330 549l-92 -549h-223z" />
<glyph unicode="&#x139;" horiz-adv-x="925" d="M150 0l239 1434h227l-204 -1229h501l-34 -205h-729zM422 1518l190 292h238l-240 -292h-188z" />
<glyph unicode="&#x13a;" d="M125 0l248 1481h223l-248 -1481h-223zM393 1536l191 293h237l-239 -293h-189z" />
<glyph unicode="&#x13b;" horiz-adv-x="925" d="M150 0l239 1434h227l-204 -1229h501l-34 -205h-729zM336 -455q94 69 125 136q-41 7 -63.5 38.5t-22.5 71.5q0 58 45.5 102t105.5 44q52 0 83.5 -33.5t31.5 -89.5q0 -97 -64 -192t-163 -163z" />
<glyph unicode="&#x13c;" d="M35 -455q94 69 125 136q-41 7 -63.5 38.5t-22.5 71.5q0 58 45.5 102t105.5 44q52 0 83.5 -33.5t31.5 -89.5q0 -97 -64 -192t-163 -163zM125 0l248 1481h223l-248 -1481h-223z" />
<glyph unicode="&#x13d;" horiz-adv-x="925" d="M150 0l239 1434h227l-204 -1229h501l-34 -205h-729zM748 1075l73 357h230l-150 -357h-153z" />
<glyph unicode="&#x13e;" d="M125 0l248 1481h223l-248 -1481h-223zM621 1124l73 357h232l-150 -357h-155z" />
<glyph unicode="&#x13f;" horiz-adv-x="925" d="M150 0l239 1434h227l-204 -1229h501l-34 -205h-729zM676 733q0 67 50.5 116.5t117.5 49.5q54 0 89.5 -36t35.5 -89q0 -67 -52.5 -116.5t-119.5 -49.5q-53 0 -87 36t-34 89z" />
<glyph unicode="&#x140;" horiz-adv-x="747" d="M125 0l248 1481h223l-248 -1481h-223zM555 678q0 67 50.5 116.5t117.5 49.5q54 0 89.5 -36t35.5 -89q0 -67 -52.5 -116.5t-119.5 -49.5q-53 0 -87 36t-34 89z" />
<glyph unicode="&#x141;" horiz-adv-x="925" d="M106 444l35 213l129 68l119 709h227l-98 -580l262 141l-37 -223l-260 -137l-73 -430h501l-32 -205h-729l83 510z" />
<glyph unicode="&#x142;" horiz-adv-x="585" d="M141 524l37 217l133 76l111 664h223l-88 -531l148 86l-39 -229l-148 -84l-121 -723h-223l100 600z" />
<glyph unicode="&#x143;" horiz-adv-x="1452" d="M147 0l240 1434h229l523 -1078l180 1078h223l-239 -1434h-226l-524 1071l-180 -1071h-226zM881 1518l190 292h238l-240 -292h-188z" />
<glyph unicode="&#x144;" horiz-adv-x="1134" d="M125 0l178 1069h219l-22 -139q50 69 139 117.5t190 48.5q80 0 140.5 -24.5t94.5 -67.5t53.5 -101t19 -123.5t-10.5 -136.5l-108 -643h-221l110 662q18 108 -31.5 170.5t-144.5 62.5q-105 0 -180 -70t-94 -180l-109 -645h-223zM655 1192l191 293h237l-239 -293h-189z" />
<glyph unicode="&#x145;" horiz-adv-x="1452" d="M147 0l240 1434h229l523 -1078l180 1078h223l-239 -1434h-226l-524 1071l-180 -1071h-226zM520 -455q94 69 125 136q-41 7 -63.5 38.5t-22.5 71.5q0 58 46 102t106 44q52 0 83 -33.5t31 -89.5q0 -97 -64 -192t-163 -163z" />
<glyph unicode="&#x146;" horiz-adv-x="1134" d="M125 0l178 1069h219l-22 -139q50 69 139 117.5t190 48.5q80 0 140.5 -24.5t94.5 -67.5t53.5 -101t19 -123.5t-10.5 -136.5l-108 -643h-221l110 662q18 108 -31.5 170.5t-144.5 62.5q-105 0 -180 -70t-94 -180l-109 -645h-223zM362 -455q94 69 125 136q-41 7 -63.5 38.5 t-22.5 71.5q0 58 46 102t106 44q52 0 83.5 -33.5t31.5 -89.5q0 -97 -64 -192t-164 -163z" />
<glyph unicode="&#x147;" horiz-adv-x="1452" d="M147 0l240 1434h229l523 -1078l180 1078h223l-239 -1434h-226l-524 1071l-180 -1071h-226zM725 1800h193l86 -155l139 155h198l-239 -276h-230z" />
<glyph unicode="&#x148;" horiz-adv-x="1134" d="M125 0l178 1069h219l-22 -139q50 69 139 117.5t190 48.5q80 0 140.5 -24.5t94.5 -67.5t53.5 -101t19 -123.5t-10.5 -136.5l-108 -643h-221l110 662q18 108 -31.5 170.5t-144.5 62.5q-105 0 -180 -70t-94 -180l-109 -645h-223zM522 1483h193l86 -156l139 156h199 l-240 -277h-229z" />
<glyph unicode="&#x149;" horiz-adv-x="1239" d="M137 1087q94 69 125 136q-41 7 -63.5 38.5t-22.5 71.5q0 58 46 102t106 44q52 0 83 -33.5t31 -89.5q0 -97 -64 -192t-163 -163zM227 0l179 1069h219l-23 -139q50 69 139.5 117.5t190.5 48.5q80 0 140.5 -24.5t94.5 -67.5t53.5 -101t19 -123.5t-10.5 -136.5l-109 -643 h-221l111 662q18 108 -31.5 170.5t-144.5 62.5q-105 0 -180.5 -70t-94.5 -180l-108 -645h-224z" />
<glyph unicode="&#x14a;" horiz-adv-x="1452" d="M147 0l240 1434h229l523 -1078l180 1078h223l-246 -1473q-30 -177 -141 -264.5t-278 -87.5q-100 0 -177 22l60 201q66 -16 125 -16q162 0 192 184l-524 1071l-180 -1071h-226z" />
<glyph unicode="&#x14b;" horiz-adv-x="1134" d="M125 0l178 1069h219l-22 -139q50 69 139 117.5t190 48.5q77 0 136.5 -24.5t93.5 -67.5t54.5 -101t20.5 -123.5t-10 -136.5l-110 -668q-62 -366 -432 -366l-62 4l33 188q29 -2 47 -2q82 0 130 45t65 140l112 678q18 108 -31.5 170.5t-144.5 62.5q-105 0 -180 -70t-94 -180 l-109 -645h-223z" />
<glyph unicode="&#x14c;" horiz-adv-x="1617" d="M178 604q0 174 70.5 333t188.5 273t279.5 182t336.5 68q140 0 257.5 -48.5t197.5 -133.5t124.5 -201t44.5 -250q0 -232 -118 -429t-319 -311t-437 -114q-187 0 -330 82t-219 225t-76 324zM418 631q0 -195 116.5 -320t305.5 -125q95 0 185.5 30t165 86.5t131 131t87.5 169 t31 196.5q0 196 -116.5 322t-305.5 126q-160 0 -298 -81.5t-220 -224t-82 -310.5zM807 1552l29 168h522l-29 -168h-522z" />
<glyph unicode="&#x14d;" horiz-adv-x="1251" d="M139 449q0 134 54 254.5t144.5 206t213 136t254.5 50.5q217 0 351 -135t134 -343q0 -177 -90.5 -326t-243 -234t-331.5 -85q-218 0 -352 133.5t-134 342.5zM367 473q0 -133 78.5 -217t207.5 -84q82 0 158 32.5t132 88.5t89 134t33 165q0 134 -80 219.5t-211 85.5 q-169 0 -288 -123.5t-119 -300.5zM580 1262l28 168h522l-28 -168h-522z" />
<glyph unicode="&#x14e;" horiz-adv-x="1617" d="M178 604q0 174 70.5 333t188.5 273t279.5 182t336.5 68q140 0 257.5 -48.5t197.5 -133.5t124.5 -201t44.5 -250q0 -232 -118 -429t-319 -311t-437 -114q-187 0 -330 82t-219 225t-76 324zM418 631q0 -195 116.5 -320t305.5 -125q95 0 185.5 30t165 86.5t131 131t87.5 169 t31 196.5q0 196 -116.5 322t-305.5 126q-160 0 -298 -81.5t-220 -224t-82 -310.5zM827 1800h160q-10 -60 11.5 -98.5t84.5 -38.5t98.5 38.5t45.5 98.5h172q-21 -122 -109.5 -199t-224.5 -77q-134 0 -196.5 77t-41.5 199z" />
<glyph unicode="&#x14f;" horiz-adv-x="1251" d="M139 449q0 134 54 254.5t144.5 206t213 136t254.5 50.5q217 0 351 -135t134 -343q0 -177 -90.5 -326t-243 -234t-331.5 -85q-218 0 -352 133.5t-134 342.5zM367 473q0 -133 78.5 -217t207.5 -84q82 0 158 32.5t132 88.5t89 134t33 165q0 134 -80 219.5t-211 85.5 q-169 0 -288 -123.5t-119 -300.5zM578 1473h159q-10 -60 12 -99t85 -39t98 39t45 99h172q-21 -123 -109.5 -200t-224.5 -77q-134 0 -196 77.5t-41 199.5z" />
<glyph unicode="&#x150;" horiz-adv-x="1617" d="M178 604q0 174 70.5 333t188.5 273t279.5 182t336.5 68q140 0 257.5 -48.5t197.5 -133.5t124.5 -201t44.5 -250q0 -232 -118 -429t-319 -311t-437 -114q-187 0 -330 82t-219 225t-76 324zM418 631q0 -195 116.5 -320t305.5 -125q95 0 185.5 30t165 86.5t131 131t87.5 169 t31 196.5q0 196 -116.5 322t-305.5 126q-160 0 -298 -81.5t-220 -224t-82 -310.5zM823 1518l191 292h221l-240 -292h-172zM1143 1518l192 292h219l-237 -292h-174z" />
<glyph unicode="&#x151;" horiz-adv-x="1251" d="M139 449q0 134 54 254.5t144.5 206t213 136t254.5 50.5q217 0 351 -135t134 -343q0 -177 -90.5 -326t-243 -234t-331.5 -85q-218 0 -352 133.5t-134 342.5zM367 473q0 -133 78.5 -217t207.5 -84q82 0 158 32.5t132 88.5t89 134t33 165q0 134 -80 219.5t-211 85.5 q-169 0 -288 -123.5t-119 -300.5zM590 1192l190 293h221l-239 -293h-172zM909 1192l193 293h219l-238 -293h-174z" />
<glyph unicode="&#x152;" horiz-adv-x="2142" d="M178 604q0 174 70.5 333t188.5 273t279.5 182t336.5 68q98 0 200 -26h1008l-35 -205h-684q64 -74 99 -179.5t34 -220.5h422l-35 -202h-415q-64 -245 -256 -422h686l-35 -205h-1028q-115 -27 -211 -27q-187 0 -330 82t-219 225t-76 324zM418 631q0 -195 116.5 -320 t305.5 -125q95 0 185.5 30t165 86.5t131 131t87.5 169t31 196.5q0 196 -116.5 322t-305.5 126q-160 0 -298 -81.5t-220 -224t-82 -310.5z" />
<glyph unicode="&#x153;" horiz-adv-x="2062" d="M139 449q0 134 54 254.5t144.5 206t213 136t254.5 50.5q137 0 242 -56.5t165 -156.5q84 100 203 156.5t252 56.5q216 0 328 -121.5t112 -331.5q0 -96 -22 -162h-805q-20 -141 58.5 -227t222.5 -86q104 0 183 45t130 104l137 -110q-28 -38 -69.5 -74.5t-102 -74.5 t-143 -61.5t-172.5 -23.5q-141 0 -244 57.5t-158 159.5q-94 -102 -223 -159.5t-274 -57.5q-218 0 -352 133.5t-134 342.5zM367 473q0 -133 78.5 -217t207.5 -84q82 0 158 32.5t132 88.5t89 134t33 165q0 134 -80 219.5t-211 85.5q-169 0 -288 -123.5t-119 -300.5zM1315 635 h571q15 129 -52.5 201.5t-186.5 72.5q-117 0 -208.5 -74.5t-123.5 -199.5z" />
<glyph unicode="&#x154;" horiz-adv-x="1159" d="M150 0l239 1434h385q199 0 307.5 -99.5t108.5 -259.5q0 -144 -83 -262.5t-218 -171.5l239 -641h-251l-203 592h-199l-98 -592h-227zM508 786h154q125 0 207.5 71t82.5 194q0 86 -54.5 135t-160.5 49h-153zM676 1518l190 292h238l-240 -292h-188z" />
<glyph unicode="&#x155;" horiz-adv-x="690" d="M125 0l178 1069h219l-26 -168q45 83 136.5 139t201.5 56l-39 -226q-85 0 -150 -30.5t-108 -88t-69.5 -128.5t-41.5 -162l-78 -461h-223zM463 1192l190 293h238l-240 -293h-188z" />
<glyph unicode="&#x156;" horiz-adv-x="1159" d="M150 0l239 1434h385q199 0 307.5 -99.5t108.5 -259.5q0 -144 -83 -262.5t-218 -171.5l239 -641h-251l-203 592h-199l-98 -592h-227zM381 -455q94 69 125 136q-41 7 -63.5 38.5t-22.5 71.5q0 58 45.5 102t105.5 44q52 0 83.5 -33.5t31.5 -89.5q0 -97 -64 -192t-163 -163z M508 786h154q125 0 207.5 71t82.5 194q0 86 -54.5 135t-160.5 49h-153z" />
<glyph unicode="&#x157;" horiz-adv-x="690" d="M82 -455q94 69 125 136q-41 7 -63.5 38.5t-22.5 71.5q0 58 45.5 102t105.5 44q52 0 83.5 -33.5t31.5 -89.5q0 -97 -64 -192t-163 -163zM125 0l178 1069h219l-26 -168q45 83 136.5 139t201.5 56l-39 -226q-85 0 -150 -30.5t-108 -88t-69.5 -128.5t-41.5 -162l-78 -461 h-223z" />
<glyph unicode="&#x158;" horiz-adv-x="1159" d="M150 0l239 1434h385q199 0 307.5 -99.5t108.5 -259.5q0 -144 -83 -262.5t-218 -171.5l239 -641h-251l-203 592h-199l-98 -592h-227zM508 786h154q125 0 207.5 71t82.5 194q0 86 -54.5 135t-160.5 49h-153zM528 1800h193l86 -155l139 155h199l-240 -276h-229z" />
<glyph unicode="&#x159;" horiz-adv-x="690" d="M125 0l178 1069h219l-26 -168q45 83 136.5 139t201.5 56l-39 -226q-85 0 -150 -30.5t-108 -88t-69.5 -128.5t-41.5 -162l-78 -461h-223zM303 1483h193l86 -156l139 156h199l-240 -277h-229z" />
<glyph unicode="&#x15a;" horiz-adv-x="1052" d="M106 297l205 90q20 -88 80 -145.5t170 -57.5t180 60t70 159q0 49 -23 90t-61 69t-86.5 57.5t-99 54t-99 59t-86.5 72.5t-61 94.5t-23 124.5q0 190 138 313t358 123q76 0 140 -21t105 -53t71 -73t44.5 -76.5t20.5 -69.5l-197 -84q-9 30 -23.5 56.5t-39 53t-64.5 42.5 t-90 16q-103 0 -167 -58t-64 -140q0 -51 30 -94t78 -75.5t106 -64.5t116.5 -68.5t106.5 -79.5t78 -106t30 -139q0 -201 -136.5 -327t-371.5 -126q-84 0 -155 21.5t-118.5 55.5t-82.5 78.5t-53.5 86t-25.5 82.5zM659 1518l191 292h237l-239 -292h-189z" />
<glyph unicode="&#x15b;" horiz-adv-x="872" d="M80 186l151 111q34 -59 94 -99t146 -40q80 0 133 40t53 107q0 37 -24.5 66t-63.5 50t-86 41t-94 45.5t-86 56.5t-63.5 80.5t-24.5 111.5q0 157 119.5 248.5t296.5 91.5q64 0 118.5 -19.5t91 -51.5t59.5 -63t38 -65l-164 -98q-54 114 -180 114q-69 0 -116.5 -36t-47.5 -95 q0 -37 24.5 -65.5t64 -48t87.5 -38.5t95.5 -43t87 -54.5t64 -79.5t24.5 -113q0 -166 -120.5 -266.5t-305.5 -100.5q-143 0 -234 62t-137 151zM514 1192l191 293h237l-240 -293h-188z" />
<glyph unicode="&#x15c;" horiz-adv-x="1052" d="M106 297l205 90q20 -88 80 -145.5t170 -57.5t180 60t70 159q0 49 -23 90t-61 69t-86.5 57.5t-99 54t-99 59t-86.5 72.5t-61 94.5t-23 124.5q0 190 138 313t358 123q76 0 140 -21t105 -53t71 -73t44.5 -76.5t20.5 -69.5l-197 -84q-9 30 -23.5 56.5t-39 53t-64.5 42.5 t-90 16q-103 0 -167 -58t-64 -140q0 -51 30 -94t78 -75.5t106 -64.5t116.5 -68.5t106.5 -79.5t78 -106t30 -139q0 -201 -136.5 -327t-371.5 -126q-84 0 -155 21.5t-118.5 55.5t-82.5 78.5t-53.5 86t-25.5 82.5zM477 1524l242 276h229l146 -276h-187l-90 157l-137 -157h-203z " />
<glyph unicode="&#x15d;" horiz-adv-x="872" d="M80 186l151 111q34 -59 94 -99t146 -40q80 0 133 40t53 107q0 37 -24.5 66t-63.5 50t-86 41t-94 45.5t-86 56.5t-63.5 80.5t-24.5 111.5q0 157 119.5 248.5t296.5 91.5q64 0 118.5 -19.5t91 -51.5t59.5 -63t38 -65l-164 -98q-54 114 -180 114q-69 0 -116.5 -36t-47.5 -95 q0 -37 24.5 -65.5t64 -48t87.5 -38.5t95.5 -43t87 -54.5t64 -79.5t24.5 -113q0 -166 -120.5 -266.5t-305.5 -100.5q-143 0 -234 62t-137 151zM352 1206l242 277h229l146 -277h-187l-90 158l-137 -158h-203z" />
<glyph unicode="&#x15e;" horiz-adv-x="1052" d="M106 297l205 90q20 -88 80 -145.5t170 -57.5t180 60t70 159q0 49 -23 90t-61 69t-86.5 57.5t-99 54t-99 59t-86.5 72.5t-61 94.5t-23 124.5q0 190 138 313t358 123q76 0 140 -21t105 -53t71 -73t44.5 -76.5t20.5 -69.5l-197 -84q-9 30 -23.5 56.5t-39 53t-64.5 42.5 t-90 16q-103 0 -167 -58t-64 -140q0 -51 30 -94t78 -75.5t106 -64.5t116.5 -68.5t106.5 -79.5t78 -106t30 -139q0 -193 -127 -317.5t-347 -133.5l-18 -63q64 -12 98.5 -52t34.5 -100q0 -115 -76 -172t-194 -57q-60 0 -109 14l47 125q32 -8 64 -8q48 0 81.5 21t33.5 65 q0 31 -28.5 47.5t-72.5 16.5l-35 -2l52 170q-66 10 -122 35.5t-93.5 58t-66 72.5t-44 77t-21.5 74z" />
<glyph unicode="&#x15f;" horiz-adv-x="872" d="M80 186l151 111q34 -59 94 -99t146 -40q80 0 133 40t53 107q0 37 -24.5 66t-63.5 50t-86 41t-94 45.5t-86 56.5t-63.5 80.5t-24.5 111.5q0 157 119.5 248.5t296.5 91.5q64 0 118.5 -19.5t91 -51.5t59.5 -63t38 -65l-164 -98q-54 114 -180 114q-69 0 -116.5 -36t-47.5 -95 q0 -37 24.5 -65.5t64 -48t87.5 -38.5t95.5 -43t87 -54.5t64 -79.5t24.5 -113q0 -158 -110.5 -257t-283.5 -108l-18 -63q64 -12 98.5 -52t34.5 -100q0 -115 -76 -172t-194 -57q-60 0 -109 14l47 125q32 -8 64 -8q48 0 81 21t33 65q0 31 -28 47.5t-72 16.5l-35 -2l51 172 q-191 31 -280 204z" />
<glyph unicode="&#x160;" horiz-adv-x="1052" d="M106 297l205 90q20 -88 80 -145.5t170 -57.5t180 60t70 159q0 49 -23 90t-61 69t-86.5 57.5t-99 54t-99 59t-86.5 72.5t-61 94.5t-23 124.5q0 190 138 313t358 123q76 0 140 -21t105 -53t71 -73t44.5 -76.5t20.5 -69.5l-197 -84q-9 30 -23.5 56.5t-39 53t-64.5 42.5 t-90 16q-103 0 -167 -58t-64 -140q0 -51 30 -94t78 -75.5t106 -64.5t116.5 -68.5t106.5 -79.5t78 -106t30 -139q0 -201 -136.5 -327t-371.5 -126q-84 0 -155 21.5t-118.5 55.5t-82.5 78.5t-53.5 86t-25.5 82.5zM516 1800h193l86 -155l139 155h199l-240 -276h-229z" />
<glyph unicode="&#x161;" horiz-adv-x="872" d="M80 186l151 111q34 -59 94 -99t146 -40q80 0 133 40t53 107q0 37 -24.5 66t-63.5 50t-86 41t-94 45.5t-86 56.5t-63.5 80.5t-24.5 111.5q0 157 119.5 248.5t296.5 91.5q64 0 118.5 -19.5t91 -51.5t59.5 -63t38 -65l-164 -98q-54 114 -180 114q-69 0 -116.5 -36t-47.5 -95 q0 -37 24.5 -65.5t64 -48t87.5 -38.5t95.5 -43t87 -54.5t64 -79.5t24.5 -113q0 -166 -120.5 -266.5t-305.5 -100.5q-143 0 -234 62t-137 151zM391 1483h193l86 -156l139 156h199l-240 -277h-229z" />
<glyph unicode="&#x162;" horiz-adv-x="1046" d="M246 1229l35 205h948l-35 -205h-360l-205 -1229h-72l-27 -88q64 -12 99 -52t35 -100q0 -115 -76.5 -172t-194.5 -57q-59 0 -108 14l47 125q32 -8 63 -8q48 0 81.5 21t33.5 65q0 31 -28 47.5t-72 16.5l-35 -2l57 190h-31l205 1229h-360z" />
<glyph unicode="&#x163;" horiz-adv-x="643" d="M129 -455l47 125q32 -8 64 -8q48 0 81 21t33 65q0 31 -28 47.5t-72 16.5l-35 -2l70 231q-120 97 -80 336l82 508h-119l31 184h119l38 223h222l-39 -223h217l-31 -184h-215l-84 -498q-21 -118 15.5 -160.5t132.5 -42.5l43 2l-33 -192q-39 -8 -109 -8q-47 0 -80 8l-24 -82 q64 -12 98.5 -52t34.5 -100q0 -115 -76 -172t-194 -57q-60 0 -109 14z" />
<glyph unicode="&#x164;" horiz-adv-x="1046" d="M246 1229l35 205h948l-35 -205h-360l-205 -1229h-228l205 1229h-360zM512 1800h193l86 -155l139 155h198l-239 -276h-230z" />
<glyph unicode="&#x165;" horiz-adv-x="643" d="M172 885l31 184h119l38 223h222l-39 -223h217l-31 -184h-215l-84 -498q-21 -118 15.5 -160.5t132.5 -42.5l43 2l-33 -192q-39 -8 -109 -8q-164 0 -232.5 100.5t-37.5 290.5l82 508h-119zM625 1133l71 348h230l-148 -348h-153z" />
<glyph unicode="&#x166;" horiz-adv-x="1046" d="M246 1229l35 205h948l-35 -205h-360l-66 -389h268l-28 -172h-269l-110 -668h-228l111 668h-246l29 172h246l65 389h-360z" />
<glyph unicode="&#x167;" horiz-adv-x="643" d="M113 532l26 154h119l33 199h-119l31 184h119l38 223h222l-39 -223h217l-31 -184h-215l-35 -199h209l-26 -154h-207l-25 -145q-21 -118 15.5 -160.5t132.5 -42.5l43 2l-33 -192q-39 -8 -109 -8q-164 0 -232.5 100.5t-37.5 290.5l24 155h-120z" />
<glyph unicode="&#x168;" horiz-adv-x="1394" d="M231 526l152 908h227l-151 -906q-27 -161 42.5 -252.5t227.5 -91.5q156 0 257 93t128 253l152 904h225l-152 -906q-45 -277 -206.5 -416t-425.5 -139q-265 0 -391.5 150.5t-84.5 402.5zM633 1538q19 110 88.5 178t161.5 68q46 0 92 -21t84.5 -42t66.5 -21q32 0 56 23 t30 61h152q-19 -112 -86 -179t-160 -67q-46 0 -92 21t-85.5 42t-70.5 21q-32 0 -55.5 -22.5t-30.5 -61.5h-151z" />
<glyph unicode="&#x169;" horiz-adv-x="1126" d="M177 284q-1 65 9 136l111 649h221l-110 -661q-18 -108 31 -171t143 -63q105 0 181 69.5t95 180.5l109 645h223l-180 -1069h-219l24 139q-50 -71 -133 -118.5t-184 -47.5q-80 0 -142 24t-98.5 66t-58 99t-22.5 122zM426 1217q19 110 88 177.5t162 67.5q46 0 92.5 -21 t85 -42t66.5 -21q32 0 56 23t30 61h151q-19 -112 -86 -178.5t-160 -66.5q-37 0 -74 13t-62 28.5t-55.5 28.5t-55.5 13q-33 0 -56 -22t-30 -61h-152z" />
<glyph unicode="&#x16a;" horiz-adv-x="1406" d="M231 526l152 908h227l-151 -906q-27 -161 42.5 -252.5t227.5 -91.5q156 0 257 93t128 253l152 904h225l-152 -906q-45 -277 -206.5 -416t-425.5 -139q-265 0 -391.5 150.5t-84.5 402.5zM713 1552l28 168h523l-29 -168h-522z" />
<glyph unicode="&#x16b;" horiz-adv-x="1126" d="M177 284q-1 65 9 136l111 649h221l-110 -661q-18 -108 31 -171t143 -63q105 0 181 69.5t95 180.5l109 645h223l-180 -1069h-219l24 139q-50 -71 -133 -118.5t-184 -47.5q-80 0 -142 24t-98.5 66t-58 99t-22.5 122zM522 1262l29 168h522l-29 -168h-522z" />
<glyph unicode="&#x16c;" horiz-adv-x="1394" d="M231 526l152 908h227l-151 -906q-27 -161 42.5 -252.5t227.5 -91.5q156 0 257 93t128 253l152 904h225l-152 -906q-45 -277 -206.5 -416t-425.5 -139q-265 0 -391.5 150.5t-84.5 402.5zM729 1800h160q-10 -60 11.5 -98.5t84.5 -38.5t98 38.5t45 98.5h172 q-21 -123 -109 -199.5t-224 -76.5q-134 0 -196.5 77t-41.5 199z" />
<glyph unicode="&#x16d;" horiz-adv-x="1126" d="M177 284q-1 65 9 136l111 649h221l-110 -661q-18 -108 31 -171t143 -63q105 0 181 69.5t95 180.5l109 645h223l-180 -1069h-219l24 139q-50 -71 -133 -118.5t-184 -47.5q-80 0 -142 24t-98.5 66t-58 99t-22.5 122zM528 1473h160q-10 -61 11.5 -99.5t84.5 -38.5t98.5 39 t45.5 99h172q-21 -123 -109.5 -200t-224.5 -77q-134 0 -196.5 77.5t-41.5 199.5z" />
<glyph unicode="&#x16e;" horiz-adv-x="1394" d="M231 526l152 908h227l-151 -906q-27 -161 42.5 -252.5t227.5 -91.5q156 0 257 93t128 253l152 904h225l-152 -906q-45 -277 -206.5 -416t-425.5 -139q-265 0 -391.5 150.5t-84.5 402.5zM786 1671q0 93 66.5 155t163.5 62q80 0 130 -44.5t50 -114.5q0 -95 -67 -158.5 t-164 -63.5q-78 0 -128.5 46t-50.5 118zM907 1683q0 -31 20 -49t52 -18q40 0 67 28t27 70q0 30 -19.5 49t-52.5 19q-40 0 -67 -29t-27 -70z" />
<glyph unicode="&#x16f;" horiz-adv-x="1126" d="M177 284q-1 65 9 136l111 649h221l-110 -661q-18 -108 31 -171t143 -63q105 0 181 69.5t95 180.5l109 645h223l-180 -1069h-219l24 139q-50 -71 -133 -118.5t-184 -47.5q-80 0 -142 24t-98.5 66t-58 99t-22.5 122zM594 1333q0 93 66 155t163 62q80 0 130.5 -44.5 t50.5 -114.5q0 -95 -67.5 -158.5t-164.5 -63.5q-78 0 -128 46t-50 118zM715 1346q0 -31 19.5 -49.5t51.5 -18.5q40 0 67.5 28t27.5 70q0 30 -19.5 49t-52.5 19q-40 0 -67 -28.5t-27 -69.5z" />
<glyph unicode="&#x170;" horiz-adv-x="1406" d="M231 526l152 908h227l-151 -906q-27 -161 42.5 -252.5t227.5 -91.5q156 0 257 93t128 253l152 904h225l-152 -906q-45 -277 -206.5 -416t-425.5 -139q-265 0 -391.5 150.5t-84.5 402.5zM713 1518l190 292h221l-239 -292h-172zM1032 1518l193 292h219l-238 -292h-174z" />
<glyph unicode="&#x171;" horiz-adv-x="1126" d="M177 284q-1 65 9 136l111 649h221l-110 -661q-18 -108 31 -171t143 -63q105 0 181 69.5t95 180.5l109 645h223l-180 -1069h-219l24 139q-50 -71 -133 -118.5t-184 -47.5q-80 0 -142 24t-98.5 66t-58 99t-22.5 122zM500 1192l190 293h221l-239 -293h-172zM819 1192 l193 293h219l-238 -293h-174z" />
<glyph unicode="&#x172;" horiz-adv-x="1394" d="M231 526l152 908h227l-151 -906q-27 -161 42.5 -252.5t227.5 -91.5q156 0 257 93t128 253l152 904h225l-152 -906q-73 -444 -440 -532q-28 -11 -58.5 -27.5t-64 -54t-33.5 -78.5q0 -32 25.5 -52t65.5 -20l-29 -174q-26 -4 -53 -4q-89 0 -150 43t-61 127q0 70 46.5 125 t112.5 92q-262 1 -386.5 151.5t-82.5 401.5z" />
<glyph unicode="&#x173;" horiz-adv-x="1126" d="M177.5 289.5q0.5 65.5 10.5 136.5l109 643h221l-110 -661q-18 -108 31 -171t143 -63q105 0 181 69.5t95 180.5l109 645h223l-180 -1069q-25 -9 -57 -27t-65.5 -56.5t-33.5 -80.5q0 -32 25 -52t65 -20l-29 -174q-26 -4 -53 -4q-88 0 -149.5 43t-61.5 127q0 44 20 85.5 t51 72t62.5 52t61.5 34.5h-55l24 139q-49 -69 -138.5 -117.5t-191.5 -48.5q-80 0 -140.5 24.5t-94.5 67.5t-53.5 101t-19 123.5z" />
<glyph unicode="&#x174;" horiz-adv-x="1966" d="M260 1434h244l100 -1151l510 1151h215l127 -1151l486 1151h241l-635 -1434h-256l-127 1094l-491 -1094h-256zM932 1524l242 276h229l145 -276h-186l-90 157l-137 -157h-203z" />
<glyph unicode="&#x175;" horiz-adv-x="1683" d="M193 1069h239l96 -819q-1 6 379 819h219l107 -819l369 819h245l-518 -1069h-248l-112 766l-369 -766h-246zM735 1206l242 277h229l146 -277h-187l-90 158l-137 -158h-203z" />
<glyph unicode="&#x176;" horiz-adv-x="1142" d="M256 1434h254l203 -560l395 560h258l-571 -770l-111 -664h-225l110 664zM520 1524l242 276h229l146 -276h-187l-90 157l-137 -157h-203z" />
<glyph unicode="&#x177;" horiz-adv-x="1073" d="M190 1069h234l160 -780l413 780h240l-799 -1436h-217l215 385zM438 1206l242 277h229l146 -277h-187l-90 158l-137 -158h-203z" />
<glyph unicode="&#x178;" horiz-adv-x="1142" d="M256 1434h254l203 -560l395 560h258l-571 -770l-111 -664h-225l110 664zM561 1667q0 56 43 97.5t101 41.5q45 0 73.5 -30t28.5 -74q0 -56 -42.5 -96.5t-100.5 -40.5q-45 0 -74 29.5t-29 72.5zM920 1667q0 56 42 97.5t101 41.5q45 0 73.5 -30t28.5 -74q0 -56 -42.5 -96.5 t-100.5 -40.5q-46 0 -74 29t-28 73z" />
<glyph unicode="&#x179;" horiz-adv-x="1226" d="M70 0l26 156l955 1075h-752l33 203h1050l-26 -156l-955 -1075h783l-35 -203h-1079zM741 1518l191 292h237l-239 -292h-189z" />
<glyph unicode="&#x17a;" horiz-adv-x="952" d="M61 0l25 145l668 736h-529l31 188h801l-25 -147l-665 -736h551l-31 -186h-826zM541 1192l190 293h238l-240 -293h-188z" />
<glyph unicode="&#x17b;" horiz-adv-x="1226" d="M70 0l26 156l955 1075h-752l33 203h1050l-26 -156l-955 -1075h783l-35 -203h-1079zM750 1636q0 65 49 112.5t114 47.5q52 0 85.5 -34t33.5 -85q0 -65 -49.5 -112t-114.5 -47q-52 0 -85 33.5t-33 84.5z" />
<glyph unicode="&#x17c;" horiz-adv-x="952" d="M61 0l25 145l668 736h-529l31 188h801l-25 -147l-665 -736h551l-31 -186h-826zM565 1313q0 65 49.5 112.5t114.5 47.5q52 0 85.5 -34t33.5 -85q0 -65 -49.5 -112.5t-114.5 -47.5q-52 0 -85.5 34t-33.5 85z" />
<glyph unicode="&#x17d;" horiz-adv-x="1226" d="M70 0l26 156l955 1075h-752l33 203h1050l-26 -156l-955 -1075h783l-35 -203h-1079zM604 1800h193l86 -155l139 155h199l-240 -276h-229z" />
<glyph unicode="&#x17e;" horiz-adv-x="952" d="M61 0l25 145l668 736h-529l31 188h801l-25 -147l-665 -736h551l-31 -186h-826zM420 1483h192l86 -156l140 156h198l-239 -277h-230z" />
<glyph unicode="&#x192;" horiz-adv-x="954" d="M-90 -381l37 186q45 -8 86 -8q90 0 135.5 54t73.5 192l129 647h-135l12 184h158l45 228q19 96 62 166.5t100.5 109.5t119.5 57.5t129 18.5q34 0 64.5 -3t44.5 -6l14 -3l-35 -189q-33 11 -84 11q-80 0 -129 -44t-71 -149l-41 -197h198l-12 -184h-221l-135 -686 q-4 -20 -23 -96q-19 -68 -51.5 -120.5t-70.5 -86t-85 -55.5t-93.5 -30.5t-96.5 -8.5q-77 0 -125 12z" />
<glyph unicode="&#x1fa;" horiz-adv-x="1320" d="M20 0l730 1374q-41 41 -41 115q0 94 69 156.5t166 62.5q79 0 126.5 -44.5t47.5 -115.5q0 -102 -90 -172l272 -1376h-225l-78 418h-524l-219 -418h-234zM569 608h398l-103 580zM829 1503q0 -31 19 -49t51 -18q43 0 69.5 27.5t26.5 70.5q0 30 -18 49t-51 19 q-40 0 -68.5 -29t-28.5 -70zM844 1751l190 293h238l-240 -293h-188z" />
<glyph unicode="&#x1fb;" horiz-adv-x="1060" d="M109 281q0 173 137 287t342 114q85 0 148 -23t95 -55l17 101q15 92 -37 144t-158 52q-143 0 -307 -84l-67 156q215 123 423 123q93 0 163 -20t113 -56t67.5 -86.5t27 -112t-7.5 -131.5l-115 -690h-194l-4 80q-116 -107 -293 -107q-154 0 -252 85t-98 223zM336 311 q0 -70 54 -114.5t145 -44.5q109 0 184.5 59t75.5 151q0 72 -54 115t-145 43q-112 0 -186 -59.5t-74 -149.5zM557 1315q0 93 66 155t163 62q80 0 130.5 -45t50.5 -115q0 -95 -67 -158t-165 -63q-78 0 -128 46t-50 118zM678 1327q0 -31 20 -49t52 -18q40 0 67 28t27 70 q0 30 -19.5 48.5t-52.5 18.5q-40 0 -67 -28.5t-27 -69.5zM692 1583l191 293h237l-239 -293h-189z" />
<glyph unicode="&#x1fc;" horiz-adv-x="1710" d="M16 0l961 1434h852l-35 -205h-481l-66 -400h416l-35 -202h-416l-69 -422h499l-34 -205h-727l69 418h-409l-275 -418h-250zM662 608h321l102 621h-20zM1186 1518l190 292h238l-240 -292h-188z" />
<glyph unicode="&#x1fd;" horiz-adv-x="1810" d="M109 281q0 173 136.5 287t340.5 114q85 0 149 -23t94 -55l17 101q15 92 -36 144t-157 52q-143 0 -307 -84l-67 156q215 123 423 123q133 0 215 -45.5t111 -126.5q167 172 389 172q216 0 328.5 -121.5t112.5 -331.5q0 -106 -25 -162h-803q-22 -141 55.5 -227t221.5 -86 q109 0 190.5 45t132.5 104l127 -110q-28 -38 -69 -74.5t-101 -74.5t-142.5 -61.5t-172.5 -23.5q-143 0 -247 52.5t-155 150.5q-63 -89 -165.5 -146t-247.5 -57q-154 0 -251 85t-97 223zM336 311q0 -70 54 -114.5t145 -44.5q109 0 184.5 59t75.5 151q0 72 -54 115t-145 43 q-112 0 -186 -59.5t-74 -149.5zM956 1192l191 293h237l-239 -293h-189zM1063 635h571q15 129 -52.5 201.5t-186.5 72.5q-117 0 -208.5 -74.5t-123.5 -199.5z" />
<glyph unicode="&#x1fe;" horiz-adv-x="1619" d="M178 604q0 174 70.5 333t188.5 273t279.5 182t336.5 68q216 0 372 -112l125 131l111 -103l-125 -131q141 -174 141 -418q0 -232 -118 -429t-319 -311t-437 -114q-220 0 -377 113l-125 -131l-111 102l125 131q-137 170 -137 416zM418 631q0 -152 69 -262l773 807 q-107 71 -242 71q-160 0 -298 -81.5t-220 -224t-82 -310.5zM592 260q107 -74 248 -74q95 0 185.5 30t165 86.5t131 131t87.5 169t31 196.5q0 153 -76 268zM938 1518l190 292h238l-240 -292h-188z" />
<glyph unicode="&#x1ff;" horiz-adv-x="1234" d="M139 449q0 134 54 254.5t144.5 206t213 136t254.5 50.5q158 0 282 -80l97 100l100 -90l-96 -100q102 -127 102 -308q0 -177 -90.5 -326t-243 -234t-331.5 -85q-157 0 -277 74l-98 -104l-96 90l94 98q-109 128 -109 318zM367 473q0 -102 43 -172l524 551q-70 45 -160 45 q-169 0 -288 -123.5t-119 -300.5zM504 209q61 -37 149 -37q82 0 158 32.5t132 88.5t89 134t33 165q0 94 -41 162zM698 1192l191 293h237l-239 -293h-189z" />
<glyph unicode="&#x218;" horiz-adv-x="1052" d="M106 297l205 90q20 -88 80 -145.5t170 -57.5t180 60t70 159q0 49 -23 90t-61 69t-86.5 57.5t-99 54t-99 59t-86.5 72.5t-61 94.5t-23 124.5q0 190 138 313t358 123q76 0 140 -21t105 -53t71 -73t44.5 -76.5t20.5 -69.5l-197 -84q-9 30 -23.5 56.5t-39 53t-64.5 42.5 t-90 16q-103 0 -167 -58t-64 -140q0 -51 30 -94t78 -75.5t106 -64.5t116.5 -68.5t106.5 -79.5t78 -106t30 -139q0 -201 -136.5 -327t-371.5 -126q-84 0 -155 21.5t-118.5 55.5t-82.5 78.5t-53.5 86t-25.5 82.5zM317 -455q94 69 125 136q-41 7 -63.5 38.5t-22.5 71.5 q0 58 46 102t106 44q52 0 83.5 -33.5t31.5 -89.5q0 -97 -64 -192t-164 -163z" />
<glyph unicode="&#x219;" horiz-adv-x="872" d="M80 186l151 111q34 -59 94 -99t146 -40q80 0 133 40t53 107q0 37 -24.5 66t-63.5 50t-86 41t-94 45.5t-86 56.5t-63.5 80.5t-24.5 111.5q0 157 119.5 248.5t296.5 91.5q64 0 118.5 -19.5t91 -51.5t59.5 -63t38 -65l-164 -98q-54 114 -180 114q-69 0 -116.5 -36t-47.5 -95 q0 -37 24.5 -65.5t64 -48t87.5 -38.5t95.5 -43t87 -54.5t64 -79.5t24.5 -113q0 -166 -120.5 -266.5t-305.5 -100.5q-143 0 -234 62t-137 151zM242 -455q94 69 125 136q-41 7 -63.5 38.5t-22.5 71.5q0 58 45.5 102t105.5 44q52 0 83.5 -33.5t31.5 -89.5q0 -97 -64 -192 t-164 -163z" />
<glyph unicode="&#x21a;" horiz-adv-x="1046" d="M246 1229l35 205h948l-35 -205h-360l-205 -1229h-228l205 1229h-360zM293 -455q94 69 125 136q-41 7 -63.5 38.5t-22.5 71.5q0 58 45.5 102t105.5 44q52 0 83.5 -33.5t31.5 -89.5q0 -97 -64 -192t-163 -163z" />
<glyph unicode="&#x21b;" horiz-adv-x="643" d="M172 885l31 184h119l38 223h222l-39 -223h217l-31 -184h-215l-84 -498q-21 -118 15.5 -160.5t132.5 -42.5l43 2l-33 -192q-39 -8 -109 -8q-164 0 -232.5 100.5t-37.5 290.5l82 508h-119zM176 -455q94 69 125 136q-41 7 -63.5 38.5t-22.5 71.5q0 58 46 102t106 44 q52 0 83 -33.5t31 -89.5q0 -97 -64 -192t-163 -163z" />
<glyph unicode="&#x237;" d="M-152 -387l31 188q29 -2 47 -2q166 0 195 185l182 1085h223l-182 -1094q-62 -366 -434 -366z" />
<glyph unicode="&#x2c6;" horiz-adv-x="917" d="M352 1206l242 277h229l146 -277h-187l-90 158l-137 -158h-203z" />
<glyph unicode="&#x2c7;" horiz-adv-x="917" d="M397 1483h193l86 -156l139 156h199l-240 -277h-229z" />
<glyph unicode="&#x2d8;" horiz-adv-x="917" d="M418 1473h160q-10 -61 11.5 -99.5t84.5 -38.5t98 39t45 99h172q-21 -123 -109.5 -200t-224.5 -77q-134 0 -196 77.5t-41 199.5z" />
<glyph unicode="&#x2d9;" horiz-adv-x="917" d="M541 1313q0 65 49.5 112.5t114.5 47.5q52 0 85 -34t33 -85q0 -65 -49.5 -112.5t-114.5 -47.5q-52 0 -85 34t-33 85z" />
<glyph unicode="&#x2da;" horiz-adv-x="917" d="M481 1333q0 93 66.5 155t163.5 62q80 0 130 -44.5t50 -114.5q0 -95 -67.5 -158.5t-164.5 -63.5q-78 0 -128 46t-50 118zM602 1346q0 -31 20 -49.5t52 -18.5q40 0 67 28t27 70q0 30 -19.5 49t-52.5 19q-40 0 -67 -28.5t-27 -69.5z" />
<glyph unicode="&#x2db;" horiz-adv-x="917" d="M260 -244q0 44 20.5 85.5t53 72t66 52t65.5 34.5h153q-17 -6 -39.5 -18.5t-50.5 -33t-46.5 -50.5t-18.5 -62t25 -52t65 -20l-29 -174q-26 -4 -53 -4q-89 0 -150 43t-61 127z" />
<glyph unicode="&#x2dc;" horiz-adv-x="917" d="M315 1217q19 110 88 177.5t162 67.5q46 0 92.5 -21t85 -42t66.5 -21q32 0 56 23t30 61h152q-19 -112 -86 -178.5t-160 -66.5q-46 0 -92 20.5t-85.5 41.5t-70.5 21q-33 0 -56 -22t-30 -61h-152z" />
<glyph unicode="&#x2dd;" horiz-adv-x="944" d="M330 1192l190 293h221l-239 -293h-172zM649 1192l193 293h219l-238 -293h-174z" />
<glyph unicode="&#x1e80;" horiz-adv-x="1966" d="M260 1434h244l100 -1151l510 1151h215l127 -1151l486 1151h241l-635 -1434h-256l-127 1094l-491 -1094h-256zM989 1810h238l94 -292h-186z" />
<glyph unicode="&#x1e81;" horiz-adv-x="1683" d="M193 1069h239l96 -819q-1 6 379 819h219l107 -819l369 819h245l-518 -1069h-248l-112 766l-369 -766h-246zM807 1485h237l95 -293h-187z" />
<glyph unicode="&#x1e82;" horiz-adv-x="1966" d="M260 1434h244l100 -1151l510 1151h215l127 -1151l486 1151h241l-635 -1434h-256l-127 1094l-491 -1094h-256zM1108 1518l190 292h238l-240 -292h-188z" />
<glyph unicode="&#x1e83;" horiz-adv-x="1683" d="M193 1069h239l96 -819q-1 6 379 819h219l107 -819l369 819h245l-518 -1069h-248l-112 766l-369 -766h-246zM934 1192l190 293h238l-240 -293h-188z" />
<glyph unicode="&#x1e84;" horiz-adv-x="1966" d="M260 1434h244l100 -1151l510 1151h215l127 -1151l486 1151h241l-635 -1434h-256l-127 1094l-491 -1094h-256zM963 1645q0 56 42.5 97.5t100.5 41.5q45 0 73.5 -30.5t28.5 -74.5q0 -56 -42.5 -96.5t-100.5 -40.5q-45 0 -73.5 29.5t-28.5 73.5zM1321 1645q0 56 42 97.5 t101 41.5q45 0 74 -30.5t29 -74.5q0 -56 -43 -96.5t-101 -40.5q-46 0 -74 29.5t-28 73.5z" />
<glyph unicode="&#x1e85;" horiz-adv-x="1683" d="M193 1069h239l96 -819q-1 6 379 819h219l107 -819l369 819h245l-518 -1069h-248l-112 766l-369 -766h-246zM762 1319q0 56 42.5 97.5t100.5 41.5q45 0 74 -30t29 -74q0 -56 -43 -96.5t-101 -40.5q-45 0 -73.5 29.5t-28.5 72.5zM1120 1319q0 56 42.5 97.5t101.5 41.5 q45 0 73.5 -30t28.5 -74q0 -56 -42.5 -96.5t-100.5 -40.5q-46 0 -74.5 29t-28.5 73z" />
<glyph unicode="&#x1ef2;" horiz-adv-x="1142" d="M256 1434h254l203 -560l395 560h258l-571 -770l-111 -664h-225l110 664zM612 1810h238l94 -292h-186z" />
<glyph unicode="&#x1ef3;" horiz-adv-x="1079" d="M190 1069h234l160 -780l413 780h240l-799 -1436h-217l215 385zM547 1485h237l95 -293h-187z" />
<glyph unicode="&#x2000;" horiz-adv-x="1022" />
<glyph unicode="&#x2001;" horiz-adv-x="2044" />
<glyph unicode="&#x2002;" horiz-adv-x="1022" />
<glyph unicode="&#x2003;" horiz-adv-x="2044" />
<glyph unicode="&#x2004;" horiz-adv-x="681" />
<glyph unicode="&#x2005;" horiz-adv-x="511" />
<glyph unicode="&#x2006;" horiz-adv-x="340" />
<glyph unicode="&#x2007;" horiz-adv-x="340" />
<glyph unicode="&#x2008;" horiz-adv-x="255" />
<glyph unicode="&#x2009;" horiz-adv-x="408" />
<glyph unicode="&#x200a;" horiz-adv-x="113" />
<glyph unicode="&#x2010;" horiz-adv-x="724" d="M174 518l35 203h547l-35 -203h-547z" />
<glyph unicode="&#x2011;" horiz-adv-x="724" d="M174 518l35 203h547l-35 -203h-547z" />
<glyph unicode="&#x2012;" horiz-adv-x="724" d="M174 518l35 203h547l-35 -203h-547z" />
<glyph unicode="&#x2013;" horiz-adv-x="1277" d="M176 530l31 187h1102l-31 -187h-1102z" />
<glyph unicode="&#x2014;" horiz-adv-x="1826" d="M176 530l31 187h1648l-30 -187h-1649z" />
<glyph unicode="&#x2018;" horiz-adv-x="419" d="M242 1069q0 114 72 224t188 190l86 -99q-45 -29 -89 -71t-61 -86q47 -9 73 -44t26 -79q0 -66 -51 -115t-117 -49q-57 0 -92 34.5t-35 94.5z" />
<glyph unicode="&#x2019;" horiz-adv-x="419" d="M236 1038q44 28 88 71t61 87q-47 9 -72.5 44t-25.5 79q0 66 51 115t117 49q57 0 92 -34.5t35 -94.5q0 -114 -72 -224t-188 -190z" />
<glyph unicode="&#x201a;" horiz-adv-x="466" d="M55 -182q45 29 89 71t61 86q-47 9 -73 44t-26 79q0 66 51 115t117 49q57 0 92 -34.5t35 -94.5q0 -114 -72 -224t-188 -190z" />
<glyph unicode="&#x201c;" horiz-adv-x="776" d="M242 1069q0 114 72 224t188 190l86 -99q-45 -29 -89 -71t-61 -86q47 -9 73 -44t26 -79q0 -66 -51 -115t-117 -49q-57 0 -92 34.5t-35 94.5zM598 1069q0 114 72 224t188 190l86 -99q-45 -29 -88.5 -71t-60.5 -86q47 -9 72.5 -44t25.5 -79q0 -66 -51 -115t-117 -49 q-57 0 -92 34.5t-35 94.5z" />
<glyph unicode="&#x201d;" horiz-adv-x="776" d="M236 1038q44 28 88 71t61 87q-47 9 -72.5 44t-25.5 79q0 66 51 115t117 49q57 0 92 -34.5t35 -94.5q0 -114 -72 -224t-188 -190zM592 1038q44 28 88 71t61 87q-47 9 -72.5 44t-25.5 79q0 66 51 115t117 49q57 0 92 -34.5t35 -94.5q0 -114 -72 -224t-188 -190z" />
<glyph unicode="&#x201e;" horiz-adv-x="776" d="M31 -182q45 29 88.5 71t60.5 86q-47 9 -72.5 44t-25.5 79q0 66 51 115t117 49q57 0 92 -34.5t35 -94.5q0 -114 -72 -224t-188 -190zM387 -182q45 29 89 71t61 86q-47 9 -73 44t-26 79q0 66 51 115t117 49q57 0 92 -34.5t35 -94.5q0 -114 -72 -224t-188 -190z" />
<glyph unicode="&#x2020;" horiz-adv-x="823" d="M211 893l33 194h237l58 347h219l-58 -347h242l-33 -194h-241l-150 -893h-219l150 893h-238z" />
<glyph unicode="&#x2021;" horiz-adv-x="817" d="M123 367l33 194h237l51 309h-237l33 195h237l62 369h219l-62 -369h242l-33 -195h-241l-52 -309h242l-33 -194h-241l-62 -367h-219l61 367h-237z" />
<glyph unicode="&#x2022;" horiz-adv-x="831" d="M164 584q0 164 123.5 283.5t292.5 119.5q133 0 216 -86.5t83 -214.5q0 -164 -123.5 -283.5t-292.5 -119.5q-134 0 -216.5 86t-82.5 215z" />
<glyph unicode="&#x202f;" horiz-adv-x="408" />
<glyph unicode="&#x2030;" horiz-adv-x="2365" d="M141 0l1327 1434h230l-1329 -1434h-228zM254 1085q0 152 115.5 263.5t273.5 111.5q130 0 209.5 -79.5t79.5 -200.5q0 -153 -116.5 -263t-278.5 -110q-127 0 -205 78t-78 200zM432 1108q0 -60 36.5 -98.5t96.5 -38.5q80 0 134.5 55t54.5 131q0 60 -37 98.5t-99 38.5 q-78 0 -132 -55t-54 -131zM903 252q0 152 116.5 263.5t274.5 111.5q129 0 209 -81t80 -202q0 -152 -117.5 -261.5t-277.5 -109.5q-128 0 -206.5 78.5t-78.5 200.5zM1081 274q0 -61 36 -99t97 -38q80 0 134.5 55.5t54.5 131.5q0 60 -36.5 98.5t-98.5 38.5q-77 0 -132 -55.5 t-55 -131.5zM1671 252q0 152 116.5 263.5t274.5 111.5q129 0 209 -81t80 -202q0 -152 -117.5 -261.5t-277.5 -109.5q-128 0 -206.5 78.5t-78.5 200.5zM1849 274q0 -61 36 -99t97 -38q80 0 134.5 55.5t54.5 131.5q0 60 -36.5 98.5t-98.5 38.5q-77 0 -132 -55.5t-55 -131.5z " />
<glyph unicode="&#x2039;" horiz-adv-x="585" d="M164 600l309 381h211l-315 -383l182 -377h-195z" />
<glyph unicode="&#x203a;" horiz-adv-x="585" d="M102 221l316 383l-182 377h194l193 -379l-310 -381h-211z" />
<glyph unicode="&#x2044;" horiz-adv-x="901" d="M-57 -84l1050 1602h205l-1051 -1602h-204z" />
<glyph unicode="&#x205f;" horiz-adv-x="511" />
<glyph unicode="&#x20ac;" horiz-adv-x="1302" d="M135 492l27 155h104q0 60 25 154h-105l27 155h133q99 226 302 365t444 139q220 0 346 -90l-113 -184q-107 65 -256 65t-276 -80.5t-197 -214.5h510l-41 -155h-535q-24 -77 -24 -154h522l-41 -155h-463q26 -136 123.5 -220t249.5 -84q85 0 161.5 23t121.5 51l67 -182 q-60 -42 -163.5 -74.5t-219.5 -32.5q-257 0 -414.5 145.5t-181.5 373.5h-133z" />
<glyph unicode="&#x2116;" horiz-adv-x="2318" d="M147 0l240 1434h229l523 -1078l180 1078h223l-239 -1434h-226l-524 1071l-180 -1071h-226zM1567 414l30 188h687l-31 -188h-686zM1645 1036q0 110 57.5 207t159.5 157t223 60q145 0 231 -91.5t86 -225.5q0 -168 -128.5 -294t-311.5 -126q-145 0 -231 90t-86 223z M1823 1059q0 -72 44.5 -120t123.5 -48q98 0 165.5 68.5t67.5 160.5q0 73 -44 122.5t-122 49.5q-100 0 -167.5 -70.5t-67.5 -162.5z" />
<glyph unicode="&#x2122;" horiz-adv-x="1542" d="M279 1290l24 144h526l-24 -144h-184l-101 -594h-158l101 594h-184zM778 696l125 738h189l135 -473l295 473h196l-125 -738h-151l82 480l-254 -398h-142l-114 398l-82 -480h-154z" />
<glyph unicode="&#x2212;" horiz-adv-x="1126" d="M170 547l31 182h970l-30 -182h-971z" />
<glyph unicode="&#x25fc;" horiz-adv-x="1064" d="M0 0v1065h1065v-1065h-1065z" />
<glyph unicode="&#xf6c3;" horiz-adv-x="534" d="M63 -455q94 69 125 136q-41 7 -63.5 38.5t-22.5 71.5q0 58 46 102t106 44q52 0 83.5 -33.5t31.5 -89.5q0 -97 -64 -192t-164 -163z" />
<glyph horiz-adv-x="724" d="M190 614l35 203h547l-35 -203h-547z" />
<glyph horiz-adv-x="1277" d="M193 629l30 186h1102l-31 -186h-1101z" />
<glyph horiz-adv-x="1826" d="M193 629l30 186h1649l-31 -186h-1648z" />
<glyph horiz-adv-x="940" d="M186 731l310 381h211l-316 -383l182 -377h-194zM541 731l309 381h211l-316 -383l183 -377h-195z" />
<glyph horiz-adv-x="940" d="M125 352l315 383l-182 377h195l192 -379l-309 -381h-211zM479 352l316 383l-183 377h195l192 -379l-309 -381h-211z" />
<glyph horiz-adv-x="585" d="M186 731l310 381h211l-316 -383l182 -377h-194z" />
<glyph horiz-adv-x="585" d="M125 352l315 383l-182 377h195l192 -379l-309 -381h-211z" />
<glyph horiz-adv-x="653" d="M141 156l185 1112q34 199 148 297t314 98l-32 -193q-91 0 -140.5 -47.5t-62.5 -130.5l-195 -1161q-27 -178 144 -178l-33 -193q-200 0 -281 98.5t-47 297.5z" />
<glyph horiz-adv-x="653" d="M102 -240l33 193q91 0 140.5 47.5t62.5 130.5l194 1161q31 178 -143 178l31 193q201 0 282.5 -98.5t47.5 -296.5l-187 -1112q-34 -199 -147.5 -297.5t-313.5 -98.5z" />
<glyph horiz-adv-x="653" d="M74 -240l317 1903h395l-30 -193h-174l-254 -1517h174l-33 -193h-395z" />
<glyph horiz-adv-x="647" d="M102 -240l33 193h174l254 1517h-174l31 193h395l-317 -1903h-396z" />
<glyph horiz-adv-x="753" d="M168 608l35 207q77 0 121.5 51.5t66.5 182.5l37 219q34 199 147.5 297t313.5 98l-33 -193q-172 0 -203 -178l-53 -313q-12 -67 -38 -120.5t-57.5 -82.5t-55.5 -44t-43 -21q17 -5 36.5 -19.5t42.5 -46.5t29.5 -80.5t-2.5 -120.5l-53 -313q-31 -178 143 -178l-31 -193 q-397 0 -329 396l37 219q22 129 -7.5 181t-103.5 52z" />
<glyph horiz-adv-x="546" d="M104 -383l353 2099h211l-353 -2099h-211z" />
<glyph horiz-adv-x="751" d="M102 -240l33 193q172 0 203 178l53 313q12 66 38.5 119.5t57.5 82.5t56 44.5t43 20.5q-13 5 -27.5 14t-34.5 30t-31.5 50t-18.5 73t5 101l53 313q31 178 -143 178l31 193q201 0 282.5 -98.5t47.5 -296.5l-37 -219q-22 -131 5.5 -182.5t104.5 -51.5l-35 -207 q-74 0 -120 -51.5t-68 -181.5l-37 -219q-34 -199 -147.5 -297.5t-313.5 -98.5z" />
<glyph horiz-adv-x="899" d="M10 -166l914 1757h202l-913 -1757h-203z" />
<glyph horiz-adv-x="899" d="M307 1591h199l323 -1757h-198z" />
<glyph horiz-adv-x="563" d="M166 0l192 1049h199l-158 -1049h-233zM354 1294q0 67 52.5 116.5t119.5 49.5q53 0 88 -36t35 -89q0 -67 -51.5 -116.5t-118.5 -49.5q-54 0 -89.5 36t-35.5 89z" />
<glyph horiz-adv-x="972" d="M125 305q0 76 23.5 141t61.5 112t84 89t94 78.5t89 71.5t71 77.5t38 88.5l14 86h217l-16 -99q-10 -59 -40 -111.5t-70 -92t-86 -76.5t-89.5 -72.5t-79.5 -72t-58 -83.5t-22 -100q0 -72 50 -120t133 -48q147 0 235 154l176 -80q-24 -48 -59 -91t-89 -87t-131.5 -70.5 t-168.5 -26.5q-170 0 -273.5 96t-103.5 236zM604 1296q0 65 52.5 114.5t119.5 49.5q53 0 88 -36t35 -89q0 -65 -52.5 -114.5t-119.5 -49.5q-53 0 -88 36t-35 89z" />
<glyph horiz-adv-x="487" d="M219 709q0 67 50.5 116t117.5 49q54 0 89.5 -35.5t35.5 -88.5q0 -67 -52.5 -116.5t-119.5 -49.5q-53 0 -87 36t-34 89z" />
<glyph horiz-adv-x="831" d="M180 674q0 107 57 200.5t153 148t206 54.5q134 0 216.5 -86t82.5 -215q0 -164 -123.5 -283.5t-292.5 -119.5q-134 0 -216.5 86t-82.5 215z" />
<glyph horiz-adv-x="1175" d="M208 311.5q-17 165.5 21 405.5q29 185 75 319t116 231t170 145t233 48q177 0 271 -86t111.5 -251.5t-19.5 -405.5q-61 -376 -199.5 -560t-398.5 -184q-176 0 -269.5 86.5t-110.5 252zM429.5 437q-1.5 -65 8.5 -107t31.5 -77t59.5 -51t92 -16q55 0 98.5 16.5t76 51.5 t56.5 77t43 107.5t32 127.5t27 151q12 76 18.5 130.5t9.5 113.5t-1.5 99t-16.5 78t-34.5 60t-57 35.5t-81.5 13.5q-54 0 -97.5 -16.5t-76 -51t-56.5 -77t-43 -107t-32.5 -128t-26.5 -150.5q-14 -89 -21 -152t-8.5 -128z" />
<glyph horiz-adv-x="1175" d="M182 0l35 205h334l168 1003l-313 -131l-54 174l445 183h184l-205 -1229h291l-35 -205h-850z" />
<glyph horiz-adv-x="1175" d="M137 0l15 82q16 89 70 175.5t127 155.5t158 136.5t166.5 130.5t148.5 124t108 130t41 137q0 80 -50 129t-141 49q-178 0 -266 -194l-197 57q21 59 59 115t97.5 111t149 88.5t194.5 33.5q179 0 285 -99t106 -253q0 -92 -38.5 -179.5t-101 -157t-139.5 -134.5t-157 -122 t-148.5 -108t-120 -104.5t-67.5 -101.5h641l-33 -201h-907z" />
<glyph horiz-adv-x="1175" d="M172 307l205 64q13 -84 69.5 -136.5t161.5 -52.5q120 0 204.5 81.5t84.5 203.5q0 92 -56.5 143.5t-166.5 51.5h-162l31 178l403 393h-567l33 201h825l-35 -205l-397 -379q130 0 229 -98.5t99 -241.5q0 -152 -73 -275.5t-199.5 -192.5t-280.5 -69q-86 0 -155 21t-113 54 t-75.5 78t-45.5 89.5t-19 91.5z" />
<glyph horiz-adv-x="1175" d="M117 348l28 166l775 920h256l-150 -889h178l-33 -197h-178l-57 -348h-223l57 348h-653zM389 545h414l104 620z" />
<glyph horiz-adv-x="1175" d="M170 307l207 64q10 -85 68 -137t165 -52q127 0 212 94t85 226q0 99 -56.5 163t-166.5 64q-111 0 -217 -84l-184 31l157 758h770l-34 -203h-568l-76 -367q108 60 230 60q170 0 275.5 -105.5t105.5 -275.5q0 -154 -74 -285.5t-202 -208t-281 -76.5q-84 0 -153.5 21t-115 54 t-78 78t-48.5 89.5t-21 91.5z" />
<glyph horiz-adv-x="1175" d="M195 434q0 88 8.5 177t30.5 192.5t56.5 195t91 177.5t129 147.5t176 99t226.5 37.5q187 0 314 -98l-125 -180q-82 65 -219 65q-77 0 -141.5 -27.5t-108 -71t-76.5 -102.5t-51.5 -115t-28.5 -116q49 51 133.5 89t180.5 38q166 0 263 -105t97 -274q0 -260 -153 -425 t-398 -165q-108 0 -188 35t-126.5 98.5t-68.5 145t-22 182.5zM420.5 460.5q-3.5 -52.5 3.5 -106.5t29 -89t67 -57t111 -22q130 0 210.5 91.5t80.5 242.5q0 98 -52 157.5t-151 59.5q-80 0 -155.5 -43t-127.5 -112q-12 -69 -15.5 -121.5z" />
<glyph horiz-adv-x="1175" d="M303 0l703 1231h-678l32 203h932l-26 -166l-719 -1268h-244z" />
<glyph horiz-adv-x="1175" d="M162 344q0 86 28 160t74 124.5t91 83t91 52.5q-50 34 -89.5 101t-39.5 155q0 186 144.5 313t361.5 127q176 0 283.5 -94.5t107.5 -243.5q0 -68 -23 -130t-60.5 -105.5t-75.5 -73.5t-76 -49q67 -33 117.5 -109t50.5 -186q0 -216 -158.5 -356t-400.5 -140 q-194 0 -310 101.5t-116 269.5zM397 379q0 -86 57.5 -142.5t161.5 -56.5q133 0 215 80t82 191q0 92 -59.5 146t-159.5 54q-126 0 -211.5 -76t-85.5 -196zM545 1026q0 -76 49.5 -125t132.5 -49q106 0 181 67.5t75 165.5q0 73 -49 120.5t-139 47.5q-114 0 -182 -66.5 t-68 -160.5z" />
<glyph horiz-adv-x="1175" d="M188 72l125 180q83 -66 219 -66q77 0 141.5 27.5t108 71t76.5 102.5t51.5 115t28.5 116q-49 -51 -133 -88.5t-180 -37.5q-166 0 -263.5 105t-97.5 273q0 260 153 425t398 165q108 0 188 -35t127 -98.5t69 -145t22 -182.5q0 -88 -8.5 -177t-30.5 -192.5t-56.5 -195 t-91.5 -177.5t-129.5 -147.5t-176 -99t-226.5 -37.5q-186 0 -314 99zM494 913q0 -98 51.5 -157.5t150.5 -59.5q80 0 155.5 43.5t127.5 112.5q12 69 15.5 121.5t-3.5 106.5t-29 88.5t-67 56.5t-111 22q-130 0 -210 -91.5t-80 -242.5z" />
</font>
</defs>
</svg>
