<?xml version="1.0" standalone="no"?>
<!DOCTYPE svg PUBLIC "-//W3C//DTD SVG 1.1//EN" "http://www.w3.org/Graphics/SVG/1.1/DTD/svg11.dtd" >
<svg xmlns="http://www.w3.org/2000/svg">
<metadata></metadata>
<defs>
<font id="geomanistitalic" horiz-adv-x="505" >
<font-face units-per-em="2048" ascent="1536" descent="-512" />
<missing-glyph horiz-adv-x="507" />
<glyph unicode="&#x2e;&#x2e;&#x2e;" horiz-adv-x="1574" d="M98 123q0 78 62.5 138.5t144.5 60.5q65 0 105.5 -44t40.5 -108q0 -79 -61.5 -138t-143.5 -59q-65 0 -106.5 43t-41.5 107zM635 123q0 78 62.5 138.5t144.5 60.5q65 0 105 -44t40 -108q0 -79 -61.5 -138t-143.5 -59q-65 0 -106 43t-41 107zM1174 123q0 78 62 138.5 t144 60.5q65 0 105.5 -44t40.5 -108q0 -79 -61.5 -138t-143.5 -59q-65 0 -106 43t-41 107z" />
<glyph unicode=" "  horiz-adv-x="507" />
<glyph unicode="&#x09;" horiz-adv-x="507" />
<glyph unicode="&#xa0;" horiz-adv-x="507" />
<glyph unicode="!" horiz-adv-x="598" d="M147 123q0 78 62.5 138.5t144.5 60.5q65 0 105.5 -44t40.5 -108q0 -79 -61.5 -138t-143.5 -59q-65 0 -106.5 43t-41.5 107zM242 408l147 1026h299l-192 -1026h-254z" />
<glyph unicode="&#x22;" horiz-adv-x="757" d="M254 946l72 488h229l-92 -488h-209zM608 946l72 488h229l-94 -488h-207z" />
<glyph unicode="#" horiz-adv-x="1349" d="M115 365l78 213h200l103 274h-199l78 215h200l140 367h235l-137 -367h227l138 367h237l-137 -367h197l-78 -215h-199l-102 -274h196l-78 -213h-198l-137 -365h-238l137 365h-227l-137 -365h-238l137 365h-198zM631 578h227l103 274h-228z" />
<glyph unicode="$" horiz-adv-x="1067" d="M96 305l256 119q19 -77 77 -129.5t149 -52.5q90 0 143 46t53 120q0 43 -28.5 80t-74 66t-100.5 58.5t-110 66t-100.5 79.5t-74 107t-28.5 141q0 179 121 304.5t321 145.5l17 113h176l-19 -121q73 -16 131 -52.5t91.5 -82t52 -87t25.5 -79.5l-248 -109q-46 156 -193 156 q-81 0 -130.5 -44.5t-49.5 -109.5q0 -42 29 -78.5t75 -66.5t101.5 -61t111 -68.5t101.5 -81t75 -107t29 -139.5q0 -190 -118.5 -315t-329.5 -146l-25 -151h-176l25 156q-85 13 -153 50.5t-108.5 86.5t-63 96t-30.5 90z" />
<glyph unicode="%" horiz-adv-x="1646" d="M143 0l1325 1434h275l-1325 -1434h-275zM240 1071q0 157 121.5 273t287.5 116q132 0 214.5 -84.5t82.5 -210.5q0 -157 -122 -273t-289 -116q-131 0 -213 84.5t-82 210.5zM457 1098q0 -50 30 -83.5t82 -33.5q67 0 112.5 47.5t45.5 110.5q0 50 -29.5 83t-81.5 33 q-67 0 -113 -47t-46 -110zM938 264q0 103 56 193t151 143t203 53q132 0 214.5 -84.5t82.5 -210.5q0 -103 -56.5 -193t-151.5 -143t-204 -53q-132 0 -213.5 84.5t-81.5 210.5zM1155 291q0 -49 30.5 -83t82.5 -34q67 0 112 47.5t45 110.5q0 50 -29 83.5t-81 33.5 q-67 0 -113.5 -47.5t-46.5 -110.5z" />
<glyph unicode="&#x26;" horiz-adv-x="1341" d="M117 350q0 151 79 260t234 203q-78 114 -78 229q0 173 137 295.5t349 122.5q177 0 272.5 -87.5t95.5 -231.5q0 -75 -25 -141t-72.5 -120t-104.5 -97t-132 -85l179 -204q49 74 69 192h264q-40 -231 -176 -397l119 -150l-221 -180l-115 147q-79 -60 -185 -96.5t-226 -36.5 q-220 0 -341.5 104t-121.5 273zM410 406q0 -84 62.5 -131.5t154.5 -47.5q62 0 119 22t94 54l-273 326q-72 -33 -114.5 -92.5t-42.5 -130.5zM612 1051q0 -97 119 -203q217 118 217 252q0 59 -39 96t-106 37q-79 0 -135 -53t-56 -129z" />
<glyph unicode="'" horiz-adv-x="407" d="M256 946l72 488h229l-92 -488h-209z" />
<glyph unicode="(" horiz-adv-x="679" d="M109 92l186 1112q73 434 528 434l-41 -243q-174 0 -204 -174l-191 -1143q-30 -174 148 -174l-41 -244q-457 0 -385 432z" />
<glyph unicode=")" horiz-adv-x="681" d="M74 -340l41 244q177 0 204 174l193 1143q27 174 -147 174l41 243q455 0 382 -434l-186 -1112q-72 -432 -528 -432z" />
<glyph unicode="*" horiz-adv-x="888" d="M236 965l194 100l-162 100l125 162l158 -100l35 207h192l-35 -207l197 100l66 -162l-195 -100l164 -98l-123 -164l-162 102l-35 -207h-192l35 207l-193 -102z" />
<glyph unicode="+" horiz-adv-x="1126" d="M162 524l39 228h370l66 393h237l-65 -393h371l-39 -228h-371l-65 -395h-238l65 395h-370z" />
<glyph unicode="," horiz-adv-x="499" d="M51 -190q44 27 93 73.5t69 91.5q-56 13 -86.5 54.5t-30.5 93.5q0 78 62.5 138.5t142.5 60.5q66 0 109 -42t43 -114q0 -129 -89 -262t-217 -217z" />
<glyph unicode="-" horiz-adv-x="755" d="M174 496l43 254h569l-43 -254h-569z" />
<glyph unicode="." horiz-adv-x="501" d="M98 123q0 78 62.5 138.5t144.5 60.5q65 0 105.5 -44t40.5 -108q0 -79 -61.5 -138t-143.5 -59q-65 0 -106.5 43t-41.5 107z" />
<glyph unicode="/" horiz-adv-x="925" d="M-10 -221l911 1757h254l-911 -1757h-254z" />
<glyph unicode="0" horiz-adv-x="1179" d="M213 717q59 375 203.5 559t406.5 184q263 0 350.5 -183.5t28.5 -559.5q-60 -377 -205 -560.5t-409 -183.5q-262 0 -348.5 183.5t-26.5 560.5zM478 459.5q-1 -56.5 7 -94t25.5 -66t47.5 -42t73 -13.5q52 0 92 21t68 56.5t50 98t37 130t31 167.5q15 99 21.5 166.5t4 130 t-19 98.5t-50 57t-85.5 21q-51 0 -90.5 -21t-67.5 -57t-49.5 -98.5t-36.5 -130t-30 -166.5q-13 -82 -20 -141.5t-8 -116z" />
<glyph unicode="1" horiz-adv-x="698" d="M258 1337l297 97h236l-240 -1434h-285l193 1149l-158 -51z" />
<glyph unicode="2" horiz-adv-x="1107" d="M86 0l18 115q15 90 66.5 176.5t122 155t152 133.5t160.5 123.5t144 114t104.5 115t39.5 116.5q0 67 -42 106t-116 39q-154 0 -231 -168l-248 74q19 48 46 93t72.5 95t100.5 87t133.5 61t167.5 24q184 0 301 -101.5t117 -266.5q0 -89 -35 -171.5t-93 -147.5t-128 -124.5 t-144.5 -111t-139.5 -98t-115 -95t-68 -92.5h602l-43 -252h-944z" />
<glyph unicode="3" horiz-adv-x="1107" d="M127 326l260 77q11 -73 59.5 -119t135.5 -46q100 0 167.5 63.5t67.5 161.5q0 75 -52.5 120.5t-152.5 45.5h-157l37 223l342 328h-508l43 254h848l-43 -254l-351 -316q124 -18 208.5 -112t84.5 -238q0 -114 -44 -214.5t-119.5 -172t-179.5 -113t-220 -41.5 q-90 0 -162.5 22.5t-119 58t-79 83t-47 94t-18.5 95.5z" />
<glyph unicode="4" horiz-adv-x="1204" d="M106 334l35 207l738 893h340l-144 -854h168l-41 -246h-168l-55 -334h-285l56 334h-644zM449 580h342l90 532z" />
<glyph unicode="5" horiz-adv-x="1107" d="M127 326l262 77q8 -76 58.5 -120.5t138.5 -44.5q105 0 178.5 76.5t73.5 185.5q0 80 -49 136t-144 56q-99 0 -182 -78l-234 41l162 779h809l-43 -254h-553l-61 -293q98 49 213 49q164 0 272.5 -107t108.5 -276q0 -159 -74.5 -292t-206 -210.5t-289.5 -77.5 q-88 0 -161.5 22.5t-122 58t-83.5 83t-52 94.5t-21 95z" />
<glyph unicode="6" horiz-adv-x="1150" d="M166 440q0 85 8.5 172.5t31.5 190t58.5 193.5t94.5 177.5t134 149t183 100t237 37.5q185 0 320 -94l-150 -233q-78 57 -198 57q-85 0 -154 -32.5t-111.5 -85t-67.5 -104.5t-36 -106q46 34 124.5 63t164.5 29q163 0 257.5 -100.5t94.5 -280.5q0 -262 -158.5 -431 t-406.5 -169q-113 0 -196.5 34t-133 98t-73 147t-23.5 188zM456 417q0 -42 10 -70.5t29 -53.5t53 -37t81 -12q111 0 174 74.5t63 197.5q0 82 -42.5 131t-125.5 49q-125 0 -225 -112q-9 -50 -13 -87.5t-4 -79.5z" />
<glyph unicode="7" horiz-adv-x="1044" d="M211 0l672 1180h-635l43 254h946l-37 -220l-672 -1214h-317z" />
<glyph unicode="8" horiz-adv-x="1155" d="M137 350q0 79 24.5 149.5t64.5 120.5t82.5 84.5t88.5 57.5q-46 34 -79 98t-33 146q0 191 152.5 322.5t385.5 131.5q185 0 293.5 -96.5t108.5 -251.5q0 -65 -20.5 -123.5t-54 -101.5t-68.5 -73.5t-72 -51.5q63 -37 106 -110.5t43 -172.5q0 -146 -76 -262t-210.5 -180 t-301.5 -64q-202 0 -318 102t-116 275zM436 397q0 -72 47 -116.5t133 -44.5q113 0 179.5 63.5t66.5 155.5q0 73 -48 118t-132 45q-107 0 -176.5 -62.5t-69.5 -158.5zM571 1012q0 -64 41 -103t111 -39q89 0 149 54t60 137q0 61 -40 100t-114 39q-95 0 -151 -55t-56 -133z" />
<glyph unicode="9" horiz-adv-x="1150" d="M158 68l149 233q78 -57 199 -57q69 0 127.5 22t98 56t70 79.5t47 86.5t25.5 83q-46 -34 -124 -63t-164 -29q-163 0 -258 100.5t-95 280.5q0 262 159 431t407 169q113 0 196.5 -34t133 -98t73 -147t23.5 -188q0 -85 -8.5 -172.5t-31.5 -190t-58.5 -193.5t-94.5 -177.5 t-134.5 -149t-183.5 -100t-237 -37.5q-183 0 -319 95zM524 918q0 -82 42.5 -131.5t125.5 -49.5q125 0 226 113q9 50 13 87.5t4 79.5t-10 70.5t-29 53.5t-53 37t-81 12q-111 0 -174.5 -74.5t-63.5 -197.5z" />
<glyph unicode=":" horiz-adv-x="499" d="M98 123q0 78 62.5 138.5t144.5 60.5q65 0 105.5 -44t40.5 -108q0 -79 -61.5 -138t-143.5 -59q-65 0 -106.5 43t-41.5 107zM219 850q0 78 62.5 138.5t144.5 60.5q65 0 106 -44t41 -108q0 -79 -62 -138t-142 -59q-66 0 -108 43t-42 107z" />
<glyph unicode=";" horiz-adv-x="499" d="M51 -190q44 27 93 73.5t69 91.5q-56 13 -86.5 54.5t-30.5 93.5q0 78 62.5 138.5t142.5 60.5q66 0 109 -42t43 -114q0 -129 -89 -262t-217 -217zM219 850q0 78 62 138.5t143 60.5q65 0 106 -44t41 -108q0 -79 -61 -138t-143 -59q-65 0 -106.5 43t-41.5 107z" />
<glyph unicode="&#x3c;" horiz-adv-x="1040" d="M182 537l35 204l920 387l-41 -251l-613 -242l533 -244l-43 -241z" />
<glyph unicode="=" horiz-adv-x="1126" d="M127 322l39 227h979l-39 -227h-979zM193 711l36 225h979l-37 -225h-978z" />
<glyph unicode="&#x3e;" horiz-adv-x="1040" d="M117 150l41 260l614 243l-532 242l41 233l790 -387l-33 -204z" />
<glyph unicode="?" horiz-adv-x="987" d="M244 1174q24 47 62 93t95 91.5t139 73.5t175 28q179 0 288 -95t109 -247q0 -72 -22.5 -134.5t-59 -107.5t-81.5 -85t-91 -74.5t-85.5 -68t-68.5 -73.5t-36 -83l-15 -84h-272l16 100q10 59 38 111t66 90t81 73t84.5 67t75.5 64t54.5 71t20.5 83q0 56 -39.5 94.5 t-109.5 38.5q-129 0 -203 -127zM297 123q0 78 62 138.5t143 60.5q65 0 106 -44t41 -108q0 -79 -61.5 -138t-143.5 -59q-65 0 -106 43t-41 107z" />
<glyph unicode="@" horiz-adv-x="1853" d="M150 410q0 165 53 316t148 269.5t221 206.5t279.5 135t315.5 47q163 0 299.5 -49t230 -135.5t145.5 -206t52 -258.5q0 -268 -134 -438t-341 -170q-85 0 -139 37.5t-74 101.5q-15 -19 -37 -39t-58.5 -44.5t-88 -40t-107.5 -15.5q-149 0 -236 92.5t-87 243.5 q0 130 61.5 239t164.5 170.5t224 61.5q57 0 104 -18t65.5 -33t31.5 -31l12 70h211l-82 -486q-19 -125 84 -125q91 0 153 114t62 290q0 228 -147 356.5t-397 128.5q-216 0 -394 -103.5t-278 -279.5t-100 -385q0 -246 152.5 -394.5t416.5 -148.5q209 0 403 103l78 -154 q-100 -62 -232 -98.5t-278 -36.5q-343 0 -550 195.5t-207 511.5zM821 496q0 -75 42.5 -123.5t111.5 -48.5q92 0 158.5 66.5t66.5 174.5q0 74 -42 122t-114 48q-91 0 -157 -68.5t-66 -170.5z" />
<glyph unicode="A" horiz-adv-x="1351" d="M16 0l748 1434h303l268 -1434h-286l-64 369h-487l-187 -369h-295zM616 608h334l-82 516z" />
<glyph unicode="B" horiz-adv-x="1171" d="M137 0l240 1434h454q191 0 302.5 -88t111.5 -238q0 -113 -64.5 -212.5t-164.5 -150.5q79 -37 124.5 -110t45.5 -164q0 -111 -47.5 -202t-127 -148.5t-181 -89t-212.5 -31.5h-481zM467 248h176q100 0 172 60t72 157q0 73 -50 114.5t-130 41.5h-177zM569 854h164 q85 0 147 55t62 138q0 63 -43 100t-115 37h-159z" />
<glyph unicode="C" horiz-adv-x="1306" d="M170 602q0 175 71 334.5t190.5 274t283 182t340.5 67.5q245 0 403 -131l-125 -254q-57 46 -141 80.5t-182 34.5q-108 0 -207 -43.5t-171 -116.5t-114.5 -175.5t-42.5 -215.5q0 -174 102.5 -284.5t272.5 -110.5q105 0 204 35t173 81l39 -251q-207 -136 -461 -136 q-194 0 -339.5 82.5t-220.5 224t-75 322.5z" />
<glyph unicode="D" horiz-adv-x="1341" d="M137 0l240 1434h381q309 0 481 -157t172 -435q0 -258 -111.5 -449.5t-313 -292t-468.5 -100.5h-381zM467 250h102q243 0 390 147.5t147 409.5q0 180 -100 277.5t-279 97.5h-102z" />
<glyph unicode="E" horiz-adv-x="985" d="M137 0l240 1434h737l-43 -260h-448l-54 -320h385l-43 -256h-385l-57 -340h467l-43 -258h-756z" />
<glyph unicode="F" horiz-adv-x="962" d="M137 0l240 1434h733l-43 -260h-444l-58 -338h389l-43 -258h-389l-96 -578h-289z" />
<glyph unicode="G" horiz-adv-x="1529" d="M170 602q0 172 70 330.5t188 274t281.5 184.5t341.5 69q106 0 198.5 -24t155.5 -62.5t104 -75.5t66 -75l-213 -189q-17 23 -41 45.5t-65.5 50.5t-103.5 45t-134 17q-155 0 -280 -76t-194 -202.5t-69 -276.5q0 -181 105.5 -287t277.5 -106q131 0 226 37.5t137 74.5l30 176 h-272l41 244h543l-97 -567q-151 -114 -304.5 -175t-360.5 -61q-275 0 -453 173t-178 456z" />
<glyph unicode="H" horiz-adv-x="1447" d="M137 0l240 1434h289l-97 -582h596l97 582h288l-239 -1434h-289l98 592h-596l-98 -592h-289z" />
<glyph unicode="I" horiz-adv-x="563" d="M137 0l240 1434h289l-240 -1434h-289z" />
<glyph unicode="J" horiz-adv-x="765" d="M43 8l76 256q96 -12 117 -12q72 0 116 41t56 115l172 1026h286l-180 -1078q-16 -97 -59 -169.5t-105 -115t-135.5 -63t-159.5 -20.5q-92 0 -184 20z" />
<glyph unicode="K" horiz-adv-x="1259" d="M137 0l240 1434h289l-109 -656l573 656h332l-620 -709l397 -725h-324l-372 696l-117 -696h-289z" />
<glyph unicode="L" horiz-adv-x="931" d="M137 0l240 1434h289l-197 -1174h467l-43 -260h-756z" />
<glyph unicode="M" horiz-adv-x="1837" d="M135 0l240 1434h373l245 -977l576 977h373l-240 -1434h-277l172 1024l-524 -903h-268l-221 903l-172 -1024h-277z" />
<glyph unicode="N" horiz-adv-x="1460" d="M135 0l240 1434h293l448 -983l164 983h285l-240 -1434h-287l-454 975l-164 -975h-285z" />
<glyph unicode="O" horiz-adv-x="1613" d="M170 604q0 173 69.5 331t187 273t281.5 183.5t345 68.5q191 0 335.5 -84t219.5 -226.5t75 -322.5q0 -174 -69 -332t-186 -272.5t-280.5 -182t-344.5 -67.5q-191 0 -336.5 83t-221 225.5t-75.5 322.5zM475 639q0 -174 102.5 -284.5t270.5 -110.5q108 0 206 42.5 t169.5 115.5t114 175t42.5 216q0 174 -102.5 285.5t-271.5 111.5q-107 0 -205 -43.5t-169.5 -116.5t-114 -175.5t-42.5 -215.5z" />
<glyph unicode="P" horiz-adv-x="1110" d="M137 0l240 1434h457q186 0 294.5 -102t108.5 -273q0 -148 -75 -269t-201 -188t-275 -67h-170l-90 -535h-289zM557 784h129q107 0 178.5 66.5t71.5 167.5q0 75 -49 120.5t-129 45.5h-133z" />
<glyph unicode="Q" horiz-adv-x="1615" d="M170 604q0 173 69.5 331t187 273t281.5 183.5t345 68.5q191 0 335.5 -84t219.5 -226.5t75 -322.5q0 -286 -213 -540l117 -125l-207 -195l-125 135q-214 -129 -452 -129q-191 0 -336.5 83t-221 225.5t-75.5 322.5zM475 639q0 -174 102.5 -284.5t270.5 -110.5q120 0 223 53 l-113 121l205 194l119 -127q98 151 98 308q0 174 -102.5 285.5t-271.5 111.5q-107 0 -205 -43.5t-169.5 -116.5t-114 -175.5t-42.5 -215.5z" />
<glyph unicode="R" horiz-adv-x="1198" d="M137 0l240 1434h432q202 0 312 -102t110 -263q0 -144 -79 -259t-210 -181l236 -629h-320l-184 561h-154l-94 -561h-289zM561 805h135q94 0 163 60t69 163q0 73 -48 114.5t-135 41.5h-120z" />
<glyph unicode="S" horiz-adv-x="1067" d="M96 305l256 119q19 -77 77 -129.5t149 -52.5q90 0 143 46t53 120q0 43 -28.5 80t-74 66t-100.5 58.5t-110 66t-100.5 79.5t-74 107t-28.5 141q0 194 141 324t367 130q82 0 151 -23t112.5 -57t76 -78t47.5 -82t21 -73l-248 -109q-46 156 -193 156q-81 0 -130.5 -44.5 t-49.5 -109.5q0 -42 29 -78.5t75 -66.5t101.5 -61t111 -68.5t101.5 -81t75 -107t29 -139.5q0 -208 -142 -336.5t-390 -128.5q-88 0 -162 23.5t-122.5 59.5t-84.5 82t-53.5 87.5t-24.5 79.5z" />
<glyph unicode="T" horiz-adv-x="1046" d="M240 1174l43 260h958l-43 -260h-334l-196 -1174h-289l196 1174h-335z" />
<glyph unicode="U" horiz-adv-x="1417" d="M221 539l150 895h288l-149 -895q-6 -37 -6 -70q0 -89 45 -147q62 -80 199 -80t226.5 79.5t112.5 217.5l150 895h289l-150 -895q-44 -258 -222 -412t-452 -154q-273 0 -399 154q-93 114 -93 285q0 60 11 127z" />
<glyph unicode="V" horiz-adv-x="1392" d="M252 1434h313l185 -1094l548 1094h322l-766 -1434h-313z" />
<glyph unicode="W" horiz-adv-x="2000" d="M258 1434h315l68 -1074l465 1074h266l105 -1074l430 1074h313l-623 -1434h-327l-105 989l-436 -989h-326z" />
<glyph unicode="X" horiz-adv-x="1306" d="M10 0l592 756l-334 678h330l211 -449l344 449h356l-567 -719l344 -715h-309l-242 489l-385 -489h-340z" />
<glyph unicode="Y" horiz-adv-x="1196" d="M254 1434h321l173 -514l344 514h329l-571 -779l-109 -655h-286l108 655z" />
<glyph unicode="Z" horiz-adv-x="1234" d="M66 0l30 188l865 990h-678l43 256h1069l-31 -189l-868 -989h708l-43 -256h-1095z" />
<glyph unicode="[" horiz-adv-x="679" d="M35 -340l332 1978h456l-41 -243h-176l-250 -1491h176l-40 -244h-457z" />
<glyph unicode="\" horiz-adv-x="925" d="M285 1536h256l321 -1757h-256z" />
<glyph unicode="]" horiz-adv-x="684" d="M74 -340l41 244h176l250 1491h-176l41 243h456l-332 -1978h-456z" />
<glyph unicode="^" horiz-adv-x="1140" d="M188 651l506 783h232l243 -783h-256l-141 508l-313 -508h-271z" />
<glyph unicode="_" horiz-adv-x="1257" d="M2 -281l37 222h1157l-37 -222h-1157z" />
<glyph unicode="`" horiz-adv-x="989" d="M522 1485h299l88 -295h-227z" />
<glyph unicode="a" horiz-adv-x="1077" d="M98 281q0 177 137 291t345 114q75 0 132.5 -17.5t88.5 -41.5l12 69q3 15 3 30q0 52 -35 85q-44 43 -136 43q-138 0 -297 -76l-76 193q89 54 209 90.5t236 36.5q101 0 175 -20.5t117.5 -58t67.5 -89.5t25 -116q0 -5 1 -11q0 -59 -11 -125l-113 -678h-250l-6 70 q-109 -97 -277 -97q-152 0 -250 83.5t-98 224.5zM387 322q0 -58 45 -93.5t119 -35.5q90 0 150.5 46t60.5 121q0 61 -44.5 95t-119.5 34q-90 0 -150.5 -47.5t-60.5 -119.5z" />
<glyph unicode="b" horiz-adv-x="1269" d="M111 0l247 1481h283l-88 -523q23 25 62 53.5t117.5 57.5t162.5 29q197 0 310.5 -127t113.5 -334q0 -141 -50 -265t-134.5 -211t-200.5 -137.5t-244 -50.5q-64 0 -118.5 16t-90 40.5t-55 44t-31.5 37.5l-18 -111h-266zM469 479q0 -112 59.5 -184t167.5 -72 q140 0 237 103.5t97 265.5q0 115 -61.5 185.5t-167.5 70.5q-138 0 -235 -102.5t-97 -266.5z" />
<glyph unicode="c" horiz-adv-x="1003" d="M131 446q0 135 54.5 257t146.5 208t215.5 136.5t257.5 50.5q189 0 317 -115l-116 -238q-98 103 -236 103q-151 0 -251.5 -107.5t-100.5 -255.5q0 -117 70.5 -189.5t187.5 -72.5q128 0 258 96l43 -231q-164 -115 -359 -115q-220 0 -353.5 132t-133.5 341z" />
<glyph unicode="d" horiz-adv-x="1269" d="M131 440q0 183 79 334t219.5 237.5t313.5 86.5q64 0 119.5 -16t90.5 -40.5t55.5 -45.5t29.5 -38l86 523h283l-248 -1481h-266l18 111q-18 -18 -44 -37t-69.5 -44t-103 -41t-123.5 -16q-201 0 -320.5 129t-119.5 338zM420 475q0 -117 61 -184.5t166 -67.5q145 0 239.5 109 t94.5 262q0 119 -62.5 186.5t-166.5 67.5q-140 0 -236 -107t-96 -266z" />
<glyph unicode="e" horiz-adv-x="1144" d="M133 442q0 134 49.5 256t133.5 209.5t199.5 139t242.5 51.5q211 0 325.5 -121.5t114.5 -335.5q0 -96 -24 -176h-754q-2 -19 -2 -37q0 -83 52 -140q64 -69 183 -69q96 0 168.5 41.5t114.5 89.5l170 -141q-23 -33 -63.5 -69.5t-102 -76t-148 -65t-180.5 -25.5 q-222 0 -350.5 131t-128.5 338zM459 649h461q2 18 2 34q0 73 -44 123q-54 60 -151 60t-170 -61t-98 -156z" />
<glyph unicode="f" horiz-adv-x="667" d="M160 0l141 842h-115l39 229h115l6 39q16 101 60 175t107.5 115.5t135.5 61t154 19.5q52 0 92 -4l-41 -238q-1 0 -19.5 2t-33.5 2q-150 0 -174 -139l-6 -33h188l-39 -229h-186l-142 -842h-282z" />
<glyph unicode="g" horiz-adv-x="1259" d="M129 434q0 140 50 264t134.5 211.5t200 138t242.5 50.5q63 0 117.5 -15.5t90 -39.5t56.5 -45t33 -40l18 113h266l-155 -936q-20 -117 -65.5 -208t-107.5 -150.5t-142.5 -98t-166.5 -55t-184 -16.5q-105 0 -206 28t-171 70l123 217q136 -74 293 -74q62 0 113.5 10.5 t98.5 33.5t78.5 66t41.5 103l8 50q-15 -16 -40.5 -35.5t-68 -44.5t-103.5 -41.5t-126 -16.5q-199 0 -313.5 127t-114.5 334zM418 479q0 -116 62.5 -186t166.5 -70q142 0 237 104.5t95 264.5q0 115 -61.5 185.5t-167.5 70.5q-139 0 -235.5 -104.5t-96.5 -264.5z" />
<glyph unicode="h" horiz-adv-x="1150" d="M111 0l247 1481h283l-90 -535q48 63 130 107.5t179 44.5q89 0 151.5 -28.5t94.5 -74.5q34 -46 48 -111q13 -57 12 -113v-15q-2 -64 -15 -138l-104 -618h-281l108 651q4 22 4 43q0 58 -32 97q-43 53 -117 53q-88 0 -150.5 -56.5t-76.5 -144.5l-109 -643h-282z" />
<glyph unicode="i" d="M111 0l180 1071h282l-180 -1071h-282zM305 1307q0 76 58.5 130t136.5 54q62 0 101.5 -39.5t39.5 -99.5q0 -76 -59 -130.5t-138 -54.5q-61 0 -100 40t-39 100z" />
<glyph unicode="j" d="M-152 -387l41 240q28 -5 48 -5q150 0 172 150l180 1073h282l-182 -1085q-63 -377 -471 -377zM305 1307q0 76 58 130t135 54q62 0 101.5 -39.5t39.5 -99.5q0 -76 -58 -130.5t-137 -54.5q-61 0 -100 40t-39 100z" />
<glyph unicode="k" horiz-adv-x="1089" d="M111 0l247 1481h283l-143 -860l420 450h317l-459 -491l307 -580h-323l-275 553l-92 -553h-282z" />
<glyph unicode="l" d="M111 0l247 1481h283l-248 -1481h-282z" />
<glyph unicode="m" horiz-adv-x="1742" d="M111 0l180 1071h276l-22 -125q43 63 123.5 107.5t181.5 44.5q100 0 168 -42.5t98 -117.5q61 75 150 117.5t194 42.5q176 0 252 -106q55 -77 55 -192q0 -44 -8 -93l-119 -707h-282l106 641q4 28 4 53q0 58 -24 96q-35 54 -113 54t-135 -55t-74 -150l-106 -639h-283 l109 651q4 27 4 51q0 55 -24 91q-35 51 -113 51q-77 0 -135.5 -55t-73.5 -148l-107 -641h-282z" />
<glyph unicode="n" horiz-adv-x="1146" d="M111 0l180 1071h276l-22 -125q48 62 132 107t181 45q88 0 150.5 -28.5t95.5 -74.5q32 -47 46 -111q13 -58 14 -116v-12q-2 -64 -15 -138l-105 -618h-282l108 651q4 22 4 43q0 58 -32 97q-43 53 -117 53q-86 0 -147.5 -56.5t-75.5 -144.5l-109 -643h-282z" />
<glyph unicode="o" horiz-adv-x="1255" d="M131 449q0 134 55.5 255.5t148.5 207t217.5 136t258.5 50.5q218 0 355 -136.5t137 -347.5q0 -178 -91.5 -325.5t-247.5 -231.5t-341 -84q-221 0 -356.5 133.5t-135.5 342.5zM418 481q0 -114 68 -186t178 -72q146 0 249 103.5t103 257.5q0 117 -68 190.5t-180 73.5 q-144 0 -247 -106t-103 -261z" />
<glyph unicode="p" horiz-adv-x="1271" d="M47 -383l244 1454h266l-18 -113q17 18 43.5 38t70 45t103 41t123.5 16q200 0 320 -129.5t120 -337.5q0 -183 -79 -334t-219.5 -237.5t-313.5 -86.5q-64 0 -119.5 16t-90.5 40.5t-55 44.5t-30 37l-82 -494h-283zM469 477q0 -119 62.5 -186.5t166.5 -67.5q140 0 236 107 t96 266q0 117 -61 184.5t-166 67.5q-145 0 -239.5 -109t-94.5 -262z" />
<glyph unicode="q" horiz-adv-x="1271" d="M131 434q0 187 85 340t229 238.5t315 85.5q64 0 118.5 -16t89.5 -41t55.5 -45t31.5 -38l18 113h266l-243 -1454h-283l82 494q-22 -24 -60.5 -52t-117 -57t-162.5 -29q-197 0 -310.5 127t-113.5 334zM420 479q0 -115 62 -185.5t167 -70.5q139 0 235.5 102.5t96.5 266.5 q0 111 -60 183.5t-167 72.5q-141 0 -237.5 -103t-96.5 -266z" />
<glyph unicode="r" horiz-adv-x="737" d="M111 0l180 1071h276l-26 -156q51 83 137 133t188 50l-49 -287q-152 0 -235.5 -88.5t-110.5 -255.5l-78 -467h-282z" />
<glyph unicode="s" horiz-adv-x="890" d="M68 172l190 147q82 -116 227 -116q67 0 107.5 28.5t40.5 77.5q0 28 -24 50.5t-62 39.5t-84 35t-92 42.5t-84 56t-62 82t-24 114.5q0 112 62 197.5t163 128.5t223 43q72 0 131.5 -17.5t98.5 -47t64 -60.5t40 -66l-209 -139q-67 102 -176 102q-55 0 -91 -27t-36 -69 q0 -29 24 -52t62.5 -39t85 -32t93 -39t85 -53.5t62.5 -80t24 -113.5q0 -116 -65.5 -207t-172.5 -138t-235 -47q-145 0 -237.5 59t-128.5 140z" />
<glyph unicode="t" horiz-adv-x="681" d="M164 842l39 229h114l37 225h279l-37 -225h201l-39 -229h-201l-70 -414q-7 -45 -8 -78q1 -52 19 -76q30 -38 116 -38q29 0 52 2l-41 -242q-45 -10 -123 -10q-190 0 -261 107q-47 70 -47 190q0 62 13 137l69 422h-112z" />
<glyph unicode="u" horiz-adv-x="1138" d="M163 316q2 64 15 137l105 618h280l-108 -651q-4 -22 -4 -43q0 -58 32 -97q43 -53 117 -53q87 0 149 57t76 144l109 643h280l-178 -1071h-276l20 125q-48 -62 -132 -107t-181 -45q-88 0 -150.5 28.5t-94.5 74.5t-46 111q-13 57 -13 113v16z" />
<glyph unicode="v" horiz-adv-x="1110" d="M188 1071h301l117 -770l375 770h301l-563 -1071h-328z" />
<glyph unicode="w" horiz-adv-x="1695" d="M195 1071h307l61 -760l332 760h266l76 -760l317 760h308l-502 -1071h-316l-79 686l-316 -686h-315z" />
<glyph unicode="x" horiz-adv-x="1089" d="M10 0l469 547l-272 524h313l148 -315l247 315h328l-448 -524l284 -547h-303l-166 332l-284 -332h-316z" />
<glyph unicode="y" horiz-adv-x="1105" d="M193 1071h301l122 -698l357 698h299l-787 -1438h-270l215 394z" />
<glyph unicode="z" horiz-adv-x="958" d="M57 0l29 174l594 662h-469l41 235h819l-31 -176l-594 -659h490l-39 -236h-840z" />
<glyph unicode="{" horiz-adv-x="794" d="M143 518l45 264q150 0 183 203l37 219q73 434 530 434l-41 -243q-182 0 -209 -174l-49 -303q-11 -66 -39 -119.5t-61.5 -83.5t-60 -45.5t-46.5 -20.5q17 -4 38.5 -19.5t45 -45t34 -82.5t-0.5 -119l-51 -305q-30 -174 149 -174l-41 -244q-458 0 -385 434l37 221 q33 203 -115 203z" />
<glyph unicode="|" horiz-adv-x="577" d="M76 -481l362 2169h267l-363 -2169h-266z" />
<glyph unicode="}" horiz-adv-x="794" d="M74 -340l41 244q177 0 207 174l51 305q11 66 39 119t61.5 82.5t60.5 45t46 19.5q-18 5 -39 20.5t-44.5 45.5t-34 83.5t0.5 119.5l49 303q30 174 -147 174l41 243q455 0 382 -434l-36 -219q-33 -203 116 -203l-45 -264q-146 0 -182 -203l-39 -221q-76 -434 -528 -434z" />
<glyph unicode="~" horiz-adv-x="1118" d="M137 442q27 163 125 263t242 100q62 0 125 -26.5t117.5 -52.5t95.5 -26q47 0 76.5 29t39.5 76h230q-27 -156 -125 -258.5t-240 -102.5q-52 0 -102 16.5t-83 36t-75.5 36t-81.5 16.5q-47 0 -76.5 -30t-37.5 -77h-230z" />
<glyph unicode="&#xa1;" horiz-adv-x="598" d="M96 -313l195 1026h254l-150 -1026h-299zM285 950q0 79 61 138t143 59q65 0 106.5 -43t41.5 -107q0 -78 -61.5 -138t-143.5 -60q-65 0 -106 43.5t-41 107.5z" />
<glyph unicode="&#xa2;" horiz-adv-x="1003" d="M158 602q0 125 46.5 238.5t126 197.5t188 139t229.5 70l30 187h178l-30 -189q127 -22 223 -106l-117 -238q-98 103 -235 103q-151 0 -252 -107.5t-101 -255.5q0 -117 70.5 -189.5t187.5 -72.5q129 0 259 96l43 -231q-121 -87 -267 -109l-20 -135h-178l20 135 q-185 25 -293 151.5t-108 315.5z" />
<glyph unicode="&#xa3;" horiz-adv-x="1173" d="M72 0l43 252h118l58 346h-105l37 217h105l34 209q33 193 176 314.5t347 121.5q76 0 138.5 -20.5t103 -51.5t69.5 -72t42.5 -79.5t18.5 -75.5l-251 -100q-28 123 -158 123q-76 0 -133.5 -49t-69.5 -125l-33 -195h320l-37 -217h-317l-58 -346h619l-43 -252h-1024z" />
<glyph unicode="&#xa5;" horiz-adv-x="1196" d="M199 324l30 186h316l24 145h-315l31 187h211l-236 592h322l172 -514l344 514h329l-434 -592h195l-31 -187h-301l-25 -145h302l-31 -186h-301l-53 -324h-287l53 324h-315z" />
<glyph unicode="&#xa7;" horiz-adv-x="1046" d="M45 -152l248 103q18 -59 69 -103.5t132 -44.5q71 0 116 38t45 100q0 43 -27 76.5t-83 70.5l-230 154q-157 102 -157 270q0 109 61.5 192.5t163.5 129.5q-109 102 -109 241q0 184 135 305t353 121q82 0 151 -22.5t113 -55.5t77 -76.5t48.5 -80.5t22.5 -72l-244 -102 q-18 60 -69.5 104.5t-131.5 44.5q-69 0 -116.5 -39.5t-47.5 -99.5q0 -43 27.5 -78t81.5 -70l211 -139q178 -118 178 -287q0 -107 -61 -189.5t-168 -129.5q112 -100 112 -242q0 -184 -134 -304t-351 -120q-82 0 -151.5 22t-114.5 55t-78.5 76t-49.5 80.5t-22 71.5zM426 551 q0 -59 47 -88l172 -107q65 1 107.5 41.5t42.5 94.5q0 63 -66 102l-154 92q-66 -1 -107.5 -41t-41.5 -94z" />
<glyph unicode="&#xa8;" horiz-adv-x="989" d="M379 1317q0 65 49.5 112.5t116.5 47.5q53 0 85 -34.5t32 -86.5q0 -64 -49 -111t-115 -47q-54 0 -86.5 33.5t-32.5 85.5zM772 1317q0 64 48.5 112t117.5 48q53 0 85 -34.5t32 -86.5q0 -64 -49 -111t-115 -47q-54 0 -86.5 33.5t-32.5 85.5z" />
<glyph unicode="&#xa9;" horiz-adv-x="1617" d="M180 604q0 172 69.5 330.5t185.5 273.5t276 183.5t333 68.5q187 0 331.5 -83.5t222 -228t77.5 -323.5q0 -173 -68.5 -331t-183.5 -272.5t-274.5 -182.5t-333.5 -68q-186 0 -331.5 83.5t-224.5 227.5t-79 322zM371 623q0 -213 125.5 -347.5t337.5 -134.5q135 0 256.5 52.5 t208 141.5t137.5 212.5t51 261.5q0 211 -125 345t-338 134q-180 0 -330 -88t-236.5 -240.5t-86.5 -336.5zM555 651q0 124 58.5 228.5t161.5 166.5t226 62q192 0 277 -156l-166 -121q-16 32 -50.5 57t-90.5 25q-90 0 -145.5 -69t-55.5 -170q0 -71 34.5 -114.5t98.5 -43.5 q95 0 166 82l129 -119q-22 -26 -49.5 -50t-68 -50t-95.5 -41.5t-115 -15.5q-144 0 -229.5 93t-85.5 236z" />
<glyph unicode="&#xaa;" horiz-adv-x="841" d="M213 844q0 136 101 221.5t259 85.5q97 0 166 -41l9 47q9 53 -24 84t-101 31q-100 0 -220 -58l-71 148q161 98 346 98q93 0 156 -24t91.5 -67t37.5 -101.5t-5 -126.5l-86 -508h-188l-6 49q-81 -68 -205 -68q-113 0 -186.5 62t-73.5 168zM430 877q0 -43 34 -69t89 -26 q67 0 112.5 34t45.5 89q0 44 -33 69t-88 25q-68 0 -114 -34.5t-46 -87.5z" />
<glyph unicode="&#xab;" horiz-adv-x="1003" d="M158 600l301 385h264l-311 -395l184 -373h-252zM543 600l301 385h264l-311 -395l184 -373h-252z" />
<glyph unicode="&#xad;" horiz-adv-x="755" d="M174 496l43 254h569l-43 -254h-569z" />
<glyph unicode="&#xae;" horiz-adv-x="925" d="M209 1030q0 132 63.5 244t177.5 179t252 67q173 0 277 -101.5t104 -257.5q0 -97 -37 -186t-101.5 -156t-158 -107t-200.5 -40q-171 0 -274 101t-103 257zM326 1042q0 -119 70 -192.5t196 -73.5q167 0 271 107.5t104 267.5q0 119 -71.5 190.5t-201.5 71.5 q-161 0 -264.5 -106.5t-103.5 -264.5zM451 877l73 442h181q65 0 101 -35.5t36 -89.5q0 -49 -28 -86.5t-64 -52.5l53 -178h-125l-39 153h-43l-25 -153h-120zM612 1128h50q22 0 37.5 15t15.5 37q0 17 -11 27t-28 10h-49z" />
<glyph unicode="&#xaf;" horiz-adv-x="911" d="M387 1235l35 207h549l-35 -207h-549z" />
<glyph unicode="&#xb0;" horiz-adv-x="774" d="M240 1087q0 153 115.5 263t275.5 110q127 0 203.5 -78.5t76.5 -197.5q0 -153 -113.5 -261t-275.5 -108q-128 0 -205 77t-77 195zM444 1116q0 -50 29.5 -80t81.5 -30q70 0 112 43.5t42 107.5q0 49 -30 80t-81 31q-65 0 -109.5 -45t-44.5 -107z" />
<glyph unicode="&#xb2;" horiz-adv-x="737" d="M180 621l15 86q10 59 47.5 113.5t87 92.5t105 77t101.5 68.5t76.5 64t30.5 67.5q0 32 -20.5 51t-57.5 19q-81 0 -131 -93l-164 62q108 221 326 221q115 0 191.5 -62t76.5 -163q0 -58 -26.5 -109t-66.5 -86t-90 -68.5t-95 -58t-83.5 -53t-53.5 -53.5h358l-29 -176h-598z " />
<glyph unicode="&#xb3;" horiz-adv-x="731" d="M201 823q30 11 89 32t89 32q25 -94 106 -94q50 0 83.5 29.5t33.5 78.5q0 39 -27 60.5t-75 21.5h-92l22 139l156 135h-277l31 177h541l-25 -140l-211 -182q76 -12 125 -65t49 -134q0 -144 -101.5 -226.5t-248.5 -82.5q-67 0 -119.5 21.5t-82 56.5t-45.5 70t-21 71z" />
<glyph unicode="&#xb4;" horiz-adv-x="989" d="M475 1190l187 295h296l-247 -295h-236z" />
<glyph unicode="&#xb6;" horiz-adv-x="1116" d="M244 993q0 120 63.5 222t168 160.5t224.5 58.5h218l-254 -1526h-220l125 754q-144 1 -234.5 95t-90.5 236zM786 -92l254 1526h220l-254 -1526h-220z" />
<glyph unicode="&#xb7;" horiz-adv-x="509" d="M184 618q0 78 62.5 138.5t144.5 60.5q65 0 105.5 -43.5t40.5 -107.5q0 -79 -61.5 -138t-143.5 -59q-65 0 -106.5 42.5t-41.5 106.5z" />
<glyph unicode="&#xb8;" horiz-adv-x="911" d="M195 -459l57 146q33 -11 65 -11q41 0 71 20t30 56q0 27 -26.5 41t-65.5 14l-37 -4l69 222h148l-33 -105q61 -13 94 -57t33 -103q0 -109 -84.5 -173t-206.5 -64q-60 0 -114 18z" />
<glyph unicode="&#xb9;" horiz-adv-x="585" d="M307 1372l193 62h176l-135 -813h-213l100 604l-92 -33z" />
<glyph unicode="&#xba;" horiz-adv-x="983" d="M223 971q0 135 70.5 248t188 177t253.5 64q168 0 268.5 -100.5t100.5 -259.5q0 -133 -69.5 -245.5t-187 -176.5t-255.5 -64q-166 0 -267.5 100t-101.5 257zM444 995q0 -85 49 -137.5t132 -52.5q108 0 185 78.5t77 191.5q0 86 -51 139.5t-134 53.5q-108 0 -183 -78.5 t-75 -194.5z" />
<glyph unicode="&#xbb;" horiz-adv-x="1003" d="M94 217l312 395l-185 373h252l186 -383l-301 -385h-264zM479 217l312 395l-185 373h252l186 -383l-301 -385h-264z" />
<glyph unicode="&#xbc;" horiz-adv-x="1701" d="M313 -84l1035 1602h247l-1036 -1602h-246zM326 1372l192 62h176l-135 -813h-213l100 604l-92 -33zM985 150l27 157l442 506h234l-80 -483h90l-31 -180h-90l-25 -150h-213l25 150h-379zM1217 330h178l43 262z" />
<glyph unicode="&#xbd;" horiz-adv-x="1726" d="M281 -84l1034 1602h248l-1037 -1602h-245zM326 1372l192 62h176l-135 -813h-213l100 604l-92 -33zM1038 0l15 86q10 59 47.5 113.5t87 92.5t105 77t101.5 68.5t76.5 64t30.5 67.5q0 32 -20.5 51t-57.5 19q-82 0 -131 -92l-164 61q108 221 326 221q115 0 191.5 -62 t76.5 -163q0 -58 -26.5 -109t-66.5 -86t-90 -68.5t-95 -58t-83.5 -53t-53.5 -53.5h358l-29 -176h-598z" />
<glyph unicode="&#xbe;" horiz-adv-x="1794" d="M211 823q29 11 88.5 32t89.5 32q25 -94 107 -94q50 0 83 29.5t33 78.5q0 39 -27 60.5t-75 21.5h-92l22 139l156 135h-277l31 177h541l-25 -140l-211 -182q76 -12 125 -65t49 -134q0 -144 -101.5 -226.5t-248.5 -82.5q-67 0 -119.5 21.5t-82 56.5t-45.5 70t-21 71z M408 -84l1034 1602h248l-1037 -1602h-245zM1061 150l26 157l443 506h233l-80 -483h91l-31 -180h-90l-25 -150h-213l25 150h-379zM1292 330h178l43 262z" />
<glyph unicode="&#xbf;" horiz-adv-x="987" d="M63 2q0 72 22.5 134.5t59.5 107.5t81.5 85t91 75t86 68t68.5 73.5t36 83.5l14 84h273l-17 -101q-10 -59 -38 -111t-66 -90t-81 -73t-84.5 -67t-75.5 -64t-54.5 -71t-20.5 -83q0 -56 40 -94.5t110 -38.5q129 0 203 127l221 -100q-24 -48 -62 -93.5t-95 -91.5t-139 -74 t-175 -28q-179 0 -288.5 95t-109.5 247zM526 950q0 79 61.5 138t143.5 59q65 0 106.5 -43t41.5 -107q0 -78 -61.5 -138t-143.5 -60q-65 0 -106.5 43.5t-41.5 107.5z" />
<glyph unicode="&#xc0;" horiz-adv-x="1351" d="M16 0l748 1434h303l268 -1434h-286l-64 369h-487l-187 -369h-295zM616 608h334l-82 516zM668 1806h299l88 -295h-228z" />
<glyph unicode="&#xc1;" horiz-adv-x="1351" d="M16 0l748 1434h303l268 -1434h-286l-64 369h-487l-187 -369h-295zM616 608h334l-82 516zM788 1511l187 295h297l-248 -295h-236z" />
<glyph unicode="&#xc2;" horiz-adv-x="1351" d="M16 0l748 1434h303l268 -1434h-286l-64 369h-487l-187 -369h-295zM590 1513l241 287h291l148 -287h-238l-76 146l-125 -146h-241zM616 608h334l-82 516z" />
<glyph unicode="&#xc3;" horiz-adv-x="1351" d="M16 0l748 1434h303l268 -1434h-286l-64 369h-487l-187 -369h-295zM567 1522q20 124 94.5 199t178.5 75q48 0 94 -19t82.5 -38t62.5 -19q31 0 52.5 21.5t27.5 56.5h180q-22 -126 -94.5 -200t-175.5 -74q-47 0 -93 19t-84.5 37.5t-66.5 18.5q-31 0 -51 -20t-26 -57h-181z M616 608h334l-82 516z" />
<glyph unicode="&#xc4;" horiz-adv-x="1351" d="M16 0l748 1434h303l268 -1434h-286l-64 369h-487l-187 -369h-295zM616 608h334l-82 516zM616 1642q0 65 49.5 112.5t116.5 47.5q53 0 85 -34.5t32 -86.5q0 -64 -49 -110.5t-115 -46.5q-55 0 -87 33t-32 85zM1010 1642q0 64 48.5 112t117.5 48q53 0 84.5 -34.5t31.5 -86.5 q0 -64 -49 -110.5t-115 -46.5q-54 0 -86 33t-32 85z" />
<glyph unicode="&#xc5;" horiz-adv-x="1351" d="M16 0l748 1434h303l268 -1434h-286l-64 369h-487l-187 -369h-295zM616 608h334l-82 516zM737 1671q0 99 75.5 165.5t180.5 66.5q85 0 138 -48t53 -124q0 -100 -76.5 -167t-183.5 -67q-82 0 -134.5 49t-52.5 125zM881 1686q0 -30 17.5 -48t47.5 -18q41 0 67.5 27t26.5 67 q0 30 -17.5 48t-49.5 18q-40 0 -66 -26.5t-26 -67.5z" />
<glyph unicode="&#xc6;" horiz-adv-x="1755" d="M16 0l971 1434h897l-43 -260h-446l-54 -320h383l-43 -256h-383l-57 -340h465l-43 -258h-754l62 369h-396l-245 -369h-314zM723 608h289l90 545h-19z" />
<glyph unicode="&#xc7;" horiz-adv-x="1306" d="M170 602q0 175 71 334.5t190.5 274t283 182t340.5 67.5q245 0 403 -131l-125 -254q-57 46 -141 80.5t-182 34.5q-108 0 -207 -43.5t-171 -116.5t-114.5 -175.5t-42.5 -215.5q0 -174 102.5 -284.5t272.5 -110.5q105 0 204 35t173 81l39 -251q-207 -136 -461 -136h-29 l-16 -53q61 -13 94 -57t33 -103q0 -109 -84.5 -173t-206.5 -64q-61 0 -115 18l58 146q44 -11 65 -11q41 0 71 20t30 56q0 27 -27 41t-66 14l-37 -4l60 189q-219 49 -342 213.5t-123 396.5z" />
<glyph unicode="&#xc8;" horiz-adv-x="985" d="M137 0l240 1434h737l-43 -260h-448l-54 -320h385l-43 -256h-385l-57 -340h467l-43 -258h-756zM541 1806h299l88 -295h-228z" />
<glyph unicode="&#xc9;" horiz-adv-x="985" d="M137 0l240 1434h737l-43 -260h-448l-54 -320h385l-43 -256h-385l-57 -340h467l-43 -258h-756zM616 1511l187 295h297l-248 -295h-236z" />
<glyph unicode="&#xca;" horiz-adv-x="985" d="M137 0l240 1434h737l-43 -260h-448l-54 -320h385l-43 -256h-385l-57 -340h467l-43 -258h-756zM428 1513l242 287h291l147 -287h-238l-75 146l-125 -146h-242z" />
<glyph unicode="&#xcb;" horiz-adv-x="985" d="M137 0l240 1434h737l-43 -260h-448l-54 -320h385l-43 -256h-385l-57 -340h467l-43 -258h-756zM457 1642q0 65 49.5 112.5t116.5 47.5q53 0 84.5 -34.5t31.5 -86.5q0 -64 -49 -110.5t-115 -46.5q-54 0 -86 33t-32 85zM850 1642q0 64 48.5 112t117.5 48q53 0 85 -34.5 t32 -86.5q0 -64 -49 -110.5t-115 -46.5q-55 0 -87 33t-32 85z" />
<glyph unicode="&#xcc;" horiz-adv-x="563" d="M137 0l240 1434h289l-240 -1434h-289zM305 1806h299l88 -295h-227z" />
<glyph unicode="&#xcd;" horiz-adv-x="563" d="M137 0l240 1434h289l-240 -1434h-289zM393 1511l187 295h297l-248 -295h-236z" />
<glyph unicode="&#xce;" horiz-adv-x="563" d="M137 0l240 1434h289l-240 -1434h-289zM201 1513l241 287h291l148 -287h-238l-76 146l-125 -146h-241z" />
<glyph unicode="&#xcf;" horiz-adv-x="563" d="M137 0l240 1434h289l-240 -1434h-289zM236 1642q0 65 49 112.5t116 47.5q53 0 85 -34.5t32 -86.5q0 -64 -49 -110.5t-115 -46.5q-54 0 -86 33t-32 85zM629 1642q0 64 48.5 112t117.5 48q53 0 84.5 -34.5t31.5 -86.5q0 -64 -48.5 -110.5t-114.5 -46.5q-55 0 -87 33t-32 85 z" />
<glyph unicode="&#xd0;" horiz-adv-x="1363" d="M145 594l43 254h115l98 586h379q304 0 480 -165t176 -427q0 -259 -108.5 -450t-307.5 -291.5t-465 -100.5h-395l100 594h-115zM492 250h102q118 0 216 37t169.5 106.5t111 175.5t39.5 238q0 180 -100.5 277.5t-279.5 97.5h-103l-55 -334h223l-43 -254h-223z" />
<glyph unicode="&#xd1;" horiz-adv-x="1460" d="M135 0l240 1434h293l448 -983l164 983h285l-240 -1434h-287l-454 975l-164 -975h-285zM629 1522q20 124 94 199t178 75q48 0 94 -19t83 -38t63 -19q31 0 52.5 21.5t27.5 56.5h180q-22 -126 -95 -200t-176 -74q-46 0 -92 19t-84.5 37.5t-66.5 18.5q-31 0 -51.5 -20 t-26.5 -57h-180z" />
<glyph unicode="&#xd2;" horiz-adv-x="1613" d="M170 604q0 173 69.5 331t187 273t281.5 183.5t345 68.5q191 0 335.5 -84t219.5 -226.5t75 -322.5q0 -174 -69 -332t-186 -272.5t-280.5 -182t-344.5 -67.5q-191 0 -336.5 83t-221 225.5t-75.5 322.5zM475 639q0 -174 102.5 -284.5t270.5 -110.5q108 0 206 42.5 t169.5 115.5t114 175t42.5 216q0 174 -102.5 285.5t-271.5 111.5q-107 0 -205 -43.5t-169.5 -116.5t-114 -175.5t-42.5 -215.5zM811 1806h299l88 -295h-227z" />
<glyph unicode="&#xd3;" horiz-adv-x="1613" d="M170 604q0 173 69.5 331t187 273t281.5 183.5t345 68.5q191 0 335.5 -84t219.5 -226.5t75 -322.5q0 -174 -69 -332t-186 -272.5t-280.5 -182t-344.5 -67.5q-191 0 -336.5 83t-221 225.5t-75.5 322.5zM475 639q0 -174 102.5 -284.5t270.5 -110.5q108 0 206 42.5 t169.5 115.5t114 175t42.5 216q0 174 -102.5 285.5t-271.5 111.5q-107 0 -205 -43.5t-169.5 -116.5t-114 -175.5t-42.5 -215.5zM913 1511l187 295h297l-248 -295h-236z" />
<glyph unicode="&#xd4;" horiz-adv-x="1613" d="M170 604q0 173 69.5 331t187 273t281.5 183.5t345 68.5q191 0 335.5 -84t219.5 -226.5t75 -322.5q0 -174 -69 -332t-186 -272.5t-280.5 -182t-344.5 -67.5q-191 0 -336.5 83t-221 225.5t-75.5 322.5zM475 639q0 -174 102.5 -284.5t270.5 -110.5q108 0 206 42.5 t169.5 115.5t114 175t42.5 216q0 174 -102.5 285.5t-271.5 111.5q-107 0 -205 -43.5t-169.5 -116.5t-114 -175.5t-42.5 -215.5zM727 1513l242 287h291l147 -287h-238l-75 146l-125 -146h-242z" />
<glyph unicode="&#xd5;" horiz-adv-x="1613" d="M170 604q0 173 69.5 331t187 273t281.5 183.5t345 68.5q191 0 335.5 -84t219.5 -226.5t75 -322.5q0 -174 -69 -332t-186 -272.5t-280.5 -182t-344.5 -67.5q-191 0 -336.5 83t-221 225.5t-75.5 322.5zM475 639q0 -174 102.5 -284.5t270.5 -110.5q108 0 206 42.5 t169.5 115.5t114 175t42.5 216q0 174 -102.5 285.5t-271.5 111.5q-107 0 -205 -43.5t-169.5 -116.5t-114 -175.5t-42.5 -215.5zM700 1522q20 124 94.5 199t178.5 75q48 0 94 -19t82.5 -38t62.5 -19q31 0 52.5 21.5t27.5 56.5h181q-22 -126 -95 -200t-176 -74q-46 0 -92.5 19 t-85 37.5t-66.5 18.5q-31 0 -51 -20t-26 -57h-181z" />
<glyph unicode="&#xd6;" horiz-adv-x="1615" d="M170 604q0 173 69.5 331t187 273t281.5 183.5t345 68.5q191 0 335.5 -84t219.5 -226.5t75 -322.5q0 -174 -69 -332t-186 -272.5t-280.5 -182t-344.5 -67.5q-191 0 -336.5 83t-221 225.5t-75.5 322.5zM475 639q0 -174 102.5 -284.5t270.5 -110.5q108 0 206 42.5 t169.5 115.5t114 175t42.5 216q0 174 -102.5 285.5t-271.5 111.5q-107 0 -205 -43.5t-169.5 -116.5t-114 -175.5t-42.5 -215.5zM754 1642q0 65 49.5 112.5t116.5 47.5q53 0 84.5 -34.5t31.5 -86.5q0 -64 -49 -110.5t-115 -46.5q-54 0 -86 33t-32 85zM1147 1642 q0 64 48.5 112t117.5 48q53 0 85 -34.5t32 -86.5q0 -64 -49 -110.5t-115 -46.5q-55 0 -87 33t-32 85z" />
<glyph unicode="&#xd7;" horiz-adv-x="1083" d="M106 307l381 342l-249 324l180 155l248 -319l362 326l146 -166l-373 -334l260 -334l-180 -156l-256 330l-373 -334z" />
<glyph unicode="&#xd8;" horiz-adv-x="1613" d="M170 604q0 173 69.5 331t187 273t281.5 183.5t345 68.5q208 0 360 -100l119 123l135 -123l-117 -123q133 -169 133 -410q0 -174 -69 -332t-186 -272.5t-280.5 -182t-344.5 -67.5q-218 0 -371 103l-121 -125l-133 123l121 125q-129 167 -129 405zM475 639q0 -118 47 -207 l680 707q-85 51 -196 51q-107 0 -205 -43.5t-169.5 -116.5t-114 -175.5t-42.5 -215.5zM645 297q83 -53 203 -53q108 0 206 42.5t169.5 115.5t114 175t42.5 216q0 123 -53 215z" />
<glyph unicode="&#xd9;" horiz-adv-x="1417" d="M221 539l150 895h288l-149 -895q-23 -138 39 -217.5t199 -79.5t226.5 79.5t112.5 217.5l150 895h289l-150 -895q-44 -258 -222 -412t-452 -154q-273 0 -399 154t-82 412zM721 1806h299l88 -295h-227z" />
<glyph unicode="&#xda;" horiz-adv-x="1417" d="M221 539l150 895h288l-149 -895q-23 -138 39 -217.5t199 -79.5t226.5 79.5t112.5 217.5l150 895h289l-150 -895q-44 -258 -222 -412t-452 -154q-273 0 -399 154t-82 412zM825 1511l187 295h297l-248 -295h-236z" />
<glyph unicode="&#xdb;" horiz-adv-x="1417" d="M221 539l150 895h288l-149 -895q-23 -138 39 -217.5t199 -79.5t226.5 79.5t112.5 217.5l150 895h289l-150 -895q-44 -258 -222 -412t-452 -154q-273 0 -399 154t-82 412zM623 1513l241 287h291l148 -287h-238l-76 146l-125 -146h-241z" />
<glyph unicode="&#xdc;" horiz-adv-x="1417" d="M221 539l150 895h288l-149 -895q-23 -138 39 -217.5t199 -79.5t226.5 79.5t112.5 217.5l150 895h289l-150 -895q-44 -258 -222 -412t-452 -154q-273 0 -399 154t-82 412zM655 1642q0 65 49.5 112.5t116.5 47.5q53 0 85 -34.5t32 -86.5q0 -64 -49 -110.5t-115 -46.5 q-55 0 -87 33t-32 85zM1049 1642q0 64 48 112t117 48q53 0 85 -34.5t32 -86.5q0 -64 -49 -110.5t-115 -46.5q-54 0 -86 33t-32 85z" />
<glyph unicode="&#xdd;" horiz-adv-x="1196" d="M254 1434h321l173 -514l344 514h329l-571 -779l-109 -655h-286l108 655zM719 1511l186 295h297l-248 -295h-235z" />
<glyph unicode="&#xde;" horiz-adv-x="1110" d="M137 0l240 1434h289l-41 -252h168q182 0 292.5 -106.5t110.5 -268.5q0 -148 -75.5 -269t-202 -188t-275.5 -67h-170l-47 -283h-289zM516 532h129q106 0 178 66.5t72 167.5q0 75 -49 120.5t-131 45.5h-133z" />
<glyph unicode="&#xdf;" horiz-adv-x="1146" d="M111 0l186 1110q13 79 46 142.5t78.5 106t104 70.5t122 40t134.5 12q178 0 285 -81.5t107 -205.5q0 -106 -55.5 -184.5t-123.5 -112.5q86 -46 139.5 -129t53.5 -205q0 -167 -86.5 -296t-239 -198t-346.5 -69l39 238q155 0 251.5 81t96.5 218q0 104 -73.5 157.5 t-188.5 53.5l37 225q96 0 153.5 42.5t57.5 114.5q0 47 -35.5 80t-99.5 33q-73 0 -120 -39t-59 -110l-182 -1094h-282z" />
<glyph unicode="&#xe0;" horiz-adv-x="1077" d="M98 281q0 177 137 291t345 114q75 0 132.5 -17.5t88.5 -41.5l12 69q12 72 -32 115t-136 43q-138 0 -297 -76l-76 193q89 54 209 90.5t236 36.5q101 0 175 -20.5t117.5 -58t67.5 -90t25 -116t-10 -135.5l-113 -678h-250l-6 70q-109 -97 -277 -97q-152 0 -250 83.5 t-98 224.5zM387 322q0 -58 45 -93.5t119 -35.5q90 0 150.5 46t60.5 121q0 61 -44.5 95t-119.5 34q-90 0 -150.5 -47.5t-60.5 -119.5zM506 1485h299l88 -295h-227z" />
<glyph unicode="&#xe1;" horiz-adv-x="1077" d="M98 281q0 177 137 291t345 114q75 0 132.5 -17.5t88.5 -41.5l12 69q12 72 -32 115t-136 43q-138 0 -297 -76l-76 193q89 54 209 90.5t236 36.5q101 0 175 -20.5t117.5 -58t67.5 -90t25 -116t-10 -135.5l-113 -678h-250l-6 70q-109 -97 -277 -97q-152 0 -250 83.5 t-98 224.5zM387 322q0 -58 45 -93.5t119 -35.5q90 0 150.5 46t60.5 121q0 61 -44.5 95t-119.5 34q-90 0 -150.5 -47.5t-60.5 -119.5zM598 1190l186 295h297l-247 -295h-236z" />
<glyph unicode="&#xe2;" horiz-adv-x="1077" d="M98 281q0 177 137 291t345 114q75 0 132.5 -17.5t88.5 -41.5l12 69q12 72 -32 115t-136 43q-138 0 -297 -76l-76 193q89 54 209 90.5t236 36.5q101 0 175 -20.5t117.5 -58t67.5 -90t25 -116t-10 -135.5l-113 -678h-250l-6 70q-109 -97 -277 -97q-152 0 -250 83.5 t-98 224.5zM387 322q0 -58 45 -93.5t119 -35.5q90 0 150.5 46t60.5 121q0 61 -44.5 95t-119.5 34q-90 0 -150.5 -47.5t-60.5 -119.5zM399 1196l242 287h291l147 -287h-237l-76 145l-125 -145h-242z" />
<glyph unicode="&#xe3;" horiz-adv-x="1077" d="M98 281q0 177 137 291t345 114q75 0 132.5 -17.5t88.5 -41.5l12 69q12 72 -32 115t-136 43q-138 0 -297 -76l-76 193q89 54 209 90.5t236 36.5q101 0 175 -20.5t117.5 -58t67.5 -90t25 -116t-10 -135.5l-113 -678h-250l-6 70q-109 -97 -277 -97q-152 0 -250 83.5 t-98 224.5zM367 1200q20 124 94 199.5t178 75.5q48 0 94 -19t83 -38t63 -19q31 0 52 21t27 57h181q-22 -126 -95 -200.5t-176 -74.5q-46 0 -92 19t-84.5 38t-66.5 19q-31 0 -51.5 -20.5t-26.5 -57.5h-180zM387 322q0 -58 45 -93.5t119 -35.5q90 0 150.5 46t60.5 121 q0 61 -44.5 95t-119.5 34q-90 0 -150.5 -47.5t-60.5 -119.5z" />
<glyph unicode="&#xe4;" horiz-adv-x="1077" d="M98 281q0 177 137 291t345 114q75 0 132.5 -17.5t88.5 -41.5l12 69q12 72 -32 115t-136 43q-138 0 -297 -76l-76 193q89 54 209 90.5t236 36.5q101 0 175 -20.5t117.5 -58t67.5 -90t25 -116t-10 -135.5l-113 -678h-250l-6 70q-109 -97 -277 -97q-152 0 -250 83.5 t-98 224.5zM387 322q0 -58 45 -93.5t119 -35.5q90 0 150.5 46t60.5 121q0 61 -44.5 95t-119.5 34q-90 0 -150.5 -47.5t-60.5 -119.5zM434 1317q0 65 49.5 112.5t116.5 47.5q53 0 85 -34.5t32 -86.5q0 -64 -49 -111t-115 -47q-54 0 -86.5 33.5t-32.5 85.5zM827 1317 q0 64 48.5 112t117.5 48q53 0 85 -34.5t32 -86.5q0 -64 -49 -111t-115 -47q-54 0 -86.5 33.5t-32.5 85.5z" />
<glyph unicode="&#xe5;" horiz-adv-x="1077" d="M98 281q0 177 137 291t345 114q75 0 132.5 -17.5t88.5 -41.5l12 69q12 72 -32 115t-136 43q-138 0 -297 -76l-76 193q89 54 209 90.5t236 36.5q101 0 175 -20.5t117.5 -58t67.5 -90t25 -116t-10 -135.5l-113 -678h-250l-6 70q-109 -97 -277 -97q-152 0 -250 83.5 t-98 224.5zM387 322q0 -58 45 -93.5t119 -35.5q90 0 150.5 46t60.5 121q0 61 -44.5 95t-119.5 34q-90 0 -150.5 -47.5t-60.5 -119.5zM553 1329q0 99 75.5 165.5t180.5 66.5q85 0 137.5 -47.5t52.5 -124.5q0 -100 -76.5 -167t-183.5 -67q-82 0 -134 49t-52 125zM696 1343 q0 -29 18 -47t48 -18q41 0 67.5 27t26.5 67q0 30 -18 48t-50 18q-40 0 -66 -27t-26 -68z" />
<glyph unicode="&#xe6;" horiz-adv-x="1781" d="M98 281q0 178 136 291.5t346 113.5q75 0 132.5 -17.5t86.5 -41.5l12 69q12 72 -32 115t-136 43q-138 0 -297 -76q-15 36 -40 103.5t-34 89.5q214 127 443 127q238 0 319 -135q157 135 361 135q211 0 325.5 -121.5t114.5 -335.5q0 -93 -25 -176h-753q-14 -108 51 -177 t184 -69q67 0 128.5 25t94.5 51t58 55l170 -141q-24 -33 -65 -69.5t-102.5 -76t-148 -65t-180.5 -25.5q-136 0 -237 46t-158 133q-146 -179 -408 -179q-150 0 -248 83.5t-98 224.5zM385 322q0 -58 45.5 -93.5t118.5 -35.5q91 0 150 47t59 122q0 59 -43.5 93t-116.5 34 q-91 0 -152 -47.5t-61 -119.5zM1096 649h458q10 98 -43 157.5t-151 59.5q-96 0 -167.5 -61t-96.5 -156z" />
<glyph unicode="&#xe7;" horiz-adv-x="1003" d="M131 446q0 135 54.5 257t146.5 208t215.5 136.5t257.5 50.5q189 0 317 -115l-116 -238q-98 103 -236 103q-151 0 -251.5 -107.5t-100.5 -255.5q0 -117 70.5 -189.5t187.5 -72.5q128 0 258 96l43 -231q-164 -115 -359 -115h-2l-16 -53q61 -13 94 -57t33 -103 q0 -109 -84.5 -173t-206.5 -64q-60 0 -114 18l57 146q44 -11 65 -11q41 0 71 20t30 56q0 27 -26.5 41t-65.5 14l-37 -4l59 189q-160 38 -252 160t-92 294z" />
<glyph unicode="&#xe8;" horiz-adv-x="1144" d="M133 442q0 134 49.5 256t133.5 209.5t199.5 139t242.5 51.5q211 0 325.5 -121.5t114.5 -335.5q0 -96 -24 -176h-754q-14 -108 50.5 -177t182.5 -69q96 0 168.5 41.5t114.5 89.5l170 -141q-23 -33 -63.5 -69.5t-102 -76t-148 -65t-180.5 -25.5q-222 0 -350.5 131 t-128.5 338zM459 649h461q12 98 -42 157.5t-151 59.5t-170 -61t-98 -156zM543 1485h299l88 -295h-228z" />
<glyph unicode="&#xe9;" horiz-adv-x="1144" d="M133 442q0 134 49.5 256t133.5 209.5t199.5 139t242.5 51.5q211 0 325.5 -121.5t114.5 -335.5q0 -96 -24 -176h-754q-14 -108 50.5 -177t182.5 -69q96 0 168.5 41.5t114.5 89.5l170 -141q-23 -33 -63.5 -69.5t-102 -76t-148 -65t-180.5 -25.5q-222 0 -350.5 131 t-128.5 338zM459 649h461q12 98 -42 157.5t-151 59.5t-170 -61t-98 -156zM631 1190l186 295h297l-248 -295h-235z" />
<glyph unicode="&#xea;" horiz-adv-x="1144" d="M133 442q0 134 49.5 256t133.5 209.5t199.5 139t242.5 51.5q211 0 325.5 -121.5t114.5 -335.5q0 -96 -24 -176h-754q-14 -108 50.5 -177t182.5 -69q96 0 168.5 41.5t114.5 89.5l170 -141q-23 -33 -63.5 -69.5t-102 -76t-148 -65t-180.5 -25.5q-222 0 -350.5 131 t-128.5 338zM449 1196l241 287h291l147 -287h-237l-76 145l-125 -145h-241zM459 649h461q12 98 -42 157.5t-151 59.5t-170 -61t-98 -156z" />
<glyph unicode="&#xeb;" horiz-adv-x="1144" d="M133 442q0 134 49.5 256t133.5 209.5t199.5 139t242.5 51.5q211 0 325.5 -121.5t114.5 -335.5q0 -96 -24 -176h-754q-14 -108 50.5 -177t182.5 -69q96 0 168.5 41.5t114.5 89.5l170 -141q-23 -33 -63.5 -69.5t-102 -76t-148 -65t-180.5 -25.5q-222 0 -350.5 131 t-128.5 338zM459 649h461q12 98 -42 157.5t-151 59.5t-170 -61t-98 -156zM475 1317q0 65 49.5 112.5t116.5 47.5q53 0 85 -34.5t32 -86.5q0 -64 -49 -111t-115 -47q-54 0 -86.5 33.5t-32.5 85.5zM868 1317q0 64 48.5 112t117.5 48q53 0 85 -34.5t32 -86.5q0 -64 -49 -111 t-115 -47q-54 0 -86.5 33.5t-32.5 85.5z" />
<glyph unicode="&#xec;" d="M111 0l180 1071h282l-180 -1071h-282zM217 1485h299l88 -295h-227z" />
<glyph unicode="&#xed;" d="M111 0l180 1071h282l-180 -1071h-282zM297 1190l186 295h297l-248 -295h-235z" />
<glyph unicode="&#xee;" d="M111 0l180 1071h282l-180 -1071h-282zM121 1196l241 287h291l148 -287h-238l-76 145l-125 -145h-241z" />
<glyph unicode="&#xef;" d="M111 0l180 1071h282l-180 -1071h-282zM145 1317q0 65 49.5 112.5t116.5 47.5q53 0 85 -34.5t32 -86.5q0 -64 -49 -111t-115 -47q-54 0 -86.5 33.5t-32.5 85.5zM539 1317q0 64 48.5 112t117.5 48q53 0 84.5 -34.5t31.5 -86.5q0 -64 -49 -111t-115 -47q-54 0 -86 33.5 t-32 85.5z" />
<glyph unicode="&#xf0;" horiz-adv-x="1204" d="M129 430q0 170 86 308t223 212t293 74q67 0 117 -16q-38 85 -103 137l-348 -121l4 178l203 74q-59 48 -160 106l187 142q117 -55 260 -158l287 102l-4 -184l-152 -53q107 -114 168 -258t61 -301q0 -104 -25.5 -204t-79.5 -190t-130.5 -157.5t-186 -107.5t-239.5 -40 q-108 0 -196 35.5t-145.5 97.5t-88.5 145t-31 179zM414 461q0 -104 57 -172t158 -68q151 0 238 101.5t87 240.5q0 97 -59 163.5t-158 66.5q-145 0 -234 -97t-89 -235z" />
<glyph unicode="&#xf1;" horiz-adv-x="1146" d="M111 0l180 1071h276l-22 -125q48 62 132 107t181 45q88 0 150.5 -28.5t95 -74.5t47 -110.5t13 -128.5t-14.5 -138l-105 -618h-282l108 651q15 87 -28 140t-117 53q-86 0 -147.5 -56.5t-75.5 -144.5l-109 -643h-282zM416 1200q20 124 94 199.5t178 75.5q48 0 94 -19 t83 -38t63 -19q31 0 52.5 21.5t27.5 56.5h180q-22 -126 -94.5 -200.5t-175.5 -74.5q-46 0 -92.5 19t-85 38t-66.5 19q-31 0 -51.5 -20.5t-26.5 -57.5h-180z" />
<glyph unicode="&#xf2;" horiz-adv-x="1255" d="M131 449q0 134 55.5 255.5t148.5 207t217.5 136t258.5 50.5q218 0 355 -136.5t137 -347.5q0 -178 -91.5 -325.5t-247.5 -231.5t-341 -84q-221 0 -356.5 133.5t-135.5 342.5zM418 481q0 -114 68 -186t178 -72q146 0 249 103.5t103 257.5q0 117 -68 190.5t-180 73.5 q-144 0 -247 -106t-103 -261zM575 1485h299l89 -295h-228z" />
<glyph unicode="&#xf3;" horiz-adv-x="1255" d="M131 449q0 134 55.5 255.5t148.5 207t217.5 136t258.5 50.5q218 0 355 -136.5t137 -347.5q0 -178 -91.5 -325.5t-247.5 -231.5t-341 -84q-221 0 -356.5 133.5t-135.5 342.5zM418 481q0 -114 68 -186t178 -72q146 0 249 103.5t103 257.5q0 117 -68 190.5t-180 73.5 q-144 0 -247 -106t-103 -261zM676 1190l186 295h297l-248 -295h-235z" />
<glyph unicode="&#xf4;" horiz-adv-x="1255" d="M131 449q0 134 55.5 255.5t148.5 207t217.5 136t258.5 50.5q218 0 355 -136.5t137 -347.5q0 -178 -91.5 -325.5t-247.5 -231.5t-341 -84q-221 0 -356.5 133.5t-135.5 342.5zM418 481q0 -114 68 -186t178 -72q146 0 249 103.5t103 257.5q0 117 -68 190.5t-180 73.5 q-144 0 -247 -106t-103 -261zM496 1196l241 287h291l148 -287h-238l-76 145l-125 -145h-241z" />
<glyph unicode="&#xf5;" horiz-adv-x="1255" d="M131 449q0 134 55.5 255.5t148.5 207t217.5 136t258.5 50.5q218 0 355 -136.5t137 -347.5q0 -178 -91.5 -325.5t-247.5 -231.5t-341 -84q-221 0 -356.5 133.5t-135.5 342.5zM418 481q0 -114 68 -186t178 -72q146 0 249 103.5t103 257.5q0 117 -68 190.5t-180 73.5 q-144 0 -247 -106t-103 -261zM469 1200q20 124 94 199.5t178 75.5q48 0 94 -19t83 -38t63 -19q31 0 52.5 21.5t27.5 56.5h180q-22 -126 -94.5 -200.5t-175.5 -74.5q-46 0 -92.5 19t-85 38t-66.5 19q-31 0 -51.5 -20.5t-26.5 -57.5h-180z" />
<glyph unicode="&#xf6;" horiz-adv-x="1255" d="M131 449q0 134 55.5 255.5t148.5 207t217.5 136t258.5 50.5q218 0 355 -136.5t137 -347.5q0 -178 -91.5 -325.5t-247.5 -231.5t-341 -84q-221 0 -356.5 133.5t-135.5 342.5zM418 481q0 -114 68 -186t178 -72q146 0 249 103.5t103 257.5q0 117 -68 190.5t-180 73.5 q-144 0 -247 -106t-103 -261zM520 1317q0 65 49.5 112.5t116.5 47.5q53 0 85 -34.5t32 -86.5q0 -64 -49 -111t-115 -47q-54 0 -86.5 33.5t-32.5 85.5zM913 1317q0 64 48.5 112t117.5 48q53 0 85 -34.5t32 -86.5q0 -64 -49 -111t-115 -47q-54 0 -86.5 33.5t-32.5 85.5z" />
<glyph unicode="&#xf7;" horiz-adv-x="1128" d="M164 524l39 228h977l-39 -228h-977zM457 227q0 66 52 116t120 50q55 0 90 -36t35 -91q0 -66 -53 -116t-121 -50q-54 0 -88.5 36.5t-34.5 90.5zM588 1008q0 66 52 117t120 51q55 0 90 -37t35 -92q0 -65 -53 -114.5t-121 -49.5q-55 0 -89 36t-34 89z" />
<glyph unicode="&#xf8;" horiz-adv-x="1255" d="M131 449q0 134 55.5 255.5t148.5 207t217.5 136t258.5 50.5q148 0 270 -72l97 100l118 -104l-96 -100q103 -128 103 -308q0 -178 -91.5 -325.5t-247.5 -231.5t-341 -84q-148 0 -267 66l-100 -105l-117 105l97 100q-105 124 -105 310zM418 481q0 -69 24 -125l443 465 q-56 27 -117 27q-144 0 -247 -106t-103 -261zM553 246q54 -23 111 -23q146 0 249 103.5t103 257.5q0 63 -25 118z" />
<glyph unicode="&#xf9;" horiz-adv-x="1138" d="M163 315.5q2 63.5 15 137.5l105 618h280l-108 -651q-15 -87 28 -140t117 -53q87 0 149 57t76 144l109 643h280l-178 -1071h-276l20 125q-48 -62 -132 -107t-181 -45q-88 0 -150.5 28.5t-94.5 74.5t-46.5 111t-12.5 128.5zM539 1485h299l88 -295h-228z" />
<glyph unicode="&#xfa;" horiz-adv-x="1138" d="M163 315.5q2 63.5 15 137.5l105 618h280l-108 -651q-15 -87 28 -140t117 -53q87 0 149 57t76 144l109 643h280l-178 -1071h-276l20 125q-48 -62 -132 -107t-181 -45q-88 0 -150.5 28.5t-94.5 74.5t-46.5 111t-12.5 128.5zM623 1190l186 295h297l-248 -295h-235z" />
<glyph unicode="&#xfb;" horiz-adv-x="1138" d="M163 315.5q2 63.5 15 137.5l105 618h280l-108 -651q-15 -87 28 -140t117 -53q87 0 149 57t76 144l109 643h280l-178 -1071h-276l20 125q-48 -62 -132 -107t-181 -45q-88 0 -150.5 28.5t-94.5 74.5t-46.5 111t-12.5 128.5zM436 1196l242 287h291l147 -287h-237l-76 145 l-125 -145h-242z" />
<glyph unicode="&#xfc;" horiz-adv-x="1138" d="M163 315.5q2 63.5 15 137.5l105 618h280l-108 -651q-15 -87 28 -140t117 -53q87 0 149 57t76 144l109 643h280l-178 -1071h-276l20 125q-48 -62 -132 -107t-181 -45q-88 0 -150.5 28.5t-94.5 74.5t-46.5 111t-12.5 128.5zM467 1317q0 65 49.5 112.5t116.5 47.5 q53 0 85 -34.5t32 -86.5q0 -64 -49 -111t-115 -47q-54 0 -86.5 33.5t-32.5 85.5zM860 1317q0 64 48.5 112t117.5 48q53 0 85 -34.5t32 -86.5q0 -64 -49 -111t-115 -47q-54 0 -86.5 33.5t-32.5 85.5z" />
<glyph unicode="&#xfd;" horiz-adv-x="1105" d="M193 1071h301l122 -698l357 698h299l-787 -1438h-270l215 394zM614 1190l187 295h297l-248 -295h-236z" />
<glyph unicode="&#xfe;" horiz-adv-x="1271" d="M47 -383l311 1864h283l-84 -506q50 46 132 84.5t190 38.5q200 0 320 -129.5t120 -337.5q0 -183 -79 -334t-219.5 -237.5t-313.5 -86.5q-64 0 -119.5 16t-90.5 40.5t-55 44.5t-30 37l-82 -494h-283zM469 477q0 -119 62.5 -186.5t166.5 -67.5q140 0 236 107t96 266 q0 116 -61.5 184t-165.5 68q-145 0 -239.5 -109t-94.5 -262z" />
<glyph unicode="&#xff;" horiz-adv-x="1105" d="M193 1071h301l122 -698l357 698h299l-787 -1438h-270l215 394zM442 1317q0 65 49.5 112.5t116.5 47.5q53 0 85 -34.5t32 -86.5q0 -64 -49 -111t-115 -47q-54 0 -86.5 33.5t-32.5 85.5zM836 1317q0 64 48 112t117 48q53 0 85 -34.5t32 -86.5q0 -64 -49 -111t-115 -47 q-54 0 -86 33.5t-32 85.5z" />
<glyph unicode="&#x100;" horiz-adv-x="1351" d="M16 0l748 1434h303l268 -1434h-286l-64 369h-487l-187 -369h-295zM616 608h334l-82 516zM659 1538l35 207h549l-35 -207h-549z" />
<glyph unicode="&#x101;" horiz-adv-x="1077" d="M98 281q0 177 137 291t345 114q75 0 132.5 -17.5t88.5 -41.5l12 69q12 72 -32 115t-136 43q-138 0 -297 -76l-76 193q89 54 209 90.5t236 36.5q101 0 175 -20.5t117.5 -58t67.5 -90t25 -116t-10 -135.5l-113 -678h-250l-6 70q-109 -97 -277 -97q-152 0 -250 83.5 t-98 224.5zM387 322q0 -58 45 -93.5t119 -35.5q90 0 150.5 46t60.5 121q0 61 -44.5 95t-119.5 34q-90 0 -150.5 -47.5t-60.5 -119.5zM479 1235l35 207h549l-35 -207h-549z" />
<glyph unicode="&#x102;" horiz-adv-x="1351" d="M16 0l748 1434h303l268 -1434h-286l-64 369h-487l-187 -369h-295zM616 608h334l-82 516zM670 1810h196q-20 -127 86 -127q59 0 89.5 36t39.5 91h209q-22 -131 -117.5 -211.5t-242.5 -80.5q-145 0 -213.5 81t-46.5 211z" />
<glyph unicode="&#x103;" horiz-adv-x="1077" d="M98 281q0 177 137 291t345 114q75 0 132.5 -17.5t88.5 -41.5l12 69q12 72 -32 115t-136 43q-138 0 -297 -76l-76 193q89 54 209 90.5t236 36.5q101 0 175 -20.5t117.5 -58t67.5 -90t25 -116t-10 -135.5l-113 -678h-250l-6 70q-109 -97 -277 -97q-152 0 -250 83.5 t-98 224.5zM387 322q0 -58 45 -93.5t119 -35.5q90 0 150.5 46t60.5 121q0 61 -44.5 95t-119.5 34q-90 0 -150.5 -47.5t-60.5 -119.5zM504 1483h196q-20 -127 86 -127q59 0 89.5 36t39.5 91h209q-22 -131 -117.5 -212t-242.5 -81q-145 0 -213.5 81.5t-46.5 211.5z" />
<glyph unicode="&#x104;" horiz-adv-x="1351" d="M16 0l748 1434h303l268 -1434q-15 -5 -34 -15t-43.5 -27t-41 -43.5t-16.5 -55.5q0 -33 28 -52.5t66 -19.5l-34 -201q-28 -8 -72 -8q-47 0 -87 8t-76 26t-56.5 52t-20.5 82t20 91.5t52 75t64 53t63 34.5h-103l-63 369h-487l-187 -369h-291zM612 608h334l-82 516z" />
<glyph unicode="&#x105;" horiz-adv-x="1077" d="M98 281q0 177 137 291t345 114q75 0 132.5 -17.5t88.5 -41.5l12 69q12 72 -32 115t-136 43q-138 0 -297 -76l-76 193q89 54 209 90.5t236 36.5q101 0 175 -20.5t117.5 -58t67.5 -90t25 -116t-10 -135.5l-113 -678q-15 -5 -34 -15t-43.5 -27t-41 -43.5t-16.5 -55.5 q0 -33 27.5 -52.5t64.5 -19.5l-33 -201q-28 -8 -74 -8q-47 0 -86.5 8t-74.5 26t-55.5 52t-20.5 82t20 91.5t52 75t64 53t63 34.5h-62l-6 70q-109 -97 -277 -97q-152 0 -250 83.5t-98 224.5zM387 322q0 -58 45 -93.5t119 -35.5q90 0 150.5 46t60.5 121q0 61 -44.5 95 t-119.5 34q-90 0 -150.5 -47.5t-60.5 -119.5z" />
<glyph unicode="&#x106;" horiz-adv-x="1306" d="M170 602q0 175 71 334.5t190.5 274t283 182t340.5 67.5q245 0 403 -131l-125 -254q-57 46 -141 80.5t-182 34.5q-108 0 -207 -43.5t-171 -116.5t-114.5 -175.5t-42.5 -215.5q0 -174 102.5 -284.5t272.5 -110.5q105 0 204 35t173 81l39 -251q-207 -136 -461 -136 q-194 0 -339.5 82.5t-220.5 224t-75 322.5zM872 1511l187 295h297l-248 -295h-236z" />
<glyph unicode="&#x107;" horiz-adv-x="1003" d="M131 446q0 135 54.5 257t146.5 208t215.5 136.5t257.5 50.5q189 0 317 -115l-116 -238q-98 103 -236 103q-151 0 -251.5 -107.5t-100.5 -255.5q0 -117 70.5 -189.5t187.5 -72.5q128 0 258 96l43 -231q-164 -115 -359 -115q-220 0 -353.5 132t-133.5 341zM637 1190 l186 295h297l-248 -295h-235z" />
<glyph unicode="&#x108;" horiz-adv-x="1306" d="M170 602q0 175 71 334.5t190.5 274t283 182t340.5 67.5q245 0 403 -131l-125 -254q-57 46 -141 80.5t-182 34.5q-108 0 -207 -43.5t-171 -116.5t-114.5 -175.5t-42.5 -215.5q0 -174 102.5 -284.5t272.5 -110.5q105 0 204 35t173 81l39 -251q-207 -136 -461 -136 q-194 0 -339.5 82.5t-220.5 224t-75 322.5zM717 1513l241 287h291l148 -287h-238l-76 146l-125 -146h-241z" />
<glyph unicode="&#x109;" horiz-adv-x="1003" d="M131 446q0 135 54.5 257t146.5 208t215.5 136.5t257.5 50.5q189 0 317 -115l-116 -238q-98 103 -236 103q-151 0 -251.5 -107.5t-100.5 -255.5q0 -117 70.5 -189.5t187.5 -72.5q128 0 258 96l43 -231q-164 -115 -359 -115q-220 0 -353.5 132t-133.5 341zM471 1196 l242 287h291l147 -287h-238l-75 145l-125 -145h-242z" />
<glyph unicode="&#x10a;" horiz-adv-x="1306" d="M170 602q0 175 71 334.5t190.5 274t283 182t340.5 67.5q245 0 403 -131l-125 -254q-57 46 -141 80.5t-182 34.5q-108 0 -207 -43.5t-171 -116.5t-114.5 -175.5t-42.5 -215.5q0 -174 102.5 -284.5t272.5 -110.5q105 0 204 35t173 81l39 -251q-207 -136 -461 -136 q-194 0 -339.5 82.5t-220.5 224t-75 322.5zM920 1634q0 76 58.5 130.5t135.5 54.5q62 0 101.5 -39.5t39.5 -100.5q0 -76 -58.5 -130t-137.5 -54q-61 0 -100 39.5t-39 99.5z" />
<glyph unicode="&#x10b;" horiz-adv-x="1003" d="M131 446q0 135 54.5 257t146.5 208t215.5 136.5t257.5 50.5q189 0 317 -115l-116 -238q-98 103 -236 103q-151 0 -251.5 -107.5t-100.5 -255.5q0 -117 70.5 -189.5t187.5 -72.5q128 0 258 96l43 -231q-164 -115 -359 -115q-220 0 -353.5 132t-133.5 341zM672 1307 q0 76 58.5 130t135.5 54q63 0 102.5 -39.5t39.5 -99.5q0 -76 -59 -130.5t-138 -54.5q-61 0 -100 40t-39 100z" />
<glyph unicode="&#x10c;" horiz-adv-x="1306" d="M170 602q0 175 71 334.5t190.5 274t283 182t340.5 67.5q245 0 403 -131l-125 -254q-57 46 -141 80.5t-182 34.5q-108 0 -207 -43.5t-171 -116.5t-114.5 -175.5t-42.5 -215.5q0 -174 102.5 -284.5t272.5 -110.5q105 0 204 35t173 81l39 -251q-207 -136 -461 -136 q-194 0 -339.5 82.5t-220.5 224t-75 322.5zM764 1800h231l76 -145l125 145h248l-242 -287h-291z" />
<glyph unicode="&#x10d;" horiz-adv-x="1003" d="M131 446q0 135 54.5 257t146.5 208t215.5 136.5t257.5 50.5q189 0 317 -115l-116 -238q-98 103 -236 103q-151 0 -251.5 -107.5t-100.5 -255.5q0 -117 70.5 -189.5t187.5 -72.5q128 0 258 96l43 -231q-164 -115 -359 -115q-220 0 -353.5 132t-133.5 341zM512 1483h231 l76 -146l125 146h248l-242 -287h-291z" />
<glyph unicode="&#x10e;" horiz-adv-x="1341" d="M137 0l240 1434h381q309 0 481 -157t172 -435q0 -258 -111.5 -449.5t-313 -292t-468.5 -100.5h-381zM467 250h102q243 0 390 147.5t147 409.5q0 180 -100 277.5t-279 97.5h-102zM537 1800h231l76 -145l125 145h248l-242 -287h-291z" />
<glyph unicode="&#x10f;" horiz-adv-x="1269" d="M131 440q0 183 79 334t219.5 237.5t313.5 86.5q64 0 119.5 -16t90.5 -40.5t55.5 -45.5t29.5 -38l86 523h283l-248 -1481h-266l18 111q-18 -18 -44 -37t-69.5 -44t-103 -41t-123.5 -16q-201 0 -320.5 129t-119.5 338zM420 475q0 -117 61 -184.5t166 -67.5q145 0 239.5 109 t94.5 262q0 119 -62.5 186.5t-166.5 67.5q-140 0 -236 -107t-96 -266zM1413 1124l74 357h266l-154 -357h-186z" />
<glyph unicode="&#x110;" horiz-adv-x="1361" d="M145 594l43 254h115l98 586h379q304 0 480 -165t176 -427q0 -259 -108.5 -450t-307.5 -291.5t-465 -100.5h-395l100 594h-115zM492 250h102q118 0 216 37t169.5 106.5t111 175.5t39.5 238q0 180 -100.5 277.5t-279.5 97.5h-103l-55 -334h223l-43 -254h-223z" />
<glyph unicode="&#x111;" horiz-adv-x="1269" d="M131 440q0 183 79 334t219.5 237.5t313.5 86.5q64 0 119.5 -16t90.5 -40.5t55.5 -45.5t29.5 -38l33 207h-260l31 183h260l22 133h283l-23 -133h119l-30 -183h-119l-195 -1165h-266l18 111q-18 -18 -44 -37t-69.5 -44t-103 -41t-123.5 -16q-201 0 -320.5 129t-119.5 338z M420 475q0 -117 61 -184.5t166 -67.5q145 0 239.5 109t94.5 262q0 119 -62.5 186.5t-166.5 67.5q-140 0 -236 -107t-96 -266z" />
<glyph unicode="&#x112;" horiz-adv-x="985" d="M137 0l240 1434h737l-43 -260h-448l-54 -320h385l-43 -256h-385l-57 -340h467l-43 -258h-756zM504 1538l35 207h548l-34 -207h-549z" />
<glyph unicode="&#x113;" horiz-adv-x="1144" d="M133 442q0 134 49.5 256t133.5 209.5t199.5 139t242.5 51.5q211 0 325.5 -121.5t114.5 -335.5q0 -96 -24 -176h-754q-14 -108 50.5 -177t182.5 -69q96 0 168.5 41.5t114.5 89.5l170 -141q-23 -33 -63.5 -69.5t-102 -76t-148 -65t-180.5 -25.5q-222 0 -350.5 131 t-128.5 338zM459 649h461q12 98 -42 157.5t-151 59.5t-170 -61t-98 -156zM524 1235l35 207h549l-35 -207h-549z" />
<glyph unicode="&#x114;" horiz-adv-x="985" d="M137 0l240 1434h737l-43 -260h-448l-54 -320h385l-43 -256h-385l-57 -340h467l-43 -258h-756zM506 1810h196q-20 -127 86 -127q59 0 90 36t40 91h208q-22 -131 -117.5 -211.5t-242.5 -80.5q-145 0 -213.5 81t-46.5 211z" />
<glyph unicode="&#x115;" horiz-adv-x="1144" d="M133 442q0 134 49.5 256t133.5 209.5t199.5 139t242.5 51.5q211 0 325.5 -121.5t114.5 -335.5q0 -96 -24 -176h-754q-14 -108 50.5 -177t182.5 -69q96 0 168.5 41.5t114.5 89.5l170 -141q-23 -33 -63.5 -69.5t-102 -76t-148 -65t-180.5 -25.5q-222 0 -350.5 131 t-128.5 338zM459 649h461q12 98 -42 157.5t-151 59.5t-170 -61t-98 -156zM516 1483h197q-20 -127 86 -127q59 0 89.5 36t39.5 91h209q-22 -131 -118 -212t-243 -81q-145 0 -213.5 81.5t-46.5 211.5z" />
<glyph unicode="&#x116;" horiz-adv-x="985" d="M137 0l240 1434h737l-43 -260h-448l-54 -320h385l-43 -256h-385l-57 -340h467l-43 -258h-756zM637 1634q0 76 58.5 130.5t135.5 54.5q63 0 102.5 -39.5t39.5 -100.5q0 -76 -59 -130t-138 -54q-61 0 -100 39.5t-39 99.5z" />
<glyph unicode="&#x117;" horiz-adv-x="1144" d="M133 442q0 134 49.5 256t133.5 209.5t199.5 139t242.5 51.5q211 0 325.5 -121.5t114.5 -335.5q0 -96 -24 -176h-754q-14 -108 50.5 -177t182.5 -69q96 0 168.5 41.5t114.5 89.5l170 -141q-23 -33 -63.5 -69.5t-102 -76t-148 -65t-180.5 -25.5q-222 0 -350.5 131 t-128.5 338zM459 649h461q12 98 -42 157.5t-151 59.5t-170 -61t-98 -156zM641 1307q0 76 58.5 130t136.5 54q62 0 101.5 -39.5t39.5 -99.5q0 -76 -59 -130.5t-138 -54.5q-61 0 -100 40t-39 100z" />
<glyph unicode="&#x118;" horiz-adv-x="985" d="M137 0l240 1434h737l-43 -260h-448l-54 -320h385l-43 -256h-385l-57 -340h467l-43 -258q-15 -5 -34 -15t-43.5 -27t-41 -43.5t-16.5 -55.5q0 -33 28 -52.5t66 -19.5l-35 -201q-28 -8 -72 -8q-47 0 -87 8t-75.5 26t-56 52t-20.5 82t20 91.5t52 75t64 53t63 34.5h-568z" />
<glyph unicode="&#x119;" horiz-adv-x="1144" d="M133 442q0 134 49.5 256t133.5 209.5t199.5 139t242.5 51.5q211 0 325.5 -121.5t114.5 -335.5q0 -96 -24 -176h-754q-14 -108 50.5 -177t182.5 -69q96 0 168.5 41.5t114.5 89.5l170 -141q-41 -57 -123.5 -118.5t-194.5 -92.5q-16 -6 -34.5 -16t-41.5 -27.5t-38 -42.5 t-15 -53q0 -33 28 -52.5t65 -19.5l-33 -201q-28 -8 -74 -8q-47 0 -86.5 8t-74.5 26t-55.5 52t-20.5 82q0 75 43.5 134t105.5 95q-198 17 -311 145t-113 322zM459 649h461q12 98 -42 157.5t-151 59.5t-170 -61t-98 -156z" />
<glyph unicode="&#x11a;" horiz-adv-x="985" d="M137 0l240 1434h737l-43 -260h-448l-54 -320h385l-43 -256h-385l-57 -340h467l-43 -258h-756zM492 1800h231l76 -145l125 145h247l-241 -287h-291z" />
<glyph unicode="&#x11b;" horiz-adv-x="1144" d="M133 442q0 134 49.5 256t133.5 209.5t199.5 139t242.5 51.5q211 0 325.5 -121.5t114.5 -335.5q0 -96 -24 -176h-754q-14 -108 50.5 -177t182.5 -69q96 0 168.5 41.5t114.5 89.5l170 -141q-23 -33 -63.5 -69.5t-102 -76t-148 -65t-180.5 -25.5q-222 0 -350.5 131 t-128.5 338zM459 649h461q12 98 -42 157.5t-151 59.5t-170 -61t-98 -156zM489 1483h232l76 -146l125 146h247l-241 -287h-291z" />
<glyph unicode="&#x11c;" horiz-adv-x="1529" d="M170 602q0 172 70 330.5t188 274t281.5 184.5t341.5 69q106 0 198.5 -24t155.5 -62.5t104 -75.5t66 -75l-213 -189q-17 23 -41 45.5t-65.5 50.5t-103.5 45t-134 17q-155 0 -280 -76t-194 -202.5t-69 -276.5q0 -181 105.5 -287t277.5 -106q131 0 226 37.5t137 74.5l30 176 h-272l41 244h543l-97 -567q-151 -114 -304.5 -175t-360.5 -61q-275 0 -453 173t-178 456zM727 1513l242 287h291l147 -287h-238l-75 146l-125 -146h-242z" />
<glyph unicode="&#x11d;" horiz-adv-x="1259" d="M129 434q0 140 50 264t134.5 211.5t200 138t242.5 50.5q63 0 117.5 -15.5t90 -39.5t56.5 -45t33 -40l18 113h266l-155 -936q-20 -117 -65.5 -208t-107.5 -150.5t-142.5 -98t-166.5 -55t-184 -16.5q-105 0 -206 28t-171 70l123 217q136 -74 293 -74q62 0 113.5 10.5 t98.5 33.5t78.5 66t41.5 103l8 50q-15 -16 -40.5 -35.5t-68 -44.5t-103.5 -41.5t-126 -16.5q-199 0 -313.5 127t-114.5 334zM418 479q0 -116 62.5 -186t166.5 -70q142 0 237 104.5t95 264.5q0 115 -61.5 185.5t-167.5 70.5q-139 0 -235.5 -104.5t-96.5 -264.5zM492 1196 l241 287h291l147 -287h-237l-76 145l-125 -145h-241z" />
<glyph unicode="&#x11e;" horiz-adv-x="1529" d="M170 602q0 172 70 330.5t188 274t281.5 184.5t341.5 69q106 0 198.5 -24t155.5 -62.5t104 -75.5t66 -75l-213 -189q-17 23 -41 45.5t-65.5 50.5t-103.5 45t-134 17q-155 0 -280 -76t-194 -202.5t-69 -276.5q0 -181 105.5 -287t277.5 -106q131 0 226 37.5t137 74.5l30 176 h-272l41 244h543l-97 -567q-151 -114 -304.5 -175t-360.5 -61q-275 0 -453 173t-178 456zM803 1810h196q-20 -127 86 -127q59 0 89.5 36t39.5 91h209q-22 -131 -117.5 -211.5t-242.5 -80.5q-145 0 -213.5 81t-46.5 211z" />
<glyph unicode="&#x11f;" horiz-adv-x="1259" d="M129 434q0 140 50 264t134.5 211.5t200 138t242.5 50.5q63 0 117.5 -15.5t90 -39.5t56.5 -45t33 -40l18 113h266l-155 -936q-20 -117 -65.5 -208t-107.5 -150.5t-142.5 -98t-166.5 -55t-184 -16.5q-105 0 -206 28t-171 70l123 217q136 -74 293 -74q62 0 113.5 10.5 t98.5 33.5t78.5 66t41.5 103l8 50q-15 -16 -40.5 -35.5t-68 -44.5t-103.5 -41.5t-126 -16.5q-199 0 -313.5 127t-114.5 334zM418 479q0 -116 62.5 -186t166.5 -70q142 0 237 104.5t95 264.5q0 115 -61.5 185.5t-167.5 70.5q-139 0 -235.5 -104.5t-96.5 -264.5zM565 1483h197 q-20 -127 86 -127q59 0 89.5 36t39.5 91h209q-22 -131 -118 -212t-243 -81q-145 0 -213.5 81.5t-46.5 211.5z" />
<glyph unicode="&#x120;" horiz-adv-x="1529" d="M170 602q0 172 70 330.5t188 274t281.5 184.5t341.5 69q106 0 198.5 -24t155.5 -62.5t104 -75.5t66 -75l-213 -189q-17 23 -41 45.5t-65.5 50.5t-103.5 45t-134 17q-155 0 -280 -76t-194 -202.5t-69 -276.5q0 -181 105.5 -287t277.5 -106q131 0 226 37.5t137 74.5l30 176 h-272l41 244h543l-97 -567q-151 -114 -304.5 -175t-360.5 -61q-275 0 -453 173t-178 456zM928 1634q0 76 58.5 130.5t135.5 54.5q62 0 102 -39.5t40 -100.5q0 -76 -59 -130t-138 -54q-61 0 -100 39.5t-39 99.5z" />
<glyph unicode="&#x121;" horiz-adv-x="1259" d="M129 434q0 140 50 264t134.5 211.5t200 138t242.5 50.5q63 0 117.5 -15.5t90 -39.5t56.5 -45t33 -40l18 113h266l-155 -936q-20 -117 -65.5 -208t-107.5 -150.5t-142.5 -98t-166.5 -55t-184 -16.5q-105 0 -206 28t-171 70l123 217q136 -74 293 -74q62 0 113.5 10.5 t98.5 33.5t78.5 66t41.5 103l8 50q-15 -16 -40.5 -35.5t-68 -44.5t-103.5 -41.5t-126 -16.5q-199 0 -313.5 127t-114.5 334zM418 479q0 -116 62.5 -186t166.5 -70q142 0 237 104.5t95 264.5q0 115 -61.5 185.5t-167.5 70.5q-139 0 -235.5 -104.5t-96.5 -264.5zM684 1307 q0 76 58.5 130t136.5 54q63 0 102 -39.5t39 -99.5q0 -76 -59 -130.5t-138 -54.5q-61 0 -100 40t-39 100z" />
<glyph unicode="&#x122;" horiz-adv-x="1529" d="M170 602q0 172 70 330.5t188 274t281.5 184.5t341.5 69q106 0 198.5 -24t155.5 -62.5t104 -75.5t66 -75l-213 -189q-17 23 -41 45.5t-65.5 50.5t-103.5 45t-134 17q-155 0 -280 -76t-194 -202.5t-69 -276.5q0 -181 105.5 -287t277.5 -106q131 0 226 37.5t137 74.5l30 176 h-272l41 244h543l-97 -567q-151 -114 -304.5 -175t-360.5 -61q-275 0 -453 173t-178 456zM604 -492q36 25 73 61.5t58 72.5q-48 10 -73 46t-25 81q0 69 55 120.5t125 51.5q61 0 98 -40t37 -106q0 -107 -73.5 -214t-186.5 -177z" />
<glyph unicode="&#x123;" horiz-adv-x="1259" d="M129 434q0 140 50 264t134.5 211.5t200 138t242.5 50.5q63 0 117.5 -15.5t90 -39.5t56.5 -45t33 -40l18 113h266l-155 -936q-20 -117 -65.5 -208t-107.5 -150.5t-142.5 -98t-166.5 -55t-184 -16.5q-105 0 -206 28t-171 70l123 217q136 -74 293 -74q62 0 113.5 10.5 t98.5 33.5t78.5 66t41.5 103l8 50q-15 -16 -40.5 -35.5t-68 -44.5t-103.5 -41.5t-126 -16.5q-199 0 -313.5 127t-114.5 334zM418 479q0 -116 62.5 -186t166.5 -70q142 0 237 104.5t95 264.5q0 115 -61.5 185.5t-167.5 70.5q-139 0 -235.5 -104.5t-96.5 -264.5zM682 1315 q0 107 73.5 214t186.5 177l88 -104q-36 -25 -73 -61.5t-58 -72.5q48 -10 73 -46t25 -81q0 -69 -55 -120.5t-125 -51.5q-61 0 -98 40t-37 106z" />
<glyph unicode="&#x124;" horiz-adv-x="1447" d="M137 0l240 1434h289l-97 -582h596l97 582h288l-239 -1434h-289l98 592h-596l-98 -592h-289zM647 1513l242 287h291l147 -287h-237l-76 146l-125 -146h-242z" />
<glyph unicode="&#x125;" horiz-adv-x="1150" d="M111 0l247 1481h283l-90 -535q48 63 130 107.5t179 44.5q89 0 151.5 -28.5t95 -74.5t47 -111t12.5 -128.5t-15 -137.5l-104 -618h-281l108 651q15 87 -28 140t-117 53q-88 0 -150.5 -56.5t-76.5 -144.5l-109 -643h-282zM522 1513l242 287h291l147 -287h-237l-76 146 l-125 -146h-242z" />
<glyph unicode="&#x126;" horiz-adv-x="1447" d="M137 0l176 1047h-116l32 196h117l31 191h289l-31 -191h596l31 191h288l-30 -191h118l-32 -196h-119l-176 -1047h-289l98 592h-596l-98 -592h-289zM569 852h596l33 195h-596z" />
<glyph unicode="&#x127;" horiz-adv-x="1150" d="M111 0l196 1178h-104l30 180h105l20 123h283l-20 -123h266l-31 -180h-266l-39 -232q48 63 130 107.5t179 44.5q89 0 151.5 -28.5t95 -74.5t47 -111t12.5 -128.5t-15 -137.5l-104 -618h-281l108 651q15 87 -28 140t-117 53q-88 0 -150.5 -56.5t-76.5 -144.5l-109 -643 h-282z" />
<glyph unicode="&#x128;" horiz-adv-x="563" d="M137 0l240 1434h289l-240 -1434h-289zM176 1522q20 124 94.5 199t178.5 75q48 0 94 -19t82.5 -38t62.5 -19q31 0 52.5 21.5t27.5 56.5h180q-22 -126 -94.5 -200t-175.5 -74q-46 0 -92.5 19t-85 37.5t-66.5 18.5q-31 0 -51.5 -20t-26.5 -57h-180z" />
<glyph unicode="&#x129;" horiz-adv-x="503" d="M94 1200q20 124 94.5 199.5t178.5 75.5q48 0 94 -19t82.5 -38t62.5 -19q31 0 52.5 21.5t27.5 56.5h180q-22 -126 -94.5 -200.5t-175.5 -74.5q-46 0 -92.5 19t-85 38t-66.5 19q-31 0 -51.5 -20.5t-26.5 -57.5h-180zM111 0l180 1071h282l-180 -1071h-282z" />
<glyph unicode="&#x12a;" horiz-adv-x="563" d="M137 0l240 1434h289l-240 -1434h-289zM266 1538l35 207h549l-35 -207h-549z" />
<glyph unicode="&#x12b;" d="M111 0l180 1071h282l-180 -1071h-282zM186 1235l35 207h549l-35 -207h-549z" />
<glyph unicode="&#x12c;" horiz-adv-x="563" d="M137 0l240 1434h289l-240 -1434h-289zM281 1810h196q-20 -127 86 -127q59 0 89.5 36t39.5 91h209q-22 -131 -117.5 -211.5t-242.5 -80.5q-145 0 -213.5 81t-46.5 211z" />
<glyph unicode="&#x12d;" horiz-adv-x="503" d="M111 0l180 1071h282l-180 -1071h-282zM197 1483h196q-20 -127 86 -127q59 0 89.5 36t39.5 91h209q-22 -131 -117.5 -212t-242.5 -81q-145 0 -213.5 81.5t-46.5 211.5z" />
<glyph unicode="&#x12e;" horiz-adv-x="563" d="M39 -254q0 48 20 91.5t52 75t64 53t63 34.5h-101l240 1434h289l-240 -1434q-15 -5 -34 -15t-43.5 -27t-41 -43.5t-16.5 -55.5q0 -33 27.5 -52.5t64.5 -19.5l-33 -201q-28 -8 -74 -8q-47 0 -86.5 8t-74.5 26t-55.5 52t-20.5 82z" />
<glyph unicode="&#x12f;" d="M6 -254q0 48 20 91.5t52 75t64 53t63 34.5h-94l178 1071h282l-178 -1071q-15 -5 -34 -15t-43.5 -27t-41 -43.5t-16.5 -55.5q0 -33 27.5 -52.5t64.5 -19.5l-33 -201q-28 -8 -73 -8q-47 0 -86.5 8t-75 26t-56 52t-20.5 82zM305 1307q0 76 58.5 130t136.5 54 q62 0 101.5 -39.5t39.5 -99.5q0 -76 -59 -130.5t-138 -54.5q-61 0 -100 40t-39 100z" />
<glyph unicode="&#x130;" horiz-adv-x="563" d="M137 0l240 1434h289l-240 -1434h-289zM397 1634q0 76 59 130.5t136 54.5q62 0 101.5 -39.5t39.5 -100.5q0 -76 -58.5 -130t-137.5 -54q-61 0 -100.5 39.5t-39.5 99.5z" />
<glyph unicode="&#x131;" d="M111 0l180 1071h282l-180 -1071h-282z" />
<glyph unicode="&#x132;" horiz-adv-x="1329" d="M137 0l240 1434h289l-240 -1434h-289zM608 8l76 256q96 -12 117 -12q72 0 116 41t56 115l172 1026h287l-181 -1078q-13 -78 -43.5 -140t-73 -104.5t-97.5 -70.5t-115.5 -40.5t-128.5 -12.5q-93 0 -185 20z" />
<glyph unicode="&#x133;" horiz-adv-x="1011" d="M111 0l180 1071h282l-180 -1071h-282zM305 1307q0 76 58.5 130t136.5 54q62 0 101.5 -39.5t39.5 -99.5q0 -76 -59 -130.5t-138 -54.5q-61 0 -100 40t-39 100zM354 -387l41 240q27 -5 47 -5q150 0 172 150l181 1073h282l-182 -1085q-63 -377 -471 -377zM811 1307 q0 76 58 130t135 54q62 0 101.5 -39.5t39.5 -99.5q0 -76 -58 -130.5t-137 -54.5q-61 0 -100 40t-39 100z" />
<glyph unicode="&#x134;" horiz-adv-x="765" d="M43 8l76 256q96 -12 117 -12q72 0 116 41t56 115l172 1026h286l-180 -1078q-16 -97 -59 -169.5t-105 -115t-135.5 -63t-159.5 -20.5q-92 0 -184 20zM375 1513l241 287h291l148 -287h-238l-76 146l-125 -146h-241z" />
<glyph unicode="&#x135;" d="M-152 -387l41 240q28 -5 48 -5q150 0 172 150l180 1073h282l-182 -1085q-63 -377 -471 -377zM117 1196l241 287h291l148 -287h-238l-76 145l-125 -145h-241z" />
<glyph unicode="&#x136;" horiz-adv-x="1259" d="M137 0l240 1434h289l-109 -656l573 656h332l-620 -709l397 -725h-324l-372 696l-117 -696h-289zM422 -492q36 25 73 61.5t58 72.5q-48 10 -73 46t-25 81q0 69 55 120.5t125 51.5q61 0 98 -40t37 -106q0 -107 -73.5 -214t-186.5 -177z" />
<glyph unicode="&#x137;" horiz-adv-x="1089" d="M111 0l247 1481h283l-143 -860l420 450h317l-459 -491l307 -580h-323l-275 553l-92 -553h-282zM328 -492q36 25 73 61.5t58 72.5q-48 10 -73.5 46t-25.5 81q0 69 55.5 120.5t125.5 51.5q61 0 98 -40t37 -106q0 -107 -73.5 -214t-186.5 -177z" />
<glyph unicode="&#x138;" horiz-adv-x="1089" d="M111 0l180 1071h282l-77 -461l422 461h317l-461 -496l309 -575h-331l-269 543l-90 -543h-282z" />
<glyph unicode="&#x139;" horiz-adv-x="931" d="M137 0l240 1434h289l-197 -1174h467l-43 -260h-756zM416 1511l186 295h297l-248 -295h-235z" />
<glyph unicode="&#x13a;" d="M111 0l247 1481h283l-248 -1481h-282zM379 1536l186 295h297l-248 -295h-235z" />
<glyph unicode="&#x13b;" horiz-adv-x="931" d="M137 0l240 1434h289l-197 -1174h467l-43 -260h-756zM289 -492q36 25 73 61.5t58 72.5q-48 10 -73 46t-25 81q0 69 55 120.5t125 51.5q61 0 98 -40t37 -106q0 -107 -73.5 -214t-186.5 -177z" />
<glyph unicode="&#x13c;" d="M25 -492q36 25 73 61.5t58 72.5q-48 10 -73.5 46t-25.5 81q0 69 55.5 120.5t125.5 51.5q61 0 98 -40t37 -106q0 -107 -73.5 -214t-186.5 -177zM111 0l247 1481h283l-248 -1481h-282z" />
<glyph unicode="&#x13d;" horiz-adv-x="931" d="M137 0l240 1434h289l-197 -1174h467l-43 -260h-756zM743 1077l74 357h266l-153 -357h-187z" />
<glyph unicode="&#x13e;" d="M111 0l247 1481h283l-248 -1481h-282zM647 1124l74 357h266l-153 -357h-187z" />
<glyph unicode="&#x13f;" horiz-adv-x="931" d="M137 0l240 1434h289l-197 -1174h467l-43 -260h-756zM684 729q0 78 62.5 138.5t144.5 60.5q65 0 105 -44t40 -108q0 -79 -61.5 -137.5t-143.5 -58.5q-65 0 -106 42.5t-41 106.5z" />
<glyph unicode="&#x140;" horiz-adv-x="825" d="M111 0l247 1481h283l-248 -1481h-282zM588 700q0 78 62.5 138.5t144.5 60.5q65 0 105 -43.5t40 -107.5q0 -79 -61.5 -138t-143.5 -59q-65 0 -106 42.5t-41 106.5z" />
<glyph unicode="&#x141;" horiz-adv-x="931" d="M88 391l45 271l125 65l119 707h289l-93 -547l244 127l-47 -279l-242 -123l-59 -354h467l-43 -258h-756l78 459z" />
<glyph unicode="&#x142;" horiz-adv-x="602" d="M125 487l45 271l119 65l110 658h283l-82 -492l137 76l-45 -281l-139 -75l-119 -709h-282l92 553z" />
<glyph unicode="&#x143;" horiz-adv-x="1460" d="M135 0l240 1434h293l448 -983l164 983h285l-240 -1434h-287l-454 975l-164 -975h-285zM858 1511l186 295h297l-247 -295h-236z" />
<glyph unicode="&#x144;" horiz-adv-x="1146" d="M111 0l180 1071h276l-22 -125q48 62 132 107t181 45q88 0 150.5 -28.5t95 -74.5t47 -110.5t13 -128.5t-14.5 -138l-105 -618h-282l108 651q15 87 -28 140t-117 53q-86 0 -147.5 -56.5t-75.5 -144.5l-109 -643h-282zM641 1190l186 295h297l-247 -295h-236z" />
<glyph unicode="&#x145;" horiz-adv-x="1460" d="M135 0l240 1434h293l448 -983l164 983h285l-240 -1434h-287l-454 975l-164 -975h-285zM502 -492q36 25 73 61.5t58 72.5q-48 10 -73 46t-25 81q0 69 55 120.5t125 51.5q61 0 98 -40t37 -106q0 -107 -73.5 -214t-186.5 -177z" />
<glyph unicode="&#x146;" horiz-adv-x="1146" d="M111 0l180 1071h276l-22 -125q48 62 132 107t181 45q88 0 150.5 -28.5t95 -74.5t47 -110.5t13 -128.5t-14.5 -138l-105 -618h-282l108 651q15 87 -28 140t-117 53q-86 0 -147.5 -56.5t-75.5 -144.5l-109 -643h-282zM346 -492q36 25 73 61.5t58 72.5q-48 10 -73 46t-25 81 q0 69 55 120.5t125 51.5q61 0 98 -40t37 -106q0 -107 -73.5 -214t-186.5 -177z" />
<glyph unicode="&#x147;" horiz-adv-x="1460" d="M135 0l240 1434h293l448 -983l164 983h285l-240 -1434h-287l-454 975l-164 -975h-285zM702 1800h232l76 -145l125 145h247l-241 -287h-291z" />
<glyph unicode="&#x148;" horiz-adv-x="1146" d="M111 0l180 1071h276l-22 -125q48 62 132 107t181 45q88 0 150.5 -28.5t95 -74.5t47 -110.5t13 -128.5t-14.5 -138l-105 -618h-282l108 651q15 87 -28 140t-117 53q-86 0 -147.5 -56.5t-75.5 -144.5l-109 -643h-282zM487 1483h232l76 -146l125 146h247l-241 -287h-291z " />
<glyph unicode="&#x149;" horiz-adv-x="1302" d="M121 1059q91 64 131 133q-48 10 -73 46t-25 81q0 69 55 120.5t125 51.5q61 0 98 -39.5t37 -105.5q0 -107 -73.5 -214.5t-186.5 -177.5zM264 0l180 1071h277l-23 -125q48 62 132.5 107t181.5 45q88 0 150.5 -28.5t95 -74.5t47 -110.5t13 -128.5t-14.5 -138l-105 -618h-283 l109 651q15 87 -28 140t-117 53q-87 0 -148.5 -56.5t-75.5 -144.5l-108 -643h-283z" />
<glyph unicode="&#x14a;" horiz-adv-x="1460" d="M135 0l240 1434h293l448 -983l164 983h285l-244 -1457q-16 -97 -59 -169.5t-105 -115t-135.5 -63t-159.5 -20.5q-92 0 -184 20l76 256q84 -12 116 -12q66 0 108.5 36t57.5 99l-452 967l-164 -975h-285z" />
<glyph unicode="&#x14b;" horiz-adv-x="1146" d="M111 0l180 1071h276l-22 -125q48 62 132 107t181 45q88 0 150.5 -28.5t94.5 -74.5t46.5 -111t12.5 -128.5t-15 -137.5l-105 -632q-63 -377 -473 -377l-69 4l41 240q29 -5 49 -5q147 0 172 150l108 653q15 87 -28 140t-117 53q-86 0 -147.5 -56.5t-75.5 -144.5l-109 -643 h-282z" />
<glyph unicode="&#x14c;" horiz-adv-x="1613" d="M170 604q0 173 69.5 331t187 273t281.5 183.5t345 68.5q191 0 335.5 -84t219.5 -226.5t75 -322.5q0 -174 -69 -332t-186 -272.5t-280.5 -182t-344.5 -67.5q-191 0 -336.5 83t-221 225.5t-75.5 322.5zM475 639q0 -174 102.5 -284.5t270.5 -110.5q108 0 206 42.5 t169.5 115.5t114 175t42.5 216q0 174 -102.5 285.5t-271.5 111.5q-107 0 -205 -43.5t-169.5 -116.5t-114 -175.5t-42.5 -215.5zM791 1538l34 207h549l-35 -207h-548z" />
<glyph unicode="&#x14d;" horiz-adv-x="1255" d="M131 449q0 134 55.5 255.5t148.5 207t217.5 136t258.5 50.5q218 0 355 -136.5t137 -347.5q0 -178 -91.5 -325.5t-247.5 -231.5t-341 -84q-221 0 -356.5 133.5t-135.5 342.5zM418 481q0 -114 68 -186t178 -72q146 0 249 103.5t103 257.5q0 117 -68 190.5t-180 73.5 q-144 0 -247 -106t-103 -261zM561 1235l35 207h549l-35 -207h-549z" />
<glyph unicode="&#x14e;" horiz-adv-x="1613" d="M170 604q0 173 69.5 331t187 273t281.5 183.5t345 68.5q191 0 335.5 -84t219.5 -226.5t75 -322.5q0 -174 -69 -332t-186 -272.5t-280.5 -182t-344.5 -67.5q-191 0 -336.5 83t-221 225.5t-75.5 322.5zM475 639q0 -174 102.5 -284.5t270.5 -110.5q108 0 206 42.5 t169.5 115.5t114 175t42.5 216q0 174 -102.5 285.5t-271.5 111.5q-107 0 -205 -43.5t-169.5 -116.5t-114 -175.5t-42.5 -215.5zM801 1810h196q-20 -127 86 -127q59 0 89.5 36t39.5 91h209q-22 -131 -117.5 -211.5t-242.5 -80.5q-145 0 -213.5 81t-46.5 211z" />
<glyph unicode="&#x14f;" horiz-adv-x="1255" d="M131 449q0 134 55.5 255.5t148.5 207t217.5 136t258.5 50.5q218 0 355 -136.5t137 -347.5q0 -178 -91.5 -325.5t-247.5 -231.5t-341 -84q-221 0 -356.5 133.5t-135.5 342.5zM418 481q0 -114 68 -186t178 -72q146 0 249 103.5t103 257.5q0 117 -68 190.5t-180 73.5 q-144 0 -247 -106t-103 -261zM559 1483h197q-20 -127 86 -127q59 0 89.5 36t39.5 91h209q-22 -131 -118 -212t-243 -81q-145 0 -213.5 81.5t-46.5 211.5z" />
<glyph unicode="&#x150;" horiz-adv-x="1613" d="M170 604q0 173 69.5 331t187 273t281.5 183.5t345 68.5q191 0 335.5 -84t219.5 -226.5t75 -322.5q0 -174 -69 -332t-186 -272.5t-280.5 -182t-344.5 -67.5q-191 0 -336.5 83t-221 225.5t-75.5 322.5zM475 639q0 -174 102.5 -284.5t270.5 -110.5q108 0 206 42.5 t169.5 115.5t114 175t42.5 216q0 174 -102.5 285.5t-271.5 111.5q-107 0 -205 -43.5t-169.5 -116.5t-114 -175.5t-42.5 -215.5zM745 1511l187 295h272l-248 -295h-211zM1102 1511l188 295h271l-246 -295h-213z" />
<glyph unicode="&#x151;" horiz-adv-x="1255" d="M131 449q0 134 55.5 255.5t148.5 207t217.5 136t258.5 50.5q218 0 355 -136.5t137 -347.5q0 -178 -91.5 -325.5t-247.5 -231.5t-341 -84q-221 0 -356.5 133.5t-135.5 342.5zM418 481q0 -114 68 -186t178 -72q146 0 249 103.5t103 257.5q0 117 -68 190.5t-180 73.5 q-144 0 -247 -106t-103 -261zM543 1190l186 295h272l-247 -295h-211zM899 1190l188 295h271l-246 -295h-213z" />
<glyph unicode="&#x152;" horiz-adv-x="2103" d="M170 604q0 173 69.5 331t187 273t281.5 183.5t345 68.5q103 0 202 -26h975l-43 -260h-598q90 -139 90 -320h392l-43 -256h-386q-58 -193 -198 -340h608l-43 -258h-993q-115 -27 -213 -27q-191 0 -336.5 83t-221 225.5t-75.5 322.5zM475 639q0 -174 102.5 -284.5 t270.5 -110.5q108 0 206 42.5t169.5 115.5t114 175t42.5 216q0 174 -102.5 285.5t-271.5 111.5q-107 0 -205 -43.5t-169.5 -116.5t-114 -175.5t-42.5 -215.5z" />
<glyph unicode="&#x153;" horiz-adv-x="2004" d="M131 449q0 134 55.5 255.5t148.5 207t217.5 136t258.5 50.5q124 0 223.5 -47t163.5 -133q81 86 189 133t231 47q211 0 325.5 -121.5t114.5 -335.5q0 -96 -24 -176h-754q-14 -108 50.5 -177t182.5 -69q96 0 168.5 41.5t114.5 89.5l170 -141q-23 -33 -63.5 -69.5 t-101.5 -76t-147.5 -65t-180.5 -25.5q-259 0 -381 181q-91 -86 -212 -133.5t-257 -47.5q-221 0 -356.5 133.5t-135.5 342.5zM418 481q0 -114 68 -186t178 -72q146 0 249 103.5t103 257.5q0 117 -68 190.5t-180 73.5q-144 0 -247 -106t-103 -261zM1319 649h461 q12 98 -42 157.5t-151 59.5t-170 -61t-98 -156z" />
<glyph unicode="&#x154;" horiz-adv-x="1198" d="M137 0l240 1434h432q202 0 312 -102t110 -263q0 -144 -79 -259t-210 -181l236 -629h-320l-184 561h-154l-94 -561h-289zM561 805h135q94 0 163 60t69 163q0 73 -48 114.5t-135 41.5h-120zM657 1511l187 295h297l-248 -295h-236z" />
<glyph unicode="&#x155;" horiz-adv-x="737" d="M111 0l180 1071h276l-26 -156q51 83 137 133t188 50l-49 -287q-152 0 -235.5 -88.5t-110.5 -255.5l-78 -467h-282zM432 1190l186 295h297l-247 -295h-236z" />
<glyph unicode="&#x156;" horiz-adv-x="1198" d="M137 0l240 1434h432q202 0 312 -102t110 -263q0 -144 -79 -259t-210 -181l236 -629h-320l-184 561h-154l-94 -561h-289zM375 -492q36 25 73 61.5t58 72.5q-48 10 -73 46t-25 81q0 69 55 120.5t125 51.5q61 0 98 -40t37 -106q0 -107 -73.5 -214t-186.5 -177zM561 805h135 q94 0 163 60t69 163q0 73 -48 114.5t-135 41.5h-120z" />
<glyph unicode="&#x157;" horiz-adv-x="737" d="M78 -492q36 25 73 61.5t58 72.5q-48 10 -73 46t-25 81q0 69 55 120.5t125 51.5q61 0 98 -40t37 -106q0 -107 -73.5 -214t-186.5 -177zM111 0l180 1071h276l-26 -156q51 83 137 133t188 50l-49 -287q-152 0 -235.5 -88.5t-110.5 -255.5l-78 -467h-282z" />
<glyph unicode="&#x158;" horiz-adv-x="1198" d="M137 0l240 1434h432q202 0 312 -102t110 -263q0 -144 -79 -259t-210 -181l236 -629h-320l-184 561h-154l-94 -561h-289zM510 1800h231l76 -145l125 145h248l-242 -287h-291zM561 805h135q94 0 163 60t69 163q0 73 -48 114.5t-135 41.5h-120z" />
<glyph unicode="&#x159;" horiz-adv-x="737" d="M111 0l180 1071h276l-26 -156q51 83 137 133t188 50l-49 -287q-152 0 -235.5 -88.5t-110.5 -255.5l-78 -467h-282zM279 1483h231l76 -146l125 146h247l-241 -287h-291z" />
<glyph unicode="&#x15a;" horiz-adv-x="1067" d="M96 305l256 119q19 -77 77 -129.5t149 -52.5q90 0 143 46t53 120q0 43 -28.5 80t-74 66t-100.5 58.5t-110 66t-100.5 79.5t-74 107t-28.5 141q0 194 141 324t367 130q82 0 151 -23t112.5 -57t76 -78t47.5 -82t21 -73l-248 -109q-46 156 -193 156q-81 0 -130.5 -44.5 t-49.5 -109.5q0 -42 29 -78.5t75 -66.5t101.5 -61t111 -68.5t101.5 -81t75 -107t29 -139.5q0 -208 -142 -336.5t-390 -128.5q-88 0 -162 23.5t-122.5 59.5t-84.5 82t-53.5 87.5t-24.5 79.5zM639 1511l186 295h297l-248 -295h-235z" />
<glyph unicode="&#x15b;" horiz-adv-x="890" d="M68 172l190 147q82 -116 227 -116q67 0 107.5 28.5t40.5 77.5q0 28 -24 50.5t-62 39.5t-84 35t-92 42.5t-84 56t-62 82t-24 114.5q0 112 62 197.5t163 128.5t223 43q72 0 131.5 -17.5t98.5 -47t64 -60.5t40 -66l-209 -139q-67 102 -176 102q-55 0 -91 -27t-36 -69 q0 -29 24 -52t62.5 -39t85 -32t93 -39t85 -53.5t62.5 -80t24 -113.5q0 -116 -65.5 -207t-172.5 -138t-235 -47q-145 0 -237.5 59t-128.5 140zM502 1190l186 295h297l-248 -295h-235z" />
<glyph unicode="&#x15c;" horiz-adv-x="1067" d="M96 305l256 119q19 -77 77 -129.5t149 -52.5q90 0 143 46t53 120q0 43 -28.5 80t-74 66t-100.5 58.5t-110 66t-100.5 79.5t-74 107t-28.5 141q0 194 141 324t367 130q82 0 151 -23t112.5 -57t76 -78t47.5 -82t21 -73l-248 -109q-46 156 -193 156q-81 0 -130.5 -44.5 t-49.5 -109.5q0 -42 29 -78.5t75 -66.5t101.5 -61t111 -68.5t101.5 -81t75 -107t29 -139.5q0 -208 -142 -336.5t-390 -128.5q-88 0 -162 23.5t-122.5 59.5t-84.5 82t-53.5 87.5t-24.5 79.5zM455 1513l241 287h291l148 -287h-238l-76 146l-125 -146h-241z" />
<glyph unicode="&#x15d;" horiz-adv-x="890" d="M68 172l190 147q82 -116 227 -116q67 0 107.5 28.5t40.5 77.5q0 28 -24 50.5t-62 39.5t-84 35t-92 42.5t-84 56t-62 82t-24 114.5q0 112 62 197.5t163 128.5t223 43q72 0 131.5 -17.5t98.5 -47t64 -60.5t40 -66l-209 -139q-67 102 -176 102q-55 0 -91 -27t-36 -69 q0 -29 24 -52t62.5 -39t85 -32t93 -39t85 -53.5t62.5 -80t24 -113.5q0 -116 -65.5 -207t-172.5 -138t-235 -47q-145 0 -237.5 59t-128.5 140zM330 1196l241 287h291l148 -287h-238l-76 145l-125 -145h-241z" />
<glyph unicode="&#x15e;" horiz-adv-x="1067" d="M96 305l256 119q19 -77 77 -129.5t149 -52.5q90 0 143 46t53 120q0 43 -28.5 80t-74 66t-100.5 58.5t-110 66t-100.5 79.5t-74 107t-28.5 141q0 194 141 324t367 130q82 0 151 -23t112.5 -57t76 -78t47.5 -82t21 -73l-248 -109q-46 156 -193 156q-81 0 -130.5 -44.5 t-49.5 -109.5q0 -42 29 -78.5t75 -66.5t101.5 -61t111 -68.5t101.5 -81t75 -107t29 -139.5q0 -196 -128.5 -323t-354.5 -140l-17 -55q61 -13 94 -57t33 -103q0 -109 -84 -173t-206 -64q-61 0 -115 18l57 146q44 -11 66 -11q41 0 70.5 20t29.5 56q0 27 -26.5 41t-65.5 14 l-37 -4l55 179q-84 13 -151.5 50.5t-107 87t-61.5 95.5t-30 90z" />
<glyph unicode="&#x15f;" horiz-adv-x="890" d="M68 172l190 147q82 -116 227 -116q67 0 107.5 28.5t40.5 77.5q0 28 -24 50.5t-62 39.5t-84 35t-92 42.5t-84 56t-62 82t-24 114.5q0 112 62 197.5t163 128.5t223 43q72 0 131.5 -17.5t98.5 -47t64 -60.5t40 -66l-209 -139q-67 102 -176 102q-55 0 -91 -27t-36 -69 q0 -29 24 -52t62.5 -39t85 -32t93 -39t85 -53.5t62.5 -80t24 -113.5q0 -158 -115 -263.5t-288 -124.5l-17 -57q61 -13 94 -57t33 -103q0 -109 -84 -173t-206 -64q-61 0 -115 18l57 146q44 -11 66 -11q41 0 70.5 20t29.5 56q0 27 -26.5 41t-65.5 14l-37 -4l55 177 q-114 14 -187 68t-103 124z" />
<glyph unicode="&#x160;" horiz-adv-x="1067" d="M96 305l256 119q19 -77 77 -129.5t149 -52.5q90 0 143 46t53 120q0 43 -28.5 80t-74 66t-100.5 58.5t-110 66t-100.5 79.5t-74 107t-28.5 141q0 194 141 324t367 130q82 0 151 -23t112.5 -57t76 -78t47.5 -82t21 -73l-248 -109q-46 156 -193 156q-81 0 -130.5 -44.5 t-49.5 -109.5q0 -42 29 -78.5t75 -66.5t101.5 -61t111 -68.5t101.5 -81t75 -107t29 -139.5q0 -208 -142 -336.5t-390 -128.5q-88 0 -162 23.5t-122.5 59.5t-84.5 82t-53.5 87.5t-24.5 79.5zM492 1800h231l76 -145l125 145h247l-241 -287h-291z" />
<glyph unicode="&#x161;" horiz-adv-x="890" d="M68 172l190 147q82 -116 227 -116q67 0 107.5 28.5t40.5 77.5q0 28 -24 50.5t-62 39.5t-84 35t-92 42.5t-84 56t-62 82t-24 114.5q0 112 62 197.5t163 128.5t223 43q72 0 131.5 -17.5t98.5 -47t64 -60.5t40 -66l-209 -139q-67 102 -176 102q-55 0 -91 -27t-36 -69 q0 -29 24 -52t62.5 -39t85 -32t93 -39t85 -53.5t62.5 -80t24 -113.5q0 -116 -65.5 -207t-172.5 -138t-235 -47q-145 0 -237.5 59t-128.5 140zM369 1483h231l76 -146l125 146h248l-242 -287h-291z" />
<glyph unicode="&#x162;" horiz-adv-x="1046" d="M240 1174l43 260h958l-43 -260h-334l-196 -1174h-107l-24 -80q61 -13 94 -57t33 -103q0 -109 -84.5 -173t-206.5 -64q-61 0 -115 18l57 146q33 -11 66 -11q41 0 70.5 20t29.5 56q0 27 -26.5 41t-65.5 14l-37 -4l62 197h-35l196 1174h-335z" />
<glyph unicode="&#x163;" horiz-adv-x="681" d="M123 -459l57 146q33 -11 66 -11q41 0 70.5 20t29.5 56q0 27 -26.5 41t-65.5 14l-37 -4l72 238q-129 97 -82 379l69 422h-112l39 229h114l37 225h279l-37 -225h201l-39 -229h-201l-70 -414q-19 -115 10.5 -153.5t116.5 -38.5q29 0 52 2l-41 -242q-45 -10 -123 -10 q-44 0 -78 6l-23 -72q61 -13 94 -57t33 -103q0 -109 -84 -173t-206 -64q-61 0 -115 18z" />
<glyph unicode="&#x164;" horiz-adv-x="1046" d="M240 1174l43 260h958l-43 -260h-334l-196 -1174h-289l196 1174h-335zM483 1800h232l76 -145l124 145h248l-241 -287h-291z" />
<glyph unicode="&#x165;" horiz-adv-x="686" d="M164 842l39 229h114l37 225h279l-37 -225h201l-39 -229h-201l-70 -414q-19 -115 10.5 -153.5t116.5 -38.5q29 0 52 2l-41 -242q-45 -10 -123 -10q-190 0 -261 107t-34 327l69 422h-112zM696 1124l74 357h266l-153 -357h-187z" />
<glyph unicode="&#x166;" horiz-adv-x="1046" d="M244 1174l43 260h958l-43 -260h-334l-55 -328h236l-35 -211h-236l-106 -635h-289l106 635h-237l35 211h237l56 328h-336z" />
<glyph unicode="&#x167;" horiz-adv-x="681" d="M104 492l31 186h115l26 164h-112l39 229h114l37 225h279l-37 -225h201l-39 -229h-201l-29 -164h185l-31 -186h-184l-11 -64q-19 -115 10.5 -153.5t116.5 -38.5q29 0 52 2l-41 -242q-45 -10 -123 -10q-190 0 -261 107t-34 327l12 72h-115z" />
<glyph unicode="&#x168;" horiz-adv-x="1417" d="M221 539l150 895h288l-149 -895q-23 -138 39 -217.5t199 -79.5t226.5 79.5t112.5 217.5l150 895h289l-150 -895q-44 -258 -222 -412t-452 -154q-273 0 -399 154t-82 412zM618 1522q20 124 94.5 199t178.5 75q48 0 94 -19t82.5 -38t62.5 -19q31 0 52.5 21.5t27.5 56.5h181 q-22 -126 -95 -200t-176 -74q-46 0 -92 19t-84.5 37.5t-66.5 18.5q-31 0 -51.5 -20t-26.5 -57h-181z" />
<glyph unicode="&#x169;" horiz-adv-x="1138" d="M163 315.5q2 63.5 15 137.5l105 618h280l-108 -651q-15 -87 28 -140t117 -53q87 0 149 57t76 144l109 643h280l-178 -1071h-276l20 125q-48 -62 -132 -107t-181 -45q-88 0 -150.5 28.5t-94.5 74.5t-46.5 111t-12.5 128.5zM412 1200q20 124 94 199.5t178 75.5q48 0 94 -19 t83 -38t63 -19q31 0 52.5 21.5t27.5 56.5h180q-22 -126 -95 -200.5t-176 -74.5q-46 0 -92 19t-84.5 38t-66.5 19q-31 0 -51.5 -20.5t-26.5 -57.5h-180z" />
<glyph unicode="&#x16a;" horiz-adv-x="1417" d="M221 539l150 895h288l-149 -895q-23 -138 39 -217.5t199 -79.5t226.5 79.5t112.5 217.5l150 895h289l-150 -895q-44 -258 -222 -412t-452 -154q-273 0 -399 154t-82 412zM696 1538l35 207h549l-35 -207h-549z" />
<glyph unicode="&#x16b;" horiz-adv-x="1138" d="M163 315.5q2 63.5 15 137.5l105 618h280l-108 -651q-15 -87 28 -140t117 -53q87 0 149 57t76 144l109 643h280l-178 -1071h-276l20 125q-48 -62 -132 -107t-181 -45q-88 0 -150.5 28.5t-94.5 74.5t-46.5 111t-12.5 128.5zM510 1235l35 207h549l-35 -207h-549z" />
<glyph unicode="&#x16c;" horiz-adv-x="1417" d="M221 539l150 895h288l-149 -895q-23 -138 39 -217.5t199 -79.5t226.5 79.5t112.5 217.5l150 895h289l-150 -895q-44 -258 -222 -412t-452 -154q-273 0 -399 154t-82 412zM717 1810h196q-20 -127 86 -127q59 0 89.5 36t39.5 91h209q-22 -131 -117.5 -211.5t-242.5 -80.5 q-145 0 -213.5 81t-46.5 211z" />
<glyph unicode="&#x16d;" horiz-adv-x="1138" d="M163 315.5q2 63.5 15 137.5l105 618h280l-108 -651q-15 -87 28 -140t117 -53q87 0 149 57t76 144l109 643h280l-178 -1071h-276l20 125q-48 -62 -132 -107t-181 -45q-88 0 -150.5 28.5t-94.5 74.5t-46.5 111t-12.5 128.5zM512 1483h197q-20 -127 86 -127q59 0 89.5 36 t39.5 91h209q-22 -131 -118 -212t-243 -81q-145 0 -213.5 81.5t-46.5 211.5z" />
<glyph unicode="&#x16e;" horiz-adv-x="1417" d="M221 539l150 895h288l-149 -895q-23 -138 39 -217.5t199 -79.5t226.5 79.5t112.5 217.5l150 895h289l-150 -895q-44 -258 -222 -412t-452 -154q-273 0 -399 154t-82 412zM776 1671q0 99 75.5 165.5t180.5 66.5q85 0 138 -48t53 -124q0 -100 -76.5 -167t-183.5 -67 q-82 0 -134.5 49t-52.5 125zM920 1686q0 -30 17.5 -48t47.5 -18q41 0 67.5 27t26.5 67q0 30 -17.5 48t-49.5 18q-40 0 -66 -26.5t-26 -67.5z" />
<glyph unicode="&#x16f;" horiz-adv-x="1138" d="M163 315.5q2 63.5 15 137.5l105 618h280l-108 -651q-15 -87 28 -140t117 -53q87 0 149 57t76 144l109 643h280l-178 -1071h-276l20 125q-48 -62 -132 -107t-181 -45q-88 0 -150.5 28.5t-94.5 74.5t-46.5 111t-12.5 128.5zM582 1329q0 99 75.5 165.5t180.5 66.5 q85 0 137.5 -47.5t52.5 -124.5q0 -100 -76.5 -167t-183.5 -67q-82 0 -134 49t-52 125zM725 1343q0 -29 17.5 -47t48.5 -18q41 0 67.5 27t26.5 67q0 30 -18 48t-50 18q-40 0 -66 -27t-26 -68z" />
<glyph unicode="&#x170;" horiz-adv-x="1423" d="M221 539l150 895h288l-149 -895q-23 -138 39 -217.5t199 -79.5t226.5 79.5t112.5 217.5l150 895h289l-150 -895q-44 -258 -222 -412t-452 -154q-273 0 -399 154t-82 412zM674 1511l186 295h273l-248 -295h-211zM1030 1511l189 295h270l-246 -295h-213z" />
<glyph unicode="&#x171;" horiz-adv-x="1138" d="M163 315.5q2 63.5 15 137.5l105 618h280l-108 -651q-15 -87 28 -140t117 -53q87 0 149 57t76 144l109 643h280l-178 -1071h-276l20 125q-48 -62 -132 -107t-181 -45q-88 0 -150.5 28.5t-94.5 74.5t-46.5 111t-12.5 128.5zM453 1190l186 295h272l-247 -295h-211zM809 1190 l188 295h271l-246 -295h-213z" />
<glyph unicode="&#x172;" horiz-adv-x="1417" d="M221 539l150 895h288l-149 -895q-23 -138 39 -217.5t199 -79.5t226.5 79.5t112.5 217.5l150 895h289l-150 -895q-36 -204 -157 -346t-308 -193q-15 -5 -34 -15t-43.5 -27t-41 -43.5t-16.5 -55.5q0 -33 27.5 -52.5t64.5 -19.5l-32 -201q-28 -8 -74 -8q-47 0 -86.5 8 t-75 26t-56 52t-20.5 82q0 136 148 227q-258 9 -375.5 161.5t-75.5 404.5z" />
<glyph unicode="&#x173;" horiz-adv-x="1138" d="M163 315.5q2 63.5 15 137.5l105 618h280l-108 -651q-15 -87 28 -140t117 -53q87 0 149 57t76 144l109 643h280l-178 -1071q-15 -5 -34 -15t-43.5 -27t-41 -43.5t-16.5 -55.5q0 -33 27.5 -52.5t64.5 -19.5l-32 -201q-28 -8 -74 -8q-47 0 -86.5 8t-75 26t-56 52t-20.5 82 t20 91.5t52 75t64 53t63 34.5h-88l20 125q-48 -62 -132 -107t-181 -45q-88 0 -150.5 28.5t-94.5 74.5t-46.5 111t-12.5 128.5z" />
<glyph unicode="&#x174;" horiz-adv-x="2000" d="M258 1434h315l68 -1074l465 1074h266l105 -1074l430 1074h313l-623 -1434h-327l-105 989l-436 -989h-326zM915 1513l242 287h291l147 -287h-237l-76 146l-125 -146h-242z" />
<glyph unicode="&#x175;" horiz-adv-x="1695" d="M195 1071h307l61 -760l332 760h266l76 -760l317 760h308l-502 -1071h-316l-79 686l-316 -686h-315zM709 1196l241 287h291l148 -287h-238l-76 145l-125 -145h-241z" />
<glyph unicode="&#x176;" horiz-adv-x="1196" d="M254 1434h321l173 -514l344 514h329l-571 -779l-109 -655h-286l108 655zM514 1513l242 287h291l147 -287h-238l-75 146l-125 -146h-242z" />
<glyph unicode="&#x177;" horiz-adv-x="1105" d="M193 1071h301l122 -698l357 698h299l-787 -1438h-270l215 394zM420 1196l242 287h290l148 -287h-238l-76 145l-124 -145h-242z" />
<glyph unicode="&#x178;" horiz-adv-x="1196" d="M254 1434h321l173 -514l344 514h329l-571 -779l-109 -655h-286l108 655zM543 1655q0 65 49.5 112.5t116.5 47.5q53 0 84.5 -34.5t31.5 -86.5q0 -64 -48.5 -111t-114.5 -47q-54 0 -86.5 33.5t-32.5 85.5zM936 1655q0 64 48.5 112t117.5 48q53 0 85 -34.5t32 -86.5 q0 -64 -49 -111t-115 -47q-54 0 -86.5 33.5t-32.5 85.5z" />
<glyph unicode="&#x179;" horiz-adv-x="1234" d="M66 0l30 188l865 990h-678l43 256h1069l-31 -189l-868 -989h708l-43 -256h-1095zM713 1511l186 295h297l-248 -295h-235z" />
<glyph unicode="&#x17a;" horiz-adv-x="958" d="M57 0l29 174l594 662h-469l41 235h819l-31 -176l-594 -659h490l-39 -236h-840zM522 1190l187 295h297l-248 -295h-236z" />
<glyph unicode="&#x17b;" horiz-adv-x="1234" d="M66 0l30 188l865 990h-678l43 256h1069l-31 -189l-868 -989h708l-43 -256h-1095zM727 1634q0 76 59 130.5t136 54.5q62 0 101.5 -39.5t39.5 -100.5q0 -76 -59 -130t-138 -54q-61 0 -100 39.5t-39 99.5z" />
<glyph unicode="&#x17c;" horiz-adv-x="958" d="M57 0l29 174l594 662h-469l41 235h819l-31 -176l-594 -659h490l-39 -236h-840zM543 1307q0 76 58.5 130t135.5 54q63 0 102.5 -39.5t39.5 -99.5q0 -76 -59 -130.5t-138 -54.5q-61 0 -100 40t-39 100z" />
<glyph unicode="&#x17d;" horiz-adv-x="1234" d="M66 0l30 188l865 990h-678l43 256h1069l-31 -189l-868 -989h708l-43 -256h-1095zM575 1800h232l76 -145l125 145h247l-241 -287h-291z" />
<glyph unicode="&#x17e;" horiz-adv-x="958" d="M57 0l29 174l594 662h-469l41 235h819l-31 -176l-594 -659h490l-39 -236h-840zM393 1483h232l75 -146l125 146h248l-242 -287h-290z" />
<glyph unicode="&#x192;" horiz-adv-x="974" d="M-78 -381l47 236q41 -9 72 -9q87 0 125 45.5t63 171.5l117 599h-121l15 229h151l39 203q15 81 49 145t77.5 104t98 66t107.5 36.5t110 10.5q34 0 66 -3t48 -6l15 -3l-45 -236q-32 9 -71 9q-148 0 -178 -152l-35 -174h178l-14 -229h-211l-129 -670q-75 -385 -445 -385 q-60 0 -129 12z" />
<glyph unicode="&#x1fa;" horiz-adv-x="1351" d="M16 0l721 1384q-28 42 -28 105q0 101 74.5 167t179.5 66q85 0 137.5 -47.5t52.5 -124.5q0 -98 -78 -166l260 -1384h-286l-64 369h-487l-187 -369h-295zM616 608h334l-82 516zM838 1780l188 295h297l-250 -295h-235zM850 1505q0 -30 18 -47.5t50 -17.5q40 0 66 27t26 67 q0 30 -18 47.5t-48 17.5q-40 0 -67 -26.5t-27 -67.5z" />
<glyph unicode="&#x1fb;" horiz-adv-x="1077" d="M98 281q0 177 137 291t345 114q75 0 132.5 -17.5t88.5 -41.5l12 69q12 72 -32 115t-136 43q-138 0 -297 -76l-76 193q89 54 209 90.5t236 36.5q101 0 175 -20.5t117.5 -58t67.5 -90t25 -116t-10 -135.5l-113 -678h-250l-6 70q-109 -97 -277 -97q-152 0 -250 83.5 t-98 224.5zM387 322q0 -58 45 -93.5t119 -35.5q90 0 150.5 46t60.5 121q0 61 -44.5 95t-119.5 34q-90 0 -150.5 -47.5t-60.5 -119.5zM539 1315q0 99 75.5 165t180.5 66q85 0 137.5 -47.5t52.5 -124.5q0 -100 -76.5 -166.5t-183.5 -66.5q-82 0 -134 49t-52 125zM666 1585 l186 295h297l-248 -295h-235zM682 1329q0 -29 18 -47t48 -18q41 0 67.5 27t26.5 67q0 30 -18 47.5t-50 17.5q-40 0 -66 -26.5t-26 -67.5z" />
<glyph unicode="&#x1fc;" horiz-adv-x="1755" d="M16 0l971 1434h897l-43 -260h-446l-54 -320h383l-43 -256h-383l-57 -340h465l-43 -258h-754l62 369h-396l-245 -369h-314zM723 608h289l90 545h-19zM1165 1511l187 295h297l-248 -295h-236z" />
<glyph unicode="&#x1fd;" horiz-adv-x="1781" d="M98 281q0 178 136 291.5t346 113.5q75 0 132.5 -17.5t86.5 -41.5l12 69q12 72 -32 115t-136 43q-138 0 -297 -76q-15 36 -40 103.5t-34 89.5q214 127 443 127q238 0 319 -135q157 135 361 135q211 0 325.5 -121.5t114.5 -335.5q0 -93 -25 -176h-753q-14 -108 51 -177 t184 -69q67 0 128.5 25t94.5 51t58 55l170 -141q-24 -33 -65 -69.5t-102.5 -76t-148 -65t-180.5 -25.5q-136 0 -237 46t-158 133q-146 -179 -408 -179q-150 0 -248 83.5t-98 224.5zM385 322q0 -58 45.5 -93.5t118.5 -35.5q91 0 150 47t59 122q0 59 -43.5 93t-116.5 34 q-91 0 -152 -47.5t-61 -119.5zM942 1190l186 295h297l-247 -295h-236zM1096 649h458q10 98 -43 157.5t-151 59.5q-96 0 -167.5 -61t-96.5 -156z" />
<glyph unicode="&#x1fe;" horiz-adv-x="1613" d="M170 604q0 173 69.5 331t187 273t281.5 183.5t345 68.5q208 0 360 -100l119 123l135 -123l-117 -123q133 -169 133 -410q0 -174 -69 -332t-186 -272.5t-280.5 -182t-344.5 -67.5q-218 0 -371 103l-121 -125l-133 123l121 125q-129 167 -129 405zM475 639q0 -118 47 -207 l680 707q-85 51 -196 51q-107 0 -205 -43.5t-169.5 -116.5t-114 -175.5t-42.5 -215.5zM645 297q83 -53 203 -53q108 0 206 42.5t169.5 115.5t114 175t42.5 216q0 123 -53 215zM913 1511l187 295h297l-248 -295h-236z" />
<glyph unicode="&#x1ff;" horiz-adv-x="1255" d="M131 449q0 134 55.5 255.5t148.5 207t217.5 136t258.5 50.5q148 0 270 -72l97 100l118 -104l-96 -100q103 -128 103 -308q0 -178 -91.5 -325.5t-247.5 -231.5t-341 -84q-148 0 -267 66l-100 -105l-117 105l97 100q-105 124 -105 310zM418 481q0 -69 24 -125l443 465 q-56 27 -117 27q-144 0 -247 -106t-103 -261zM553 246q54 -23 111 -23q146 0 249 103.5t103 257.5q0 63 -25 118zM676 1190l186 295h297l-248 -295h-235z" />
<glyph unicode="&#x218;" horiz-adv-x="1067" d="M96 305l256 119q19 -77 77 -129.5t149 -52.5q90 0 143 46t53 120q0 43 -28.5 80t-74 66t-100.5 58.5t-110 66t-100.5 79.5t-74 107t-28.5 141q0 194 141 324t367 130q82 0 151 -23t112.5 -57t76 -78t47.5 -82t21 -73l-248 -109q-46 156 -193 156q-81 0 -130.5 -44.5 t-49.5 -109.5q0 -42 29 -78.5t75 -66.5t101.5 -61t111 -68.5t101.5 -81t75 -107t29 -139.5q0 -208 -142 -336.5t-390 -128.5q-88 0 -162 23.5t-122.5 59.5t-84.5 82t-53.5 87.5t-24.5 79.5zM295 -492q36 25 73 61.5t58 72.5q-48 10 -73 46t-25 81q0 69 55 120.5t125 51.5 q61 0 98 -40t37 -106q0 -107 -73.5 -214t-186.5 -177z" />
<glyph unicode="&#x219;" horiz-adv-x="890" d="M68 172l190 147q82 -116 227 -116q67 0 107.5 28.5t40.5 77.5q0 28 -24 50.5t-62 39.5t-84 35t-92 42.5t-84 56t-62 82t-24 114.5q0 112 62 197.5t163 128.5t223 43q72 0 131.5 -17.5t98.5 -47t64 -60.5t40 -66l-209 -139q-67 102 -176 102q-55 0 -91 -27t-36 -69 q0 -29 24 -52t62.5 -39t85 -32t93 -39t85 -53.5t62.5 -80t24 -113.5q0 -116 -65.5 -207t-172.5 -138t-235 -47q-145 0 -237.5 59t-128.5 140zM225 -492q36 25 73 61.5t58 72.5q-48 10 -73 46t-25 81q0 69 55 120.5t125 51.5q61 0 98 -40t37 -106q0 -107 -73.5 -214 t-186.5 -177z" />
<glyph unicode="&#x21a;" horiz-adv-x="1046" d="M240 1174l43 260h958l-43 -260h-334l-196 -1174h-289l196 1174h-335zM270 -492q36 25 73 61.5t58 72.5q-48 10 -73 46t-25 81q0 69 55 120.5t125 51.5q61 0 98 -40t37 -106q0 -107 -73.5 -214t-186.5 -177z" />
<glyph unicode="&#x21b;" horiz-adv-x="681" d="M164 842l39 229h114l37 225h279l-37 -225h201l-39 -229h-201l-70 -414q-19 -115 10.5 -153.5t116.5 -38.5q29 0 52 2l-41 -242q-45 -10 -123 -10q-190 0 -261 107t-34 327l69 422h-112zM166 -492q36 25 73 61.5t58 72.5q-48 10 -73 46t-25 81q0 69 55 120.5t125 51.5 q61 0 98 -40t37 -106q0 -107 -73.5 -214t-186.5 -177z" />
<glyph unicode="&#x237;" d="M-152 -387l41 240q28 -5 48 -5q150 0 172 150l180 1073h282l-182 -1085q-63 -377 -471 -377z" />
<glyph unicode="&#x2c6;" horiz-adv-x="911" d="M315 1196l242 287h291l147 -287h-237l-76 145l-125 -145h-242z" />
<glyph unicode="&#x2c7;" horiz-adv-x="911" d="M362 1483h232l76 -146l125 146h247l-241 -287h-291z" />
<glyph unicode="&#x2d8;" horiz-adv-x="911" d="M391 1483h197q-20 -127 86 -127q59 0 89.5 36t39.5 91h209q-22 -131 -118 -212t-243 -81q-145 0 -213.5 81.5t-46.5 211.5z" />
<glyph unicode="&#x2d9;" horiz-adv-x="911" d="M510 1307q0 76 58.5 130t136.5 54q63 0 102 -39.5t39 -99.5q0 -76 -59 -130.5t-138 -54.5q-61 0 -100 40t-39 100z" />
<glyph unicode="&#x2da;" horiz-adv-x="911" d="M459 1329q0 99 75.5 165.5t180.5 66.5q85 0 137.5 -47.5t52.5 -124.5q0 -100 -76.5 -167t-183.5 -67q-82 0 -134 49t-52 125zM602 1343q0 -29 18 -47t48 -18q41 0 67.5 27t26.5 67q0 30 -18 48t-50 18q-40 0 -66 -27t-26 -68z" />
<glyph unicode="&#x2db;" horiz-adv-x="911" d="M242 -254q0 90 63 157t135 97h189q-15 -5 -34 -15t-43.5 -27t-41 -43.5t-16.5 -55.5q0 -33 27.5 -52.5t64.5 -19.5l-33 -201q-28 -8 -74 -8q-47 0 -86.5 8t-74.5 26t-55.5 52t-20.5 82z" />
<glyph unicode="&#x2dc;" horiz-adv-x="911" d="M293 1200q20 124 94 199.5t178 75.5q48 0 94 -19t83 -38t63 -19q31 0 52.5 21.5t27.5 56.5h180q-22 -126 -94.5 -200.5t-175.5 -74.5q-46 0 -92.5 19t-85 38t-66.5 19q-31 0 -51.5 -20.5t-26.5 -57.5h-180z" />
<glyph unicode="&#x2dd;" horiz-adv-x="952" d="M291 1190l186 295h273l-248 -295h-211zM647 1190l189 295h270l-246 -295h-213z" />
<glyph unicode="&#x1e80;" horiz-adv-x="1996" d="M258 1434h315l68 -1074l465 1074h266l105 -1074l430 1074h313l-623 -1434h-327l-105 989l-436 -989h-326zM963 1806h299l88 -295h-228z" />
<glyph unicode="&#x1e81;" horiz-adv-x="1695" d="M195 1071h307l61 -760l332 760h266l76 -760l317 760h308l-502 -1071h-316l-79 686l-316 -686h-315zM770 1485h299l88 -295h-227z" />
<glyph unicode="&#x1e82;" horiz-adv-x="1998" d="M258 1434h315l68 -1074l465 1074h266l105 -1074l430 1074h313l-623 -1434h-327l-105 989l-436 -989h-326zM1124 1511l187 295h297l-248 -295h-236z" />
<glyph unicode="&#x1e83;" horiz-adv-x="1695" d="M195 1071h307l61 -760l332 760h266l76 -760l317 760h308l-502 -1071h-316l-79 686l-316 -686h-315zM934 1190l186 295h297l-248 -295h-235z" />
<glyph unicode="&#x1e84;" horiz-adv-x="1998" d="M258 1434h315l68 -1074l465 1074h266l105 -1074l430 1074h313l-623 -1434h-327l-105 989l-436 -989h-326zM942 1642q0 65 49.5 112.5t116.5 47.5q53 0 85 -34.5t32 -86.5q0 -64 -49 -110.5t-115 -46.5q-55 0 -87 33t-32 85zM1335 1642q0 64 48.5 112t117.5 48 q53 0 85 -34.5t32 -86.5q0 -64 -49 -110.5t-115 -46.5q-55 0 -87 33t-32 85z" />
<glyph unicode="&#x1e85;" horiz-adv-x="1695" d="M195 1071h307l61 -760l332 760h266l76 -760l317 760h308l-502 -1071h-316l-79 686l-316 -686h-315zM731 1317q0 65 49.5 112.5t116.5 47.5q53 0 85 -34.5t32 -86.5q0 -64 -49 -111t-115 -47q-54 0 -86.5 33.5t-32.5 85.5zM1124 1317q0 64 48.5 112t117.5 48 q53 0 85 -34.5t32 -86.5q0 -64 -49 -111t-115 -47q-54 0 -86.5 33.5t-32.5 85.5z" />
<glyph unicode="&#x1ef2;" horiz-adv-x="1196" d="M254 1434h321l173 -514l344 514h329l-571 -779l-109 -655h-286l108 655zM612 1806h299l88 -295h-227z" />
<glyph unicode="&#x1ef3;" horiz-adv-x="1105" d="M193 1071h301l122 -698l357 698h299l-787 -1438h-270l215 394zM516 1485h299l88 -295h-227z" />
<glyph unicode="&#x2000;" horiz-adv-x="1037" />
<glyph unicode="&#x2001;" horiz-adv-x="2075" />
<glyph unicode="&#x2002;" horiz-adv-x="1037" />
<glyph unicode="&#x2003;" horiz-adv-x="2075" />
<glyph unicode="&#x2004;" horiz-adv-x="691" />
<glyph unicode="&#x2005;" horiz-adv-x="518" />
<glyph unicode="&#x2006;" horiz-adv-x="345" />
<glyph unicode="&#x2007;" horiz-adv-x="345" />
<glyph unicode="&#x2008;" horiz-adv-x="259" />
<glyph unicode="&#x2009;" horiz-adv-x="415" />
<glyph unicode="&#x200a;" horiz-adv-x="115" />
<glyph unicode="&#x2010;" horiz-adv-x="755" d="M174 496l43 254h569l-43 -254h-569z" />
<glyph unicode="&#x2011;" horiz-adv-x="755" d="M174 496l43 254h569l-43 -254h-569z" />
<glyph unicode="&#x2012;" horiz-adv-x="755" d="M174 496l43 254h569l-43 -254h-569z" />
<glyph unicode="&#x2013;" horiz-adv-x="1327" d="M178 514l39 231h1143l-39 -231h-1143z" />
<glyph unicode="&#x2014;" horiz-adv-x="1880" d="M178 514l39 231h1694l-39 -231h-1694z" />
<glyph unicode="&#x2018;" horiz-adv-x="460" d="M225 1020q0 130 88.5 262.5t216.5 216.5l97 -123q-44 -27 -93 -74t-69 -92q56 -13 86.5 -54t30.5 -93q0 -78 -62.5 -138.5t-142.5 -60.5q-66 0 -109 42t-43 114z" />
<glyph unicode="&#x2019;" horiz-adv-x="460" d="M227 987q44 27 93 74t69 92q-56 13 -86.5 54t-30.5 93q0 78 62.5 138.5t142.5 60.5q66 0 109 -42t43 -114q0 -130 -88.5 -262.5t-216.5 -216.5z" />
<glyph unicode="&#x201a;" horiz-adv-x="499" d="M51 -190q44 27 93 73.5t69 91.5q-56 13 -86.5 54.5t-30.5 93.5q0 78 62.5 138.5t142.5 60.5q66 0 109 -42t43 -114q0 -129 -89 -262t-217 -217z" />
<glyph unicode="&#x201c;" horiz-adv-x="870" d="M225 1020q0 130 88.5 262.5t216.5 216.5l97 -123q-44 -27 -93 -74t-69 -92q56 -13 86.5 -54t30.5 -93q0 -78 -62.5 -138.5t-142.5 -60.5q-66 0 -109 42t-43 114zM635 1020q0 130 88.5 262.5t216.5 216.5l96 -123q-44 -27 -93 -74t-69 -92q56 -13 86.5 -54t30.5 -93 q0 -78 -62.5 -138.5t-142.5 -60.5q-66 0 -108.5 42t-42.5 114z" />
<glyph unicode="&#x201d;" horiz-adv-x="870" d="M227 987q44 27 93 74t69 92q-56 13 -86.5 54t-30.5 93q0 78 62.5 138.5t142.5 60.5q66 0 109 -42t43 -114q0 -130 -88.5 -262.5t-216.5 -216.5zM637 987q44 27 93 74t69 92q-56 13 -86.5 54t-30.5 93q0 78 62.5 138.5t142.5 60.5q66 0 108.5 -42t42.5 -114 q0 -130 -88.5 -262.5t-216.5 -216.5z" />
<glyph unicode="&#x201e;" horiz-adv-x="870" d="M29 -190q44 27 92.5 73.5t68.5 91.5q-56 13 -86 54.5t-30 93.5q0 78 62.5 138.5t142.5 60.5q66 0 108.5 -42t42.5 -114q0 -130 -88.5 -262.5t-216.5 -216.5zM438 -190q44 27 93 73.5t69 91.5q-56 13 -86.5 54.5t-30.5 93.5q0 78 62.5 138.5t142.5 60.5q66 0 109 -42 t43 -114q0 -130 -88.5 -262.5t-216.5 -216.5z" />
<glyph unicode="&#x2020;" horiz-adv-x="870" d="M199 852l41 246h239l58 336h276l-57 -336h243l-41 -246h-243l-144 -852h-276l143 852h-239z" />
<glyph unicode="&#x2021;" horiz-adv-x="868" d="M113 346l41 244h243l41 250h-243l41 245h243l60 349h276l-59 -349h239l-41 -245h-239l-41 -250h239l-41 -244h-239l-58 -346h-276l57 346h-243z" />
<glyph unicode="&#x2022;" horiz-adv-x="831" d="M164 584q0 164 123.5 283.5t292.5 119.5q133 0 216 -86.5t83 -214.5q0 -164 -123.5 -283.5t-292.5 -119.5q-134 0 -216.5 86t-82.5 215z" />
<glyph unicode="&#x202f;" horiz-adv-x="415" />
<glyph unicode="&#x2030;" horiz-adv-x="2439" d="M143 0l1325 1434h275l-1325 -1434h-275zM240 1071q0 157 121.5 273t287.5 116q132 0 214.5 -84.5t82.5 -210.5q0 -157 -122 -273t-289 -116q-131 0 -213 84.5t-82 210.5zM457 1098q0 -50 30 -83.5t82 -33.5q67 0 112.5 47.5t45.5 110.5q0 50 -29.5 83t-81.5 33 q-67 0 -113 -47t-46 -110zM938 264q0 103 56 193t151 143t203 53q132 0 214.5 -84.5t82.5 -210.5q0 -103 -56.5 -193t-151.5 -143t-204 -53q-132 0 -213.5 84.5t-81.5 210.5zM1155 291q0 -49 30.5 -83t82.5 -34q67 0 112 47.5t45 110.5q0 50 -29 83.5t-81 33.5 q-67 0 -113.5 -47.5t-46.5 -110.5zM1733 264q0 157 121.5 273t287.5 116q132 0 214.5 -84.5t82.5 -210.5q0 -77 -33.5 -149t-89 -124.5t-131.5 -84t-157 -31.5q-132 0 -213.5 84.5t-81.5 210.5zM1950 291q0 -49 30 -83t82 -34q67 0 112.5 47.5t45.5 110.5q0 50 -29.5 83.5 t-81.5 33.5q-67 0 -113 -47.5t-46 -110.5z" />
<glyph unicode="&#x2039;" horiz-adv-x="618" d="M158 600l301 385h264l-311 -395l184 -373h-252z" />
<glyph unicode="&#x203a;" horiz-adv-x="618" d="M94 217l312 395l-185 373h252l186 -383l-301 -385h-264z" />
<glyph unicode="&#x2044;" horiz-adv-x="942" d="M-51 -84l1034 1602h252l-1036 -1602h-250z" />
<glyph unicode="&#x205f;" horiz-adv-x="518" />
<glyph unicode="&#x20ac;" horiz-adv-x="1320" d="M129 473l31 186h102q3 51 21 125h-103l33 189h139q100 216 299.5 351.5t446.5 135.5q220 0 350 -92l-145 -235q-102 63 -240 63q-122 0 -227.5 -60.5t-167.5 -162.5h452l-51 -189h-483q-21 -65 -21 -125h473l-49 -186h-397q30 -105 115.5 -166t210.5 -61q77 0 148.5 20.5 t113.5 46.5l75 -233q-51 -40 -157.5 -73.5t-225.5 -33.5q-258 0 -417.5 138t-188.5 362h-137z" />
<glyph unicode="&#x2116;" horiz-adv-x="2351" d="M135 0l240 1434h293l448 -983l164 983h285l-240 -1434h-287l-454 975l-164 -975h-285zM1575 387l37 227h686l-37 -227h-686zM1651 1034q0 109 59.5 207.5t163 158.5t223.5 60q145 0 233.5 -94t88.5 -229q0 -109 -59.5 -206.5t-163 -156.5t-224.5 -59q-145 0 -233 92 t-88 227zM1858 1061q0 -63 39.5 -106.5t107.5 -43.5q85 0 146 60.5t61 138.5q0 64 -40 109t-108 45q-86 0 -146 -62.5t-60 -140.5z" />
<glyph unicode="&#x2122;" horiz-adv-x="1591" d="M276 1260l29 174h551l-29 -174h-178l-94 -566h-193l95 566h-181zM803 694l123 740h243l103 -435l248 435h245l-123 -740h-186l72 430l-203 -348h-176l-88 348l-72 -430h-186z" />
<glyph unicode="&#x2212;" horiz-adv-x="1126" d="M162 524l39 228h979l-39 -228h-979z" />
<glyph unicode="&#x25fc;" horiz-adv-x="1075" d="M0 0v1075h1075v-1075h-1075z" />
<glyph unicode="&#xf6c3;" horiz-adv-x="598" d="M72 -492q36 25 73 61.5t58 72.5q-48 10 -73.5 46t-25.5 81q0 69 55.5 120.5t125.5 51.5q61 0 98 -40t37 -106q0 -107 -73.5 -214t-186.5 -177z" />
<glyph horiz-adv-x="755" d="M190 592l43 254h570l-43 -254h-570z" />
<glyph horiz-adv-x="1327" d="M195 608l38 232h1143l-39 -232h-1142z" />
<glyph horiz-adv-x="1880" d="M195 608l38 232h1694l-39 -232h-1693z" />
<glyph horiz-adv-x="1003" d="M180 731l301 385h264l-311 -395l184 -373h-251zM565 731l301 385h264l-311 -395l185 -373h-252z" />
<glyph horiz-adv-x="1003" d="M115 348l311 395l-184 373h252l186 -383l-301 -385h-264zM500 348l311 395l-184 373h252l186 -383l-301 -385h-264z" />
<glyph horiz-adv-x="618" d="M180 731l301 385h264l-311 -395l184 -373h-251z" />
<glyph horiz-adv-x="618" d="M115 348l311 395l-184 373h252l186 -383l-301 -385h-264z" />
<glyph horiz-adv-x="679" d="M119 158l186 1112q73 434 529 434l-41 -244q-175 0 -205 -174l-191 -1143q-30 -174 148 -174l-41 -243q-457 0 -385 432z" />
<glyph horiz-adv-x="681" d="M86 -274l41 243q175 0 205 174l190 1143q30 174 -145 174l41 244q456 0 383 -434l-187 -1112q-72 -432 -528 -432z" />
<glyph horiz-adv-x="679" d="M47 -274l332 1978h457l-41 -244h-177l-249 -1491h176l-41 -243h-457z" />
<glyph horiz-adv-x="684" d="M86 -274l41 243h176l250 1491h-176l41 244h456l-331 -1978h-457z" />
<glyph horiz-adv-x="794" d="M156 584l45 264q149 0 182 203l37 219q73 434 530 434l-41 -244q-182 0 -209 -174l-49 -303q-11 -66 -39 -119.5t-61.5 -83t-60 -45t-46.5 -20.5q17 -4 38.5 -19.5t45 -45t34 -82.5t-0.5 -119l-51 -306q-30 -174 149 -174l-41 -243q-458 0 -385 434l37 221 q33 203 -114 203z" />
<glyph horiz-adv-x="577" d="M86 -420l363 2169h266l-363 -2169h-266z" />
<glyph horiz-adv-x="794" d="M86 -274l41 243q177 0 207 174l51 306q11 66 39 119t61.5 82.5t60.5 45t46 19.5q-18 5 -39 20.5t-44.5 45t-34 83t0.5 119.5l49 303q30 174 -147 174l41 244q456 0 383 -434l-37 -219q-33 -203 117 -203l-45 -264q-147 0 -183 -203l-39 -221q-76 -434 -528 -434z" />
<glyph horiz-adv-x="925" d="M0 -166l911 1757h254l-911 -1757h-254z" />
<glyph horiz-adv-x="925" d="M297 1591h248l321 -1757h-248z" />
<glyph horiz-adv-x="598" d="M150 0l194 1026h254l-149 -1026h-299zM338 1264q0 79 61.5 137.5t143.5 58.5q65 0 106 -42.5t41 -106.5q0 -78 -62 -138.5t-143 -60.5q-65 0 -106 44t-41 108z" />
<glyph horiz-adv-x="987" d="M117 315q0 72 22.5 134.5t59 107.5t81.5 85t91 75t85.5 68t68.5 73.5t36 83.5l14 84h273l-17 -100q-10 -59 -38 -111t-65.5 -90t-81 -73t-84.5 -67t-75 -64t-54.5 -71t-20.5 -83q0 -56 39.5 -95t109.5 -39q129 0 203 127l221 -100q-24 -48 -62 -93.5t-95 -91.5t-139 -74 t-175 -28q-179 0 -288 95t-109 247zM580 1264q0 79 61 137.5t143 58.5q65 0 106.5 -42.5t41.5 -106.5q0 -78 -62 -138.5t-143 -60.5q-65 0 -106 44t-41 108z" />
<glyph horiz-adv-x="509" d="M199 702q0 78 62.5 138.5t144.5 60.5q65 0 105 -43.5t40 -107.5q0 -79 -61.5 -138t-143.5 -59q-65 0 -106 42.5t-41 106.5z" />
<glyph horiz-adv-x="831" d="M180 674q0 107 57 200.5t153 148t206 54.5q134 0 216.5 -86t82.5 -215q0 -164 -123.5 -283.5t-292.5 -119.5q-134 0 -216.5 86t-82.5 215z" />
<glyph horiz-adv-x="1189" d="M221 717q59 375 203.5 559t406.5 184q263 0 350.5 -183.5t28.5 -559.5q-60 -377 -205 -560.5t-409 -183.5q-262 0 -348.5 183.5t-26.5 560.5zM486 459.5q-1 -56.5 7 -94t25.5 -66t47.5 -42t73 -13.5q52 0 92 21t68 57t50.5 98t37.5 130t31 167q13 82 19 141t7 115.5 t-7.5 94t-26 66.5t-48 42.5t-74.5 13.5q-51 0 -90.5 -21t-67.5 -57t-49.5 -98.5t-36.5 -130t-30 -166.5q-13 -82 -20 -141.5t-8 -116z" />
<glyph horiz-adv-x="1189" d="M158 0l43 252h364l150 895l-328 -131l-68 219l484 199h244l-197 -1182h266l-43 -252h-915z" />
<glyph horiz-adv-x="1189" d="M125 0l18 115q15 90 66.5 176.5t122 155t152 133.5t160.5 123.5t144 114t104.5 115t39.5 116.5q0 67 -42 106t-116 39q-154 0 -231 -168l-248 74q19 48 46 93t72.5 95t100.5 87t133.5 61t167.5 24q184 0 301 -101.5t117 -266.5q0 -89 -35 -171.5t-93 -147.5t-128 -124.5 t-144.5 -111t-139.5 -98t-115 -95t-68 -92.5h602l-43 -252h-944z" />
<glyph horiz-adv-x="1189" d="M168 326l260 77q11 -73 59.5 -119t135.5 -46q100 0 167.5 63.5t67.5 161.5q0 75 -52.5 120.5t-152.5 45.5h-157l36 223l342 328h-507l43 254h847l-43 -254l-350 -316q124 -18 208.5 -112t84.5 -238q0 -114 -44 -214.5t-119.5 -172t-179.5 -113t-220 -41.5 q-90 0 -162.5 22.5t-119 58t-79 83t-47 94t-18.5 95.5z" />
<glyph horiz-adv-x="1189" d="M104 334l35 207l738 893h335l-143 -854h168l-41 -246h-168l-55 -334h-285l55 334h-639zM442 580h342l90 532z" />
<glyph horiz-adv-x="1189" d="M162 326l262 77q8 -76 58.5 -120.5t138.5 -44.5q105 0 178 76.5t73 185.5q0 81 -48.5 136.5t-143.5 55.5q-99 0 -182 -78l-234 41l162 779h809l-43 -254h-553l-61 -293q98 49 213 49q164 0 272 -107t108 -276q0 -159 -74.5 -292t-205.5 -210.5t-289 -77.5 q-88 0 -161.5 22.5t-122 58t-83.5 83t-52 94.5t-21 95z" />
<glyph horiz-adv-x="1189" d="M186 440q0 85 8.5 172.5t31.5 190t58.5 193.5t94.5 177.5t134.5 149t183.5 100t237 37.5q184 0 319 -94l-149 -233q-78 57 -199 57q-69 0 -127.5 -22t-98 -56.5t-70 -79.5t-47 -86.5t-25.5 -83.5q46 34 124 63t164 29q163 0 258 -100.5t95 -280.5q0 -262 -159 -431 t-407 -169q-113 0 -196.5 34t-133 98t-73 147t-23.5 188zM479 479.5q-4 -43.5 0.5 -91t21.5 -77t54 -48.5t94 -19q111 0 174.5 74.5t63.5 197.5q0 82 -42.5 131t-125.5 49q-125 0 -225 -112q-11 -61 -15 -104.5z" />
<glyph horiz-adv-x="1189" d="M281 0l675 1180h-645l43 254h959l-37 -220l-684 -1214h-311z" />
<glyph horiz-adv-x="1189" d="M154 350q0 79 24.5 149.5t64.5 120.5t82.5 84.5t88.5 57.5q-46 34 -79.5 98t-33.5 146q0 191 152.5 322.5t386.5 131.5q185 0 293 -96.5t108 -251.5q0 -65 -20.5 -123.5t-54 -101.5t-68.5 -73.5t-72 -51.5q63 -38 106.5 -111t43.5 -172q0 -146 -76 -262t-210.5 -180 t-301.5 -64q-202 0 -318 102t-116 275zM453 397q0 -72 47 -116.5t133 -44.5q113 0 179.5 63.5t66.5 155.5q0 73 -48.5 118t-132.5 45q-107 0 -176 -62.5t-69 -158.5zM588 1012q0 -64 40.5 -103t110.5 -39q89 0 149 54t60 137q0 61 -39.5 100t-113.5 39q-95 0 -151 -55 t-56 -133z" />
<glyph horiz-adv-x="1204" d="M184 68l150 233q78 -57 198 -57q85 0 154 32.5t111.5 84.5t67.5 104.5t36 105.5q-46 -34 -124.5 -63t-164.5 -29q-163 0 -257.5 100.5t-94.5 280.5q0 262 158.5 431t406.5 169q113 0 196.5 -34t133 -98t73 -147t23.5 -188q0 -85 -8.5 -172.5t-31.5 -190t-58.5 -193.5 t-94.5 -177.5t-134 -149t-183 -100t-237 -37.5q-184 0 -320 95zM551 918q0 -82 42.5 -131.5t125.5 -49.5q124 0 225 113q9 50 13 87.5t4 79.5t-10 70.5t-29 53.5t-53 37t-81 12q-111 0 -174 -74.5t-63 -197.5z" />
</font>
</defs>
</svg>
