<?xml version="1.0" standalone="no"?>
<!DOCTYPE svg PUBLIC "-//W3C//DTD SVG 1.1//EN" "http://www.w3.org/Graphics/SVG/1.1/DTD/svg11.dtd" >
<svg xmlns="http://www.w3.org/2000/svg">
<metadata></metadata>
<defs>
<font id="geomanistitalic" horiz-adv-x="1013" >
<font-face units-per-em="2048" ascent="1536" descent="-512" />
<missing-glyph horiz-adv-x="542" />
<glyph unicode="&#x2e;&#x2e;&#x2e;" horiz-adv-x="1228" d="M131 27q0 28 21.5 48.5t52.5 20.5q24 0 37.5 -15t13.5 -38q0 -28 -21 -49t-51 -21q-24 0 -38.5 15.5t-14.5 38.5zM557 27q0 28 21.5 48.5t52.5 20.5q24 0 37.5 -15t13.5 -38q0 -28 -21 -49t-51 -21q-24 0 -38.5 15.5t-14.5 38.5zM983 27q0 28 21.5 48.5t52.5 20.5 q24 0 37.5 -15t13.5 -38q0 -28 -21 -49t-51 -21q-24 0 -38.5 15.5t-14.5 38.5z" />
<glyph unicode=" "  horiz-adv-x="542" />
<glyph unicode="&#x09;" horiz-adv-x="542" />
<glyph unicode="&#xa0;" horiz-adv-x="542" />
<glyph unicode="!" horiz-adv-x="466" d="M176 27q0 28 21.5 48.5t52.5 20.5q24 0 37.5 -15t13.5 -38q0 -28 -21 -49t-51 -21q-24 0 -38.5 15.5t-14.5 38.5zM264 317l182 1117h52l-191 -1117h-43z" />
<glyph unicode="&#x22;" horiz-adv-x="475" d="M305 1104l43 330h64l-68 -330h-39zM498 1104l43 330h63l-67 -330h-39z" />
<glyph unicode="#" horiz-adv-x="1306" d="M156 432l18 47h275l180 482h-279l19 47h278l160 426h49l-160 -426h371l160 426h49l-160 -426h273l-17 -47h-274l-180 -482h276l-16 -47h-279l-162 -432h-49l162 432h-371l-162 -432h-49l162 432h-274zM498 479h370l181 482h-371z" />
<glyph unicode="$" horiz-adv-x="1009" d="M137 270l56 15q7 -50 26 -92t55 -81.5t99 -62t147 -22.5q163 0 279 103t116 263q0 75 -33 135t-85.5 100t-116 75l-127 70t-116 75t-85.5 100t-33 135q0 150 108 259t294 118l18 109h52l-21 -109q72 -4 128.5 -27.5t92 -62.5t55 -72t35.5 -75l-51 -21q-10 35 -28 66.5 t-50 65t-86 53.5t-123 20q-166 0 -267 -93t-101 -229q0 -53 20.5 -97.5t55 -76.5t79.5 -60.5t94.5 -54t99 -52t94.5 -59.5t79.5 -71.5t55 -92.5t20.5 -118q0 -180 -126 -303t-323 -127l-26 -149h-52l27 151q-152 10 -234.5 91.5t-101.5 203.5z" />
<glyph unicode="%" horiz-adv-x="1462" d="M145 0l1340 1434h71l-1339 -1434h-72zM301 1126q0 135 97.5 234.5t234.5 99.5q108 0 176 -71.5t68 -176.5q0 -135 -97.5 -234t-234.5 -99q-108 0 -176 71t-68 176zM356 1133q0 -88 52.5 -145.5t140.5 -57.5q113 0 192.5 81.5t79.5 194.5q0 88 -52.5 145.5t-139.5 57.5 q-113 0 -193 -81.5t-80 -194.5zM825 221q0 135 97.5 234.5t234.5 99.5q108 0 176 -71.5t68 -176.5q0 -135 -97.5 -234.5t-234.5 -99.5q-108 0 -176 71.5t-68 176.5zM881 227q0 -88 52 -145t140 -57q113 0 193 81.5t80 194.5q0 88 -52.5 145.5t-140.5 57.5q-113 0 -192.5 -82 t-79.5 -195z" />
<glyph unicode="&#x26;" horiz-adv-x="1232" d="M152 330q0 149 91.5 259.5t243.5 174.5q-135 158 -135 315q0 70 27.5 136.5t78.5 122t133 89t183 33.5q148 0 236 -80.5t88 -203.5q0 -157 -114 -272.5t-349 -221.5l397 -438q65 79 103 175.5t61 229.5h53q-25 -142 -65 -245t-113 -193l146 -168l-43 -41l-146 162 q-207 -191 -467 -191q-185 0 -297 100t-112 257zM205 336q0 -140 103.5 -226.5t258.5 -86.5q237 0 428 180l-469 522q-62 -21 -117.5 -56.5t-102 -83.5t-74 -112.5t-27.5 -136.5zM406 1079q0 -97 52.5 -182t143.5 -176q95 41 167 81.5t137.5 94.5t100.5 121.5t35 144.5 q0 110 -73 179t-197 69q-158 0 -262 -95t-104 -237z" />
<glyph unicode="'" horiz-adv-x="282" d="M305 1104l43 330h64l-68 -330h-39z" />
<glyph unicode="(" horiz-adv-x="548" d="M168 -61l223 1339q20 121 82.5 176t149.5 55h26l-8 -51h-29q-68 0 -111 -48.5t-57 -135.5l-223 -1331q-29 -185 107 -185h28l-8 -51h-26q-84 0 -129 56t-25 176z" />
<glyph unicode=")" horiz-adv-x="548" d="M102 -293l9 51h28q68 0 111 48.5t57 136.5l223 1331q14 88 -12 136t-94 48h-29l8 51h27q79 0 126.5 -56t27.5 -175l-224 -1339q-20 -120 -84 -176t-147 -56h-27z" />
<glyph unicode="*" horiz-adv-x="864" d="M299 940l272 154l-217 151l29 41l215 -149l49 290h49l-49 -290l264 149l23 -45l-268 -151l215 -150l-31 -41l-217 152l-49 -295h-49l47 286l-263 -147z" />
<glyph unicode="+" horiz-adv-x="1126" d="M190 614l9 48h450l80 481h51l-80 -481h447l-8 -48h-447l-80 -481h-51l80 481h-451z" />
<glyph unicode="," horiz-adv-x="372" d="M94 -152q82 70 99 125q-23 0 -41.5 15t-18.5 39q0 28 21 48.5t49 20.5q25 0 39 -16.5t14 -40.5q0 -112 -133 -223z" />
<glyph unicode="-" horiz-adv-x="634" d="M176 588l8 47h478l-9 -47h-477z" />
<glyph unicode="." horiz-adv-x="376" d="M131 27q0 28 21.5 48.5t52.5 20.5q24 0 37.5 -15t13.5 -38q0 -28 -21 -49t-51 -21q-24 0 -38.5 15.5t-14.5 38.5z" />
<glyph unicode="/" horiz-adv-x="823" d="M35 -221l919 1757h58l-920 -1757h-57z" />
<glyph unicode="0" horiz-adv-x="1095" d="M206.5 323.5q-4.5 86.5 3 180.5t26.5 213q23 146 50 253t70 204t100 157t139 94.5t187 34.5t177.5 -34.5t111.5 -95.5t53.5 -156.5t8.5 -204t-29 -252.5q-24 -146 -51.5 -253t-71 -204t-100 -157t-139 -95t-187.5 -35q-88 0 -153 23t-105.5 69.5t-63 109t-27 149z M254.5 374q0.5 -46 7 -96t20.5 -85.5t37.5 -69t56.5 -54t79 -32.5t104 -12t108 12.5t89.5 33t73.5 54t59.5 69.5t48 86t38 96t30 108t24.5 113.5t21 119.5q12 78 19 136t12 126.5t0.5 118.5t-15 102t-33.5 87.5t-56.5 64.5t-84 43t-115.5 14q-74 0 -135 -20t-106 -53 t-81.5 -86.5t-61 -107.5t-45.5 -130.5t-33.5 -141t-26.5 -153.5q-11 -68 -18 -120.5t-12 -114.5t-4.5 -108z" />
<glyph unicode="1" horiz-adv-x="579" d="M332 0l229 1374l-211 -86l-12 47l244 99h41l-240 -1434h-51z" />
<glyph unicode="2" horiz-adv-x="987" d="M94 0l4 29q12 83 69 164.5t137.5 151t176 139.5t188 142t169 147.5t123.5 167.5t47 189q0 122 -74.5 200.5t-210.5 78.5q-140 0 -234 -79t-141 -197l-47 14q10 33 30.5 70.5t58 81.5t83.5 79t113 58.5t141 23.5q159 0 246.5 -93t87.5 -228q0 -81 -29 -159.5t-79 -144 t-114.5 -129t-137 -120.5t-145.5 -111.5t-141 -107.5t-122.5 -103.5t-91 -106t-45.5 -108.5h751l-8 -49h-805z" />
<glyph unicode="3" horiz-adv-x="1046" d="M129 258l47 16q57 -249 338 -249q113 0 213 54.5t161.5 154.5t61.5 221q0 141 -88 224t-250 83h-104l8 45l541 575h-697l9 52h761l-8 -54l-538 -567h37q173 0 279 -89.5t106 -258.5q0 -136 -69 -250t-183 -178t-246 -64q-308 0 -379 285z" />
<glyph unicode="4" horiz-adv-x="1093" d="M137 389l8 47l867 998h41l-166 -996h205l-9 -49h-204l-66 -389h-51l65 389h-690zM207 438h629l149 893z" />
<glyph unicode="5" horiz-adv-x="1036" d="M131 262l47 17q50 -252 322 -252q127 0 230 66t158.5 174t55.5 233q0 149 -82.5 243.5t-226.5 94.5q-176 0 -322 -125l-39 14l146 707h659l-8 -48h-614l-127 -606q142 107 313 107q109 0 191 -52t123.5 -137.5t41.5 -191.5q0 -140 -65 -261.5t-182 -195.5t-258 -74 q-85 0 -151 24t-108 66.5t-67 90.5t-37 106z" />
<glyph unicode="6" horiz-adv-x="1089" d="M197 420q0 108 10.5 212t33.5 208t57.5 195t86.5 169.5t116.5 135t150 88.5t184.5 32q174 0 297 -110l-39 -37q-114 96 -267 96q-108 0 -198 -46t-151.5 -120t-107.5 -174t-70.5 -201.5t-35.5 -210.5q75 112 184.5 181t253.5 69q87 0 155.5 -30t111 -81.5t64.5 -117.5 t22 -141q0 -248 -139 -406t-369 -158q-78 0 -139 24.5t-100 66t-64.5 100t-36 121t-10.5 135.5zM260 582q-67 -557 295 -557q189 0 317.5 136t128.5 367q0 144 -79 236t-228 92q-130 0 -244.5 -76.5t-189.5 -197.5z" />
<glyph unicode="7" horiz-adv-x="940" d="M295 0l770 1382h-766l8 52h819l-8 -52l-768 -1382h-55z" />
<glyph unicode="8" horiz-adv-x="1097" d="M168 326q0 83 27 155.5t67.5 121.5t93 87t99 58t88.5 28q-29 12 -59.5 33t-62 54.5t-51.5 84t-20 109.5q0 118 61 211t161.5 142.5t218.5 49.5q142 0 233.5 -83t91.5 -220q0 -66 -22 -125t-54.5 -100.5t-74.5 -75.5t-78 -53t-70 -31q38 -9 77 -33t77 -62.5t62 -98 t24 -129.5q0 -204 -147 -340t-363 -136q-167 0 -273 99.5t-106 253.5zM221 334q0 -130 87 -219.5t245 -89.5q100 0 186 35.5t143 93.5t89.5 132.5t32.5 153.5q0 142 -93 222.5t-239 80.5q-119 0 -220.5 -47.5t-166 -142.5t-64.5 -219zM403 1065q0 -113 78.5 -191.5 t200.5 -78.5q150 0 265.5 107t115.5 247q0 113 -72.5 187.5t-206.5 74.5q-86 0 -159 -29.5t-120.5 -78.5t-74.5 -110.5t-27 -127.5z" />
<glyph unicode="9" horiz-adv-x="1089" d="M197 84l39 37q114 -96 266 -96q108 0 198 46t151.5 119.5t107.5 174t70.5 201.5t35.5 210q-75 -112 -184.5 -181t-253.5 -69q-114 0 -196 52.5t-119.5 134.5t-37.5 184q0 248 139 405.5t369 157.5q97 0 167.5 -36.5t109 -101t56.5 -140.5t18 -168q0 -153 -20.5 -296.5 t-68.5 -280.5t-119.5 -238.5t-182.5 -163.5t-248 -62q-172 0 -297 111zM328 905q0 -144 79 -235.5t228 -91.5q130 0 244.5 76.5t189.5 197.5q67 557 -295 557q-189 0 -317.5 -136.5t-128.5 -367.5z" />
<glyph unicode=":" horiz-adv-x="372" d="M131 27q0 28 21.5 48.5t52.5 20.5q24 0 37.5 -15t13.5 -38q0 -28 -21 -49t-51 -21q-24 0 -38.5 15.5t-14.5 38.5zM274 881q0 28 21.5 48.5t52.5 20.5q24 0 37.5 -15t13.5 -38q0 -28 -20.5 -49t-50.5 -21q-24 0 -39 16t-15 38z" />
<glyph unicode=";" horiz-adv-x="372" d="M94 -152q82 70 99 125q-23 0 -41.5 15t-18.5 39q0 28 21 48.5t49 20.5q25 0 39 -16.5t14 -40.5q0 -112 -133 -223zM276 881q0 28 21 48.5t51 20.5q24 0 37.5 -15t13.5 -38q0 -28 -20.5 -49t-50.5 -21q-24 0 -38 15.5t-14 38.5z" />
<glyph unicode="&#x3c;" horiz-adv-x="983" d="M188 612l11 58l872 374l-8 -53l-830 -352l713 -352l-10 -49z" />
<glyph unicode="=" horiz-adv-x="1126" d="M164 455l8 47h948l-8 -47h-948zM215 758l8 47h948l-8 -47h-948z" />
<glyph unicode="&#x3e;" horiz-adv-x="983" d="M125 238l8 55l830 352l-711 352l8 47l748 -374l-9 -58z" />
<glyph unicode="?" horiz-adv-x="929" d="M305 1223q27 43 60 80.5t81 75t112.5 59.5t137.5 22q144 0 232 -89t88 -222q0 -83 -25.5 -155t-67.5 -124t-93 -98t-104 -87.5t-98.5 -81.5t-79 -89.5t-42.5 -103.5l-17 -93h-51l17 93q11 62 45.5 117t79.5 97t97.5 83.5t103 85.5t91.5 92.5t66 114t25 141.5 q0 119 -73.5 193.5t-199.5 74.5q-206 0 -340 -207zM362 27q0 28 21 48.5t51 20.5q24 0 37.5 -15t13.5 -38q0 -28 -20.5 -49t-50.5 -21q-24 0 -38 15.5t-14 38.5z" />
<glyph unicode="@" horiz-adv-x="1798" d="M180 416q0 199 75.5 377.5t203.5 305.5t304 201t370 74q160 0 289.5 -52.5t213 -142t128 -207t44.5 -249.5q0 -285 -99.5 -440.5t-254.5 -155.5q-93 0 -139.5 60t-40.5 143q-14 -30 -42.5 -62.5t-71 -65.5t-103.5 -54t-127 -21q-137 0 -228.5 95.5t-91.5 248.5 q0 200 132 331.5t317 131.5q117 0 188 -55t92 -125l29 168h53l-94 -557q-14 -88 20 -138.5t111 -50.5q126 0 212.5 137.5t86.5 397.5q0 125 -41.5 235t-119.5 194.5t-200 133.5t-272 49q-181 0 -346.5 -71.5t-285 -192.5t-190.5 -287.5t-71 -349.5q0 -290 177.5 -476 t455.5 -186q224 0 404 82l16 -43q-66 -35 -181.5 -62.5t-248.5 -27.5q-195 0 -349 91t-239.5 252t-85.5 364zM664 479q0 -134 74 -217.5t196 -83.5q159 0 270 127t111 318q0 124 -69 192t-195 68q-98 0 -185.5 -48.5t-144.5 -143t-57 -212.5z" />
<glyph unicode="A" horiz-adv-x="1236" d="M35 0l799 1434h49l319 -1434h-55l-119 543h-635l-299 -543h-59zM420 592h598l-168 770z" />
<glyph unicode="B" horiz-adv-x="1060" d="M184 0l240 1434h369q141 0 223 -86.5t82 -212.5q0 -141 -82.5 -245.5t-206.5 -144.5q93 -26 158 -115.5t65 -191.5q0 -83 -34 -161t-94.5 -140t-152.5 -99.5t-200 -37.5h-367zM246 51h323q165 0 285.5 111.5t120.5 273.5q0 127 -88 208t-230 81h-299zM367 774h315 q92 0 174.5 44t134 126t51.5 182q0 112 -70.5 184t-187.5 72h-315z" />
<glyph unicode="C" horiz-adv-x="1376" d="M201 604q0 176 70 336t185 273t268.5 180t315.5 67q84 0 159 -17t128.5 -45.5t87 -53t58.5 -50.5l-25 -49q-154 162 -412 162q-115 0 -229.5 -38.5t-212.5 -111t-174.5 -168.5t-120 -220t-43.5 -257q0 -255 156 -420t393 -165q85 0 170 21t151 55.5t106 59.5t71 50 l18 -47q-240 -193 -524 -193q-173 0 -309.5 82t-211.5 226t-75 323z" />
<glyph unicode="D" horiz-adv-x="1269" d="M184 0l240 1434h254q298 0 465.5 -157.5t167.5 -432.5q0 -199 -63 -358.5t-177 -266t-275.5 -163t-357.5 -56.5h-254zM246 51h200q177 0 325 52t256 149.5t168 246.5t60 335q0 260 -153 404t-432 144h-201z" />
<glyph unicode="E" horiz-adv-x="958" d="M184 0l240 1434h629l-9 -52h-575l-104 -622h507l-8 -51h-508l-110 -658h600l-8 -51h-654z" />
<glyph unicode="F" horiz-adv-x="952" d="M184 0l240 1434h631l-8 -52h-578l-107 -630h506l-8 -52h-506l-116 -700h-54z" />
<glyph unicode="G" horiz-adv-x="1486" d="M201 602q0 177 69.5 337t185.5 273.5t271.5 180.5t321.5 67q289 0 458 -182l-34 -41q-61 70 -169.5 120t-265.5 50q-155 0 -299 -62.5t-250 -168t-169.5 -254t-63.5 -312.5q0 -255 152.5 -419t398.5 -164q77 0 152.5 15.5t131 38t107 51.5t80.5 51t51 42l66 396h-367 l8 51h418l-76 -473q-246 -226 -579 -226q-179 0 -316.5 83t-209.5 225.5t-72 320.5z" />
<glyph unicode="H" horiz-adv-x="1390" d="M184 0l240 1434h53l-112 -674h915l113 674h53l-240 -1434h-53l119 711h-916l-118 -711h-54z" />
<glyph unicode="I" horiz-adv-x="421" d="M184 0l240 1434h53l-239 -1434h-54z" />
<glyph unicode="J" horiz-adv-x="653" d="M51 8l15 45q74 -18 145 -18q213 0 254 254l192 1145h54l-193 -1145q-25 -146 -98.5 -223.5t-216.5 -77.5q-47 0 -91.5 7t-60.5 13z" />
<glyph unicode="K" horiz-adv-x="1064" d="M184 0l240 1434h53l-112 -676l786 676h74l-803 -693l594 -741h-68l-588 735l-122 -735h-54z" />
<glyph unicode="L" horiz-adv-x="907" d="M184 0l240 1434h53l-231 -1383h600l-8 -51h-654z" />
<glyph unicode="M" horiz-adv-x="1720" d="M184 0l240 1434h61l406 -1241l817 1241h68l-240 -1434h-51l225 1352l-790 -1211h-70l-389 1211l-225 -1352h-52z" />
<glyph unicode="N" horiz-adv-x="1425" d="M184 0l240 1434h47l735 -1344l224 1344h51l-240 -1434h-51l-729 1348l-225 -1348h-52z" />
<glyph unicode="O" horiz-adv-x="1617" d="M201 606q0 175 71 334.5t188 272.5t272 180t319 67q130 0 243 -48t192.5 -131.5t125 -201t45.5 -252.5q0 -176 -71 -336t-188.5 -272.5t-272.5 -179t-318 -66.5q-263 0 -434.5 178.5t-171.5 454.5zM256 608q0 -256 154.5 -418.5t402.5 -162.5q155 0 299.5 61.5t252 166 t172.5 253t65 313.5q0 256 -155 421t-403 165q-206 0 -387 -105t-291 -290t-110 -404z" />
<glyph unicode="P" horiz-adv-x="976" d="M184 0l240 1434h330q150 0 243 -88.5t93 -235.5q0 -205 -133.5 -325.5t-331.5 -120.5h-277l-110 -664h-54zM356 715h273q174 0 289.5 106t115.5 283q0 128 -78 203t-215 75h-272z" />
<glyph unicode="Q" horiz-adv-x="1619" d="M201 606q0 175 71 334.5t188 272.5t272 180t319 67q130 0 243 -48t192.5 -131.5t125 -201t45.5 -252.5q0 -198 -87.5 -371t-236.5 -292l133 -162l-36 -33l-136 164q-226 -160 -487 -160q-263 0 -434.5 178.5t-171.5 454.5zM256 608q0 -256 154.5 -418.5t402.5 -162.5 q247 0 451 143l-142 180l39 33l144 -182q138 110 217.5 271.5t79.5 348.5q0 256 -155 421t-403 165q-206 0 -387 -105t-291 -290t-110 -404z" />
<glyph unicode="R" horiz-adv-x="1048" d="M184 0l240 1434h317q154 0 247 -88.5t93 -229.5q0 -87 -29.5 -160t-81 -123.5t-113 -84.5t-132.5 -52l264 -696h-59l-258 688q-43 -6 -109 -6h-211l-114 -682h-54zM360 733h234q193 0 311.5 109t118.5 270q0 118 -76 194t-215 76h-264z" />
<glyph unicode="S" horiz-adv-x="1009" d="M137 270l56 15q7 -50 26 -92t55 -81.5t99 -62t147 -22.5q163 0 279 103t116 263q0 75 -33 135t-85.5 100t-116 75l-127 70t-116 75t-85.5 100t-33 135q0 74 29 142t82 120.5t135.5 83.5t182.5 31q64 0 117 -16t86.5 -39.5t61 -58t41.5 -62t27 -61.5l-51 -21 q-10 35 -28 66.5t-50 65t-86 53.5t-123 20q-166 0 -267 -93t-101 -229q0 -53 20.5 -97.5t55 -76.5t79.5 -60.5t94.5 -54t99 -52t94.5 -59.5t79.5 -71.5t55 -92.5t20.5 -118q0 -184 -129.5 -307t-331.5 -123q-88 0 -157.5 24t-113 66.5t-69 94t-35.5 112.5z" />
<glyph unicode="T" d="M279 1382l8 52h917l-8 -52h-432l-232 -1382h-51l232 1382h-434z" />
<glyph unicode="U" horiz-adv-x="1359" d="M254 494l158 940h53l-158 -938q-10 -61 -11 -114q0 -140 71 -230q97 -124 317 -124.5t358 124t175 344.5l157 938h53l-157 -940q-40 -246 -194.5 -383.5t-399.5 -137.5q-238 0 -350 141q-83 104 -83 261q0 56 11 119z" />
<glyph unicode="V" horiz-adv-x="1224" d="M264 1434h58l299 -1371l757 1371h62l-801 -1434h-53z" />
<glyph unicode="W" horiz-adv-x="1867" d="M268 1434h54l178 -1352l637 1352h69l191 -1352l624 1352h58l-670 -1434h-55l-193 1366l-647 -1366h-55z" />
<glyph unicode="X" horiz-adv-x="1159" d="M33 0l639 762l-342 672h55l324 -637l534 637h66l-576 -684l385 -750h-57l-365 715l-598 -715h-65z" />
<glyph unicode="Y" horiz-adv-x="995" d="M264 1434h55l299 -693l529 693h63l-571 -744l-115 -690h-53l115 690z" />
<glyph unicode="Z" horiz-adv-x="1200" d="M78 0l8 51l1186 1331h-930l8 52h998l-9 -52l-1183 -1331h964l-8 -51h-1034z" />
<glyph unicode="[" horiz-adv-x="548" d="M129 -293l301 1802h219l-8 -51h-166l-285 -1700h166l-8 -51h-219z" />
<glyph unicode="\" horiz-adv-x="823" d="M330 1536h55l330 -1757h-56z" />
<glyph unicode="]" horiz-adv-x="536" d="M102 -293l9 51h165l285 1700h-166l8 51h220l-301 -1802h-220z" />
<glyph unicode="^" horiz-adv-x="1007" d="M213 651l510 783h41l248 -783h-47l-228 727l-469 -727h-55z" />
<glyph unicode="_" horiz-adv-x="1228" d="M68 -109l8 48h1057l-9 -48h-1056z" />
<glyph unicode="`" d="M649 1481h64l104 -287h-45z" />
<glyph unicode="a" d="M137 274q0 162 133.5 275t323.5 113q119 0 196.5 -46.5t112.5 -115.5l37 227q6 37 6 69q0 98 -54 158q-72 78 -218 78q-169 0 -352 -102l-21 45q194 108 381 108q178 0 258 -96q59 -71 58 -180q0 -38 -7 -82l-121 -725h-41l15 147q-55 -72 -149 -123t-216 -51 q-157 0 -249.5 85t-92.5 216zM190 285q0 -110 79 -185t218 -75q164 0 280 106t116 244q0 109 -82 172t-215 63q-169 0 -282.5 -96t-113.5 -229z" />
<glyph unicode="b" horiz-adv-x="1241" d="M166 0l248 1481h51l-115 -680q27 48 70 94t104 90t143.5 71t172.5 27q188 0 300.5 -128t112.5 -328q0 -184 -80 -334.5t-217.5 -235t-302.5 -84.5q-89 0 -162.5 30t-119 77.5t-72.5 95.5t-37 96l-45 -272h-51zM293 422q0 -99 29.5 -176.5t81 -124.5t117.5 -71.5 t141 -24.5q105 0 203 45t172 121.5t118.5 187.5t44.5 235q0 186 -103.5 302t-267.5 116q-97 0 -191.5 -42t-171.5 -117t-125 -193t-48 -258z" />
<glyph unicode="c" horiz-adv-x="1091" d="M166 446q0 127 52.5 245t138.5 203.5t202 137t238 51.5q78 0 144.5 -19t110.5 -50t69.5 -56t43.5 -51l-30 -45q-119 168 -342 168q-143 0 -274.5 -75.5t-213.5 -208t-82 -285.5q0 -186 115 -310t287 -124q227 0 395 182l22 -49q-17 -21 -48.5 -47.5t-84.5 -60.5 t-130 -56.5t-161 -22.5q-196 0 -324 136t-128 337z" />
<glyph unicode="d" horiz-adv-x="1241" d="M164 430q0 138 47.5 260t128 207.5t191 135.5t233.5 50q72 0 135 -19.5t106 -51t76 -72t50.5 -80t23.5 -78.5l117 699h51l-248 -1481h-51l45 264q-31 -51 -73.5 -98t-103 -92.5t-141.5 -73t-171 -27.5q-190 0 -303 126t-113 331zM219 442q0 -186 102.5 -301.5 t266.5 -115.5q97 0 191.5 42.5t171.5 118.5t125 196.5t48 262.5q0 186 -105.5 286.5t-262.5 100.5q-105 0 -203 -45t-171.5 -122t-118 -188t-44.5 -235z" />
<glyph unicode="e" horiz-adv-x="1167" d="M162 430q0 145 52.5 270t138 207.5t193.5 129t220 46.5q197 0 310.5 -115t113.5 -300q0 -56 -14 -140h-953q-8 -52 -8 -112q0 -182 111 -286.5t297 -104.5q241 0 424 204l34 -28q-80 -100 -197.5 -164t-269.5 -64q-210 0 -331 124t-121 333zM233 578h897q7 47 7 73 q0 184 -104 282.5t-271 98.5q-116 0 -225.5 -53t-192.5 -158t-111 -243z" />
<glyph unicode="f" horiz-adv-x="542" d="M186 0l168 1010h-125l9 47h124l13 73q16 95 47 162t75 104t93.5 53.5t109.5 16.5l52 -4l-9 -51q-24 4 -51 4q-220 0 -264 -280l-12 -78h262l-8 -47h-264l-168 -1010h-52z" />
<glyph unicode="g" horiz-adv-x="1226" d="M156 -276l37 45q55 -39 141 -73t190 -34q208 0 345 115.5t173 339.5l27 147q-31 -51 -73.5 -98t-103 -92.5t-141.5 -73t-171 -27.5q-190 0 -303 126t-113 331q0 138 47.5 260t128 207.5t191 135.5t233.5 50q72 0 135 -19.5t106 -51t76 -72t50.5 -80t23.5 -78.5l45 275h51 l-155 -934q-44 -263 -194.5 -388.5t-385.5 -125.5q-98 0 -194 32.5t-166 82.5zM219 442q0 -186 102.5 -301.5t266.5 -115.5q97 0 191.5 42.5t171.5 118.5t125 196.5t48 262.5q0 186 -105.5 286.5t-262.5 100.5q-105 0 -203 -45t-171.5 -122t-118 -188t-44.5 -235z" />
<glyph unicode="h" horiz-adv-x="1110" d="M166 0l248 1481h51l-103 -615q59 99 162.5 158t225.5 59q74 0 138.5 -24.5t112 -70t68.5 -117.5q12 -42 12 -89q0 -34 -6 -71l-119 -711h-51l115 690q7 40 7 75q1 105 -59 175q-80 92 -227 92q-153 0 -269.5 -105t-145.5 -276l-109 -651h-51z" />
<glyph unicode="i" horiz-adv-x="382" d="M166 0l176 1057h51l-176 -1057h-51zM356 1343q0 28 21.5 48t50.5 20q23 0 38 -14.5t15 -36.5q0 -29 -21.5 -49.5t-51.5 -20.5q-23 0 -37.5 15t-14.5 38z" />
<glyph unicode="j" horiz-adv-x="382" d="M-152 -387l9 51q25 -2 45 -2q103 0 166.5 68t87.5 213l186 1114h51l-186 -1108q-56 -338 -309 -338zM356 1343q0 28 21.5 48t50.5 20q23 0 37 -14.5t14 -36.5q0 -29 -21 -49.5t-50 -20.5q-23 0 -37.5 15t-14.5 38z" />
<glyph unicode="k" horiz-adv-x="876" d="M166 0l248 1481h51l-148 -883l615 459h78l-637 -477l483 -580h-63l-480 575l-96 -575h-51z" />
<glyph unicode="l" horiz-adv-x="382" d="M166 0l248 1481h51l-248 -1481h-51z" />
<glyph unicode="m" horiz-adv-x="1773" d="M166 0l176 1057h51l-31 -191q49 89 152.5 153t214.5 64q136 0 215.5 -68.5t95.5 -172.5q53 107 159.5 174t230.5 67q166 0 250 -105q63 -79 64 -193q0 -38 -7 -80l-119 -705h-51l114 684q8 48 8 90q0 100 -47 166q-67 92 -221 92q-147 0 -255.5 -97.5t-139.5 -285.5 l-108 -649h-52l117 700q7 43 7 81q0 103 -53 165q-73 86 -218 86q-141 0 -252.5 -106.5t-140.5 -276.5l-109 -649h-51z" />
<glyph unicode="n" horiz-adv-x="1099" d="M166 0l176 1057h51l-31 -191q59 99 161.5 158t219.5 59q71 0 134 -24t111 -69q46 -46 68 -118q13 -43 13 -91q0 -34 -6 -70l-119 -711h-51l115 690q7 40 7 76q0 104 -58 174q-78 92 -222 92q-152 0 -266 -104.5t-143 -276.5l-109 -651h-51z" />
<glyph unicode="o" horiz-adv-x="1245" d="M166 444q0 130 51 248.5t136.5 204t202.5 136t245 50.5q202 0 329 -133.5t127 -337.5q0 -174 -86 -321.5t-232 -232.5t-316 -85q-202 0 -329.5 133.5t-127.5 337.5zM219 451q0 -184 112 -305t296 -121q155 0 287.5 79t210 213t77.5 289q0 184 -111.5 305t-295.5 121 q-116 0 -222.5 -47t-184 -125t-123.5 -185.5t-46 -223.5z" />
<glyph unicode="p" horiz-adv-x="1241" d="M102 -383l242 1440h51l-43 -256q20 36 49.5 72t75 75t98 68t122 48t143.5 19q190 0 302.5 -125.5t112.5 -330.5q0 -184 -80.5 -334.5t-218.5 -235t-303 -84.5q-88 0 -161 27.5t-118.5 72t-73.5 92.5t-40 99l-106 -647h-52zM295 410q0 -99 29.5 -174.5t80.5 -120.5 t116 -67.5t141 -22.5q105 0 203 45t172 121.5t118.5 187.5t44.5 235q0 186 -102.5 302t-266.5 116q-97 0 -191.5 -42.5t-171.5 -119.5t-125 -197.5t-48 -262.5z" />
<glyph unicode="q" horiz-adv-x="1241" d="M164 430q0 184 80 334t217.5 234.5t302.5 84.5q89 0 162.5 -30t119 -77.5t72.5 -95.5t37 -96l45 273h51l-241 -1440h-52l109 639q-27 -48 -70 -94.5t-103.5 -90.5t-143 -71t-172.5 -27q-188 0 -301 128.5t-113 328.5zM217 442q0 -186 103 -301.5t268 -115.5 q97 0 191.5 42t171.5 117t125 193t48 258q0 99 -29.5 176.5t-81 124.5t-117 71.5t-140.5 24.5q-105 0 -203.5 -45t-172.5 -122t-118.5 -188t-44.5 -235z" />
<glyph unicode="r" horiz-adv-x="616" d="M166 0l176 1057h51l-37 -223q46 110 148 179.5t233 69.5l-10 -53q-91 0 -164.5 -38t-122.5 -104.5t-81 -148.5t-48 -180l-94 -559h-51z" />
<glyph unicode="s" horiz-adv-x="823" d="M119 225l51 13q7 -90 69.5 -151.5t190.5 -61.5q74 0 142.5 32t114.5 96t46 144q0 55 -26 98t-68 71t-93 52t-101.5 48t-92.5 53t-68 73.5t-26 102.5q0 130 97.5 209t238.5 79q55 0 100 -13.5t74.5 -35t51 -49.5t31 -55t11.5 -53l-47 -15q-28 170 -229 170 q-113 0 -193 -64t-80 -169q0 -50 26 -88.5t68 -64t92.5 -48.5t100.5 -48t92 -55.5t68 -78.5t26 -109q0 -144 -105 -239t-261 -95q-77 0 -136 23t-92.5 61.5t-51 80t-21.5 87.5z" />
<glyph unicode="t" horiz-adv-x="555" d="M207 1010l8 47h135l37 221h53l-37 -221h265l-9 -47h-264l-108 -650q-13 -78 -13 -135q0 -73 20 -113q36 -74 165 -73q21 0 49 4l-8 -49q-17 -6 -68 -6q-126 0 -180 84q-36 57 -36 147q0 44 9 96l117 695h-135z" />
<glyph unicode="u" horiz-adv-x="1085" d="M211 346l119 711h51l-115 -690q-7 -40 -7 -76q0 -103 58 -173q78 -92 222 -93q152 0 266 104.5t143 276.5l109 651h51l-176 -1057h-51l30 190q-59 -99 -161.5 -158t-219.5 -59q-74 0 -137.5 25.5t-109.5 71.5t-66 118q-12 42 -12 90q0 33 6 68z" />
<glyph unicode="v" horiz-adv-x="942" d="M193 1057h55l237 -979l566 979h59l-612 -1057h-45z" />
<glyph unicode="w" horiz-adv-x="1648" d="M190 1057h56l198 -981q2 4 525 981h61l197 -981l524 981h59l-571 -1057h-51l-197 993l-530 -993h-51z" />
<glyph unicode="x" horiz-adv-x="925" d="M18 0l500 563l-280 494h59l260 -459l416 459h67l-456 -506l315 -551h-59l-295 518l-459 -518h-68z" />
<glyph unicode="y" horiz-adv-x="983" d="M190 1057h56l258 -1002l581 1002h60l-836 -1424h-59l217 363z" />
<glyph unicode="z" horiz-adv-x="937" d="M72 0l8 49l866 959h-680l8 49h748l-8 -49l-867 -959h719l-8 -49h-786z" />
<glyph unicode="{" horiz-adv-x="608" d="M186 584l9 49q76 0 120.5 52t63.5 163l72 430q20 120 83.5 175.5t147.5 55.5h27l-9 -51h-28q-68 0 -111 -48.5t-57 -135.5l-72 -426q-31 -184 -153 -240q9 -5 15 -8.5t17.5 -14t18.5 -21t15 -30t11.5 -41.5t2.5 -54.5t-7 -69.5l-71 -426q-14 -88 12 -136.5t94 -48.5h29 l-8 -51h-27q-84 0 -129 56t-25 176l72 430q19 110 -8.5 162.5t-104.5 52.5z" />
<glyph unicode="|" horiz-adv-x="458" d="M139 -379l324 1929h53l-323 -1929h-54z" />
<glyph unicode="}" horiz-adv-x="608" d="M102 -293l9 51h28q68 0 111 48.5t57 136.5l72 426q9 52 25 93.5t32 65t37.5 42t33.5 25t28 13.5q-9 5 -15.5 9t-18 14t-19.5 21t-16 30t-11.5 41.5t-2.5 54.5t7 70l71 426q14 88 -12 136t-94 48h-29l8 51h27q84 0 129 -55.5t25 -175.5l-72 -430q-37 -215 115 -215l-9 -49 q-77 0 -122 -52.5t-64 -162.5l-72 -430q-20 -120 -84 -176t-147 -56h-27z" />
<glyph unicode="~" horiz-adv-x="1081" d="M197 518q14 90 81 154.5t166 64.5q50 0 95 -18t79.5 -44t68.5 -52t75.5 -44t87.5 -18q79 0 128 49.5t62 120.5h52q-14 -90 -81.5 -154.5t-166.5 -64.5q-47 0 -91.5 18t-79.5 44t-69.5 52t-77 44t-86.5 18q-79 0 -129 -49.5t-63 -120.5h-51z" />
<glyph unicode="&#xa1;" horiz-adv-x="466" d="M154 -313l190 1116h43l-182 -1116h-51zM352 1077q0 28 21 49t51 21q24 0 38.5 -15.5t14.5 -37.5q0 -28 -22 -49t-52 -21q-24 0 -37.5 15t-13.5 38z" />
<glyph unicode="&#xa2;" horiz-adv-x="1110" d="M195 608q0 123 49 238t131 200t192 138t228 59l32 193h50l-33 -191q229 -9 350 -176l-31 -45q-119 168 -342 168q-143 0 -274 -75.5t-213 -208t-82 -285.5q0 -186 114.5 -310.5t286.5 -124.5q227 0 396 183l22 -49q-17 -21 -47.5 -47t-82.5 -59.5t-126.5 -56.5 t-155.5 -24l-22 -135h-49l22 135q-182 13 -298.5 147t-116.5 326z" />
<glyph unicode="&#xa3;" horiz-adv-x="1101" d="M94 0l8 49h152l108 649h-129l9 50h129l53 319q30 177 145.5 285t290.5 108q72 0 130 -23t93.5 -60t56 -71.5t31.5 -70.5l-45 -23q-8 34 -27.5 67t-51.5 63.5t-83 49.5t-112 19q-150 0 -250.5 -93t-126.5 -251l-53 -319h369l-9 -50h-368l-109 -649h694l-8 -49h-897z" />
<glyph unicode="&#xa5;" horiz-adv-x="995" d="M201 408l8 47h338l39 235h-338l8 47h309l-301 697h55l299 -693l529 693h63l-536 -697h309l-8 -47h-336l-39 -235h336l-8 -47h-336l-68 -408h-53l68 408h-338z" />
<glyph unicode="&#xa7;" horiz-adv-x="915" d="M63 -211l43 16q55 -176 275 -176q158 0 251 86.5t93 212.5q0 142 -164 250l-194 129q-92 61 -141.5 126.5t-49.5 148.5q0 120 78 203.5t205 113.5q-63 51 -101.5 109.5t-38.5 138.5q0 152 113.5 253t290.5 101q72 0 129 -19t92.5 -50.5t56.5 -65.5t31 -72l-43 -16 q-55 176 -274 176q-158 0 -251 -86.5t-93 -212.5q0 -142 164 -250l194 -129q92 -62 141.5 -126.5t49.5 -147.5q0 -121 -74.5 -202.5t-206.5 -117.5q63 -51 100 -107.5t37 -137.5q0 -153 -111.5 -254t-287.5 -101q-74 0 -133 19t-95 51t-57 66t-29 71zM225 588 q0 -73 46 -132.5t130 -113.5l191 -121q126 17 202 93t76 182q0 73 -45 132t-129 113l-190 121q-126 -17 -203.5 -92.5t-77.5 -181.5z" />
<glyph unicode="&#xa8;" d="M500 1327q0 33 24 55.5t56 22.5q25 0 41 -16t16 -41q0 -33 -24 -55.5t-56 -22.5q-25 0 -41 16t-16 41zM823 1327q0 33 24 55.5t56 22.5q25 0 41.5 -16t16.5 -41q0 -33 -24 -55.5t-56 -22.5q-25 0 -41.5 16t-16.5 41z" />
<glyph unicode="&#xa9;" horiz-adv-x="1673" d="M219 606q0 169 68 326.5t182.5 273t274.5 185t335 69.5q183 0 324 -85t215 -228.5t74 -319.5q0 -170 -67.5 -327t-182 -272.5t-274.5 -185t-337 -69.5q-185 0 -325.5 85t-213.5 228t-73 320zM274 612q0 -123 39.5 -230t111 -185.5t179 -124t236.5 -45.5q163 0 311 64.5 t254 172.5t168.5 254t62.5 303q0 165 -67 297t-196.5 210.5t-301.5 78.5q-131 0 -253 -41.5t-219.5 -116t-171 -173t-113.5 -218.5t-40 -246zM582 649q0 190 123 324.5t311 134.5q176 0 280 -139l-41 -35q-79 123 -243 123q-168 0 -270.5 -119t-102.5 -283q0 -122 67 -200 t193 -78q162 0 285 123l35 -35q-150 -139 -328 -139q-141 0 -225 91.5t-84 231.5z" />
<glyph unicode="&#xaa;" horiz-adv-x="831" d="M256 846q0 124 101 208.5t245 84.5q81 0 142 -32.5t85 -76.5l25 152q18 110 -35.5 170.5t-156.5 60.5q-121 0 -261 -78l-20 41q150 84 289 84q135 0 194 -75.5t37 -204.5l-92 -547h-39l8 98q-42 -49 -112.5 -83t-149.5 -34q-118 0 -189 66t-71 166zM307 856 q0 -81 58 -137.5t159 -56.5q118 0 203.5 77.5t85.5 178.5q0 79 -58.5 126.5t-158.5 47.5q-124 0 -206.5 -70.5t-82.5 -165.5z" />
<glyph unicode="&#xab;" horiz-adv-x="761" d="M182 594l318 371h61l-319 -379l188 -363h-53zM451 594l317 371h61l-319 -379l188 -363h-53z" />
<glyph unicode="&#xad;" horiz-adv-x="634" d="M176 588l8 47h478l-9 -47h-477z" />
<glyph unicode="&#xae;" horiz-adv-x="925" d="M233 1047q0 95 36 180.5t98.5 148.5t152.5 100t193 37q161 0 254.5 -98t93.5 -244q0 -128 -59.5 -234.5t-170 -170.5t-249.5 -64q-159 0 -254 97.5t-95 247.5zM281 1049q0 -135 81 -218t226 -83q187 0 306.5 120t119.5 299q0 135 -80.5 218t-224.5 83q-187 0 -307.5 -120 t-120.5 -299zM502 887l73 442h121q49 0 81 -27t32 -75q0 -52 -30 -89.5t-74 -50.5l57 -200h-47l-56 194h-79l-33 -194h-45zM588 1124h76q46 0 72 30.5t26 66.5q0 32 -19.5 48.5t-52.5 16.5h-76z" />
<glyph unicode="&#xaf;" horiz-adv-x="935" d="M461 1341l8 54h465l-8 -54h-465z" />
<glyph unicode="&#xb0;" horiz-adv-x="688" d="M274 1155q0 126 91 215.5t223 89.5q102 0 164.5 -65t62.5 -162q0 -126 -91.5 -215.5t-223.5 -89.5q-102 0 -164 64.5t-62 162.5zM324 1161q0 -79 49.5 -132.5t134.5 -53.5q110 0 183 75t73 177q0 80 -49 133t-135 53q-108 0 -182 -75t-74 -177z" />
<glyph unicode="&#xb2;" horiz-adv-x="665" d="M221 625l10 53q11 55 52.5 109.5t95 96t113 88.5t109 88t82 94t32.5 108q0 62 -40.5 101.5t-109.5 39.5q-68 0 -117.5 -38.5t-80.5 -88.5l-39 22q35 63 97.5 107.5t143.5 44.5q90 0 143.5 -54t53.5 -128q0 -54 -25 -105t-66 -92.5t-90.5 -80.5t-100.5 -76.5t-94.5 -74.5 t-75 -80.5t-38.5 -88.5h406l-8 -45h-453z" />
<glyph unicode="&#xb3;" horiz-adv-x="667" d="M221 762l41 22q17 -55 63.5 -92t120.5 -37q91 0 159.5 64t68.5 164q0 73 -47.5 115t-132.5 42h-70l6 43l301 306h-369l9 45h426l-9 -45l-299 -304h13q98 0 159.5 -53.5t61.5 -144.5q0 -119 -81 -198t-204 -79q-165 0 -217 152z" />
<glyph unicode="&#xb4;" d="M596 1194l199 287h69l-215 -287h-53z" />
<glyph unicode="&#xb6;" horiz-adv-x="944" d="M268 1012q0 169 132.5 295.5t306.5 126.5h81l-256 -1526h-53l131 780h-14q-145 0 -236.5 94t-91.5 230zM690 -92l256 1526h53l-256 -1526h-53z" />
<glyph unicode="&#xb7;" horiz-adv-x="419" d="M254 635q0 28 22 49t52 21q24 0 37.5 -15.5t13.5 -38.5q0 -28 -21 -48.5t-51 -20.5q-24 0 -38.5 15.5t-14.5 37.5z" />
<glyph unicode="&#xb8;" horiz-adv-x="935" d="M262 -444l14 47q32 -4 58 -4q70 0 118 32t48 99q0 44 -34 67t-95 23h-25l55 198h50l-50 -155q70 0 111 -35.5t41 -87.5q0 -98 -67.5 -143.5t-166.5 -45.5z" />
<glyph unicode="&#xb9;" horiz-adv-x="462" d="M338 1372l156 62h36l-135 -809h-47l127 755l-123 -49z" />
<glyph unicode="&#xba;" horiz-adv-x="935" d="M221 971q0 135 66.5 248t178.5 177t243 64q154 0 250 -101.5t96 -254.5q0 -205 -142 -347.5t-346 -142.5q-151 0 -248.5 101t-97.5 256zM272 979q0 -137 83.5 -227t219.5 -90q175 0 303 127t128 303q0 137 -85 229t-221 92q-172 0 -300 -129t-128 -305z" />
<glyph unicode="&#xbb;" horiz-adv-x="761" d="M111 223l319 379l-188 363h53l194 -371l-317 -371h-61zM379 223l319 379l-188 363h53l195 -371l-318 -371h-61z" />
<glyph unicode="&#xbc;" horiz-adv-x="1536" d="M334 -84l1093 1602h54l-1094 -1602h-53zM440 1372l156 62h37l-135 -809h-47l127 755l-123 -49zM918 176l6 39l506 594h34l-98 -586h115l-8 -47h-115l-29 -176h-47l29 176h-393zM989 223h330l82 486z" />
<glyph unicode="&#xbd;" horiz-adv-x="1554" d="M307 -84l1094 1602h53l-1094 -1602h-53zM428 1372l156 62h37l-136 -809h-47l127 755l-123 -49zM969 0l10 53q10 48 42 94.5t75 85t93.5 76.5t98 75.5t87 76t63.5 84t24 92.5q0 62 -40 101.5t-109 39.5q-68 0 -118.5 -38.5t-80.5 -88.5l-39 23q35 63 98 107t144 44 q90 0 143 -53.5t53 -128.5q0 -54 -25 -105t-65.5 -92.5t-90 -80.5t-100.5 -76.5t-94.5 -74.5t-75 -80.5t-38.5 -88.5h406l-9 -45h-452z" />
<glyph unicode="&#xbe;" horiz-adv-x="1667" d="M270 762l41 22q17 -55 64 -92t121 -37q90 0 158.5 64t68.5 164q0 73 -47.5 115t-132.5 42h-70l6 43l301 306h-368l8 45h426l-8 -45l-299 -304h12q98 0 159.5 -53.5t61.5 -144.5q0 -119 -81 -198t-204 -79q-165 0 -217 152zM461 -84l1093 1602h54l-1094 -1602h-53z M1008 176l6 39l506 594h34l-98 -586h115l-8 -47h-115l-29 -176h-47l29 176h-393zM1079 223h330l82 486z" />
<glyph unicode="&#xbf;" horiz-adv-x="929" d="M100 -29q0 66 16 124.5t43 103.5t62.5 85.5t75.5 75t81 66.5t79 64.5t69.5 65t54 72.5t29.5 83l17 92h51l-16 -92q-11 -62 -45.5 -117t-79.5 -97t-97.5 -83.5t-103 -85.5t-91.5 -92.5t-66 -114t-25 -141.5q0 -119 73.5 -194t198.5 -75q206 0 340 207l45 -20 q-27 -43 -60 -81t-81 -75.5t-112.5 -59.5t-137.5 -22q-144 0 -232 89t-88 222zM631 1077q0 28 20.5 49t50.5 21q24 0 38 -15t14 -38q0 -28 -21 -49t-51 -21q-24 0 -37.5 15t-13.5 38z" />
<glyph unicode="&#xc0;" horiz-adv-x="1236" d="M35 0l799 1434h49l319 -1434h-55l-119 543h-635l-299 -543h-59zM420 592h598l-168 770zM725 1819h63l105 -287h-45z" />
<glyph unicode="&#xc1;" horiz-adv-x="1236" d="M35 0l799 1434h49l319 -1434h-55l-119 543h-635l-299 -543h-59zM420 592h598l-168 770zM848 1532l199 287h69l-215 -287h-53z" />
<glyph unicode="&#xc2;" horiz-adv-x="1236" d="M35 0l799 1434h49l319 -1434h-55l-119 543h-635l-299 -543h-59zM420 592h598l-168 770zM659 1554l234 248h57l152 -248h-53l-131 197l-201 -197h-58z" />
<glyph unicode="&#xc3;" horiz-adv-x="1236" d="M35 0l799 1434h49l319 -1434h-55l-119 543h-635l-299 -543h-59zM420 592h598l-168 770zM602 1585q12 73 60.5 115.5t115.5 42.5q36 0 71.5 -17t59.5 -37.5t57 -37.5t66 -17q41 0 74.5 30.5t40.5 76.5h53q-12 -73 -60.5 -115.5t-115.5 -42.5q-36 0 -71.5 17t-59.5 37.5 t-57 37.5t-66 17q-41 0 -74.5 -30.5t-40.5 -76.5h-53z" />
<glyph unicode="&#xc4;" horiz-adv-x="1236" d="M35 0l799 1434h49l319 -1434h-55l-119 543h-635l-299 -543h-59zM420 592h598l-168 770zM668 1653q0 33 24 55.5t56 22.5q25 0 41 -16.5t16 -41.5q0 -33 -24 -55.5t-56 -22.5q-25 0 -41 16.5t-16 41.5zM991 1653q0 33 24 55.5t56 22.5q25 0 41 -16.5t16 -41.5 q0 -33 -23.5 -55.5t-55.5 -22.5q-25 0 -41.5 16.5t-16.5 41.5z" />
<glyph unicode="&#xc5;" horiz-adv-x="1236" d="M35 0l799 1434h49l319 -1434h-55l-119 543h-635l-299 -543h-59zM420 592h598l-168 770zM752 1661q0 75 50 124.5t122 49.5q56 0 91.5 -34.5t35.5 -90.5q0 -76 -49 -125t-123 -49q-56 0 -91.5 34.5t-35.5 90.5zM801 1669q0 -37 22 -61.5t62 -24.5q52 0 84 35.5t32 83.5 q0 38 -21 62t-62 24q-52 0 -84.5 -35.5t-32.5 -83.5z" />
<glyph unicode="&#xc6;" horiz-adv-x="1572" d="M16 0l949 1434h702l-8 -52h-576l-104 -622h508l-8 -51h-508l-111 -658h600l-8 -51h-653l90 543h-457l-356 -543h-60zM465 592h432l133 790h-43z" />
<glyph unicode="&#xc7;" horiz-adv-x="1376" d="M201 604q0 176 70 336t185 273t268.5 180t315.5 67q84 0 159 -17t128.5 -45.5t87 -53t58.5 -50.5l-25 -49q-154 162 -412 162q-115 0 -229.5 -38.5t-212.5 -111t-174.5 -168.5t-120 -220t-43.5 -257q0 -255 156 -420t393 -165q85 0 170 21t151 55.5t106 59.5t71 50 l18 -47q-240 -193 -524 -193q-25 0 -35 2l-35 -112q70 0 111 -35.5t41 -87.5q0 -98 -67.5 -143.5t-166.5 -45.5l-57 5l14 47q32 -4 57 -4q70 0 118 32t48 99q0 44 -34 67t-95 23h-24l43 157q-230 28 -372 202t-142 425z" />
<glyph unicode="&#xc8;" horiz-adv-x="958" d="M184 0l240 1434h629l-9 -52h-575l-104 -622h507l-8 -51h-508l-110 -658h600l-8 -51h-654zM657 1819h64l104 -287h-45z" />
<glyph unicode="&#xc9;" horiz-adv-x="958" d="M184 0l240 1434h629l-9 -52h-575l-104 -622h507l-8 -51h-508l-110 -658h600l-8 -51h-654zM723 1532l199 287h69l-215 -287h-53z" />
<glyph unicode="&#xca;" horiz-adv-x="958" d="M184 0l240 1434h629l-9 -52h-575l-104 -622h507l-8 -51h-508l-110 -658h600l-8 -51h-654zM557 1554l234 248h57l151 -248h-53l-131 197l-201 -197h-57z" />
<glyph unicode="&#xcb;" horiz-adv-x="958" d="M184 0l240 1434h629l-9 -52h-575l-104 -622h507l-8 -51h-508l-110 -658h600l-8 -51h-654zM565 1653q0 33 24 55.5t56 22.5q25 0 41 -16.5t16 -41.5q0 -33 -23.5 -55.5t-55.5 -22.5q-25 0 -41.5 16.5t-16.5 41.5zM889 1653q0 33 24 55.5t56 22.5q25 0 41 -16.5t16 -41.5 q0 -33 -24 -55.5t-56 -22.5q-25 0 -41 16.5t-16 41.5z" />
<glyph unicode="&#xcc;" horiz-adv-x="421" d="M184 0l240 1434h53l-239 -1434h-54zM336 1819h63l105 -287h-45z" />
<glyph unicode="&#xcd;" horiz-adv-x="421" d="M184 0l240 1434h53l-239 -1434h-54zM428 1532l199 287h69l-215 -287h-53z" />
<glyph unicode="&#xce;" horiz-adv-x="421" d="M184 0l240 1434h53l-239 -1434h-54zM260 1554l234 248h57l151 -248h-53l-131 197l-201 -197h-57z" />
<glyph unicode="&#xcf;" horiz-adv-x="421" d="M184 0l240 1434h53l-239 -1434h-54zM260 1653q0 33 24 55.5t56 22.5q25 0 41 -16.5t16 -41.5q0 -33 -24 -55.5t-56 -22.5q-25 0 -41 16.5t-16 41.5zM584 1653q0 33 24 55.5t56 22.5q25 0 41 -16.5t16 -41.5q0 -33 -24 -55.5t-56 -22.5q-25 0 -41 16.5t-16 41.5z" />
<glyph unicode="&#xd0;" horiz-adv-x="1273" d="M182 705l8 49h132l114 680h254q295 0 464 -161t169 -429q0 -199 -62.5 -358.5t-177 -266t-276 -163t-358.5 -56.5h-254l118 705h-131zM258 51h201q177 0 325 52t255 149.5t167 246.5t60 335q0 258 -156.5 403t-429.5 145h-201l-104 -628h354l-8 -49h-354z" />
<glyph unicode="&#xd1;" horiz-adv-x="1425" d="M184 0l240 1434h47l735 -1344l224 1344h51l-240 -1434h-51l-729 1348l-225 -1348h-52zM705 1585q12 73 60.5 115.5t115.5 42.5q36 0 71.5 -17t59.5 -37.5t57 -37.5t66 -17q40 0 73.5 30.5t40.5 76.5h54q-12 -72 -61 -115t-116 -43q-36 0 -71.5 17t-59.5 37.5t-57 37.5 t-66 17q-40 0 -73.5 -30.5t-40.5 -76.5h-53z" />
<glyph unicode="&#xd2;" horiz-adv-x="1617" d="M201 606q0 175 71 334.5t188 272.5t272 180t319 67q130 0 243 -48t192.5 -131.5t125 -201t45.5 -252.5q0 -176 -71 -336t-188.5 -272.5t-272.5 -179t-318 -66.5q-263 0 -434.5 178.5t-171.5 454.5zM256 608q0 -256 154.5 -418.5t402.5 -162.5q155 0 299.5 61.5t252 166 t172.5 253t65 313.5q0 256 -155 421t-403 165q-206 0 -387 -105t-291 -290t-110 -404zM932 1819h63l105 -287h-45z" />
<glyph unicode="&#xd3;" horiz-adv-x="1617" d="M201 606q0 175 71 334.5t188 272.5t272 180t319 67q130 0 243 -48t192.5 -131.5t125 -201t45.5 -252.5q0 -176 -71 -336t-188.5 -272.5t-272.5 -179t-318 -66.5q-263 0 -434.5 178.5t-171.5 454.5zM256 608q0 -256 154.5 -418.5t402.5 -162.5q155 0 299.5 61.5t252 166 t172.5 253t65 313.5q0 256 -155 421t-403 165q-206 0 -387 -105t-291 -290t-110 -404zM1008 1532l198 287h70l-215 -287h-53z" />
<glyph unicode="&#xd4;" horiz-adv-x="1617" d="M201 606q0 175 71 334.5t188 272.5t272 180t319 67q130 0 243 -48t192.5 -131.5t125 -201t45.5 -252.5q0 -176 -71 -336t-188.5 -272.5t-272.5 -179t-318 -66.5q-263 0 -434.5 178.5t-171.5 454.5zM256 608q0 -256 154.5 -418.5t402.5 -162.5q155 0 299.5 61.5t252 166 t172.5 253t65 313.5q0 256 -155 421t-403 165q-206 0 -387 -105t-291 -290t-110 -404zM852 1554l233 248h58l151 -248h-53l-131 197l-201 -197h-57z" />
<glyph unicode="&#xd5;" horiz-adv-x="1617" d="M201 606q0 175 71 334.5t188 272.5t272 180t319 67q130 0 243 -48t192.5 -131.5t125 -201t45.5 -252.5q0 -176 -71 -336t-188.5 -272.5t-272.5 -179t-318 -66.5q-263 0 -434.5 178.5t-171.5 454.5zM256 608q0 -256 154.5 -418.5t402.5 -162.5q155 0 299.5 61.5t252 166 t172.5 253t65 313.5q0 256 -155 421t-403 165q-206 0 -387 -105t-291 -290t-110 -404zM803 1585q12 73 60.5 115.5t115.5 42.5q36 0 71.5 -17t59.5 -37.5t57 -37.5t66 -17q41 0 74.5 30.5t40.5 76.5h53q-12 -73 -60.5 -115.5t-115.5 -42.5q-36 0 -71.5 17t-59.5 37.5 t-57 37.5t-66 17q-41 0 -74.5 -30.5t-40.5 -76.5h-53z" />
<glyph unicode="&#xd6;" horiz-adv-x="1617" d="M201 606q0 175 71 334.5t188 272.5t272 180t319 67q130 0 243 -48t192.5 -131.5t125 -201t45.5 -252.5q0 -176 -71 -336t-188.5 -272.5t-272.5 -179t-318 -66.5q-263 0 -434.5 178.5t-171.5 454.5zM256 608q0 -256 154.5 -418.5t402.5 -162.5q155 0 299.5 61.5t252 166 t172.5 253t65 313.5q0 256 -155 421t-403 165q-206 0 -387 -105t-291 -290t-110 -404zM860 1653q0 33 24 55.5t56 22.5q25 0 41 -16.5t16 -41.5q0 -33 -23.5 -55.5t-55.5 -22.5q-25 0 -41.5 16.5t-16.5 41.5zM1184 1653q0 33 24 55.5t56 22.5q25 0 41 -16.5t16 -41.5 q0 -33 -24 -55.5t-56 -22.5q-25 0 -41 16.5t-16 41.5z" />
<glyph unicode="&#xd7;" horiz-adv-x="1093" d="M156 213l465 430l-314 422l35 29l313 -420l455 422l33 -35l-459 -426l317 -424l-34 -29l-318 422l-461 -426z" />
<glyph unicode="&#xd8;" horiz-adv-x="1617" d="M201 606q0 175 71 334.5t188 272.5t272 180t319 67q239 0 403 -151l150 157l34 -34l-147 -156q79 -86 122.5 -201.5t43.5 -247.5q0 -176 -71 -336t-188.5 -272.5t-272.5 -179t-318 -66.5q-243 0 -408 152l-147 -154l-37 31l150 158q-164 175 -164 446zM256 608 q0 -252 145 -409l1016 1071q-150 137 -373 137q-206 0 -387 -105t-291 -290t-110 -404zM436 164q153 -137 377 -137q155 0 299.5 61.5t252 166t172.5 253t65 313.5q0 123 -39.5 229.5t-110.5 184.5z" />
<glyph unicode="&#xd9;" horiz-adv-x="1359" d="M254 494l158 940h53l-158 -938q-37 -220 60 -344.5t317 -124.5t358 124.5t175 344.5l157 938h53l-157 -940q-40 -246 -194.5 -383.5t-399.5 -137.5q-238 0 -350 141t-72 380zM823 1819h64l104 -287h-45z" />
<glyph unicode="&#xda;" horiz-adv-x="1359" d="M254 494l158 940h53l-158 -938q-37 -220 60 -344.5t317 -124.5t358 124.5t175 344.5l157 938h53l-157 -940q-40 -246 -194.5 -383.5t-399.5 -137.5q-238 0 -350 141t-72 380zM877 1532l198 287h70l-215 -287h-53z" />
<glyph unicode="&#xdb;" horiz-adv-x="1359" d="M254 494l158 940h53l-158 -938q-37 -220 60 -344.5t317 -124.5t358 124.5t175 344.5l157 938h53l-157 -940q-40 -246 -194.5 -383.5t-399.5 -137.5q-238 0 -350 141t-72 380zM719 1554l233 248h58l151 -248h-53l-131 197l-201 -197h-57z" />
<glyph unicode="&#xdc;" horiz-adv-x="1359" d="M254 494l158 940h53l-158 -938q-37 -220 60 -344.5t317 -124.5t358 124.5t175 344.5l157 938h53l-157 -940q-40 -246 -194.5 -383.5t-399.5 -137.5q-238 0 -350 141t-72 380zM729 1653q0 33 24 55.5t56 22.5q25 0 41 -16.5t16 -41.5q0 -33 -24 -55.5t-56 -22.5 q-25 0 -41 16.5t-16 41.5zM1053 1653q0 33 24 55.5t56 22.5q25 0 41 -16.5t16 -41.5q0 -33 -24 -55.5t-56 -22.5q-25 0 -41 16.5t-16 41.5z" />
<glyph unicode="&#xdd;" horiz-adv-x="995" d="M264 1434h55l299 -693l529 693h63l-571 -744l-115 -690h-53l115 690zM711 1532l198 287h70l-215 -287h-53z" />
<glyph unicode="&#xde;" horiz-adv-x="976" d="M184 0l240 1434h53l-51 -306h276q151 0 243.5 -86.5t92.5 -234.5q0 -103 -37 -189t-100.5 -142t-148 -87t-179.5 -31h-276l-59 -358h-54zM305 410h273q177 0 291 107.5t114 285.5q0 128 -77.5 201t-215.5 73h-272z" />
<glyph unicode="&#xdf;" horiz-adv-x="1060" d="M160 0l188 1130q57 336 379 336q121 0 201 -64.5t80 -174.5q0 -121 -66 -201.5t-168 -116.5q34 -5 72 -19t79.5 -43.5t74 -69t54 -99.5t21.5 -131q0 -111 -35.5 -203t-95.5 -154.5t-140 -106t-167 -63.5t-178 -20l8 51q75 0 149 15t147.5 51.5t129 90.5t90.5 140t35 193 q0 71 -22.5 129.5t-60.5 97t-89 64.5t-105 37.5t-112 11.5h-25l8 49h25q132 0 225.5 79t93.5 212q0 94 -69.5 144t-173.5 50q-123 0 -205 -66.5t-107 -213.5l-190 -1135h-51z" />
<glyph unicode="&#xe0;" d="M137 274q0 162 133.5 275t323.5 113q119 0 196.5 -46.5t112.5 -115.5l37 227q24 148 -48.5 226.5t-217.5 78.5q-169 0 -352 -102l-21 45q194 108 381 108q178 0 257.5 -96t51.5 -262l-121 -725h-41l15 147q-55 -72 -149 -123t-216 -51q-157 0 -249.5 85t-92.5 216z M190 285q0 -110 79 -185t218 -75q164 0 280 106t116 244q0 109 -82 172t-215 63q-169 0 -282.5 -96t-113.5 -229zM598 1481h64l104 -287h-45z" />
<glyph unicode="&#xe1;" d="M137 274q0 162 133.5 275t323.5 113q119 0 196.5 -46.5t112.5 -115.5l37 227q24 148 -48.5 226.5t-217.5 78.5q-169 0 -352 -102l-21 45q194 108 381 108q178 0 257.5 -96t51.5 -262l-121 -725h-41l15 147q-55 -72 -149 -123t-216 -51q-157 0 -249.5 85t-92.5 216z M190 285q0 -110 79 -185t218 -75q164 0 280 106t116 244q0 109 -82 172t-215 63q-169 0 -282.5 -96t-113.5 -229zM647 1194l199 287h69l-215 -287h-53z" />
<glyph unicode="&#xe2;" d="M137 274q0 162 133.5 275t323.5 113q119 0 196.5 -46.5t112.5 -115.5l37 227q24 148 -48.5 226.5t-217.5 78.5q-169 0 -352 -102l-21 45q194 108 381 108q178 0 257.5 -96t51.5 -262l-121 -725h-41l15 147q-55 -72 -149 -123t-216 -51q-157 0 -249.5 85t-92.5 216z M190 285q0 -110 79 -185t218 -75q164 0 280 106t116 244q0 109 -82 172t-215 63q-169 0 -282.5 -96t-113.5 -229zM498 1235l233 248h57l152 -248h-53l-131 197l-201 -197h-57z" />
<glyph unicode="&#xe3;" d="M137 274q0 162 133.5 275t323.5 113q119 0 196.5 -46.5t112.5 -115.5l37 227q24 148 -48.5 226.5t-217.5 78.5q-169 0 -352 -102l-21 45q194 108 381 108q178 0 257.5 -96t51.5 -262l-121 -725h-41l15 147q-55 -72 -149 -123t-216 -51q-157 0 -249.5 85t-92.5 216z M190 285q0 -110 79 -185t218 -75q164 0 280 106t116 244q0 109 -82 172t-215 63q-169 0 -282.5 -96t-113.5 -229zM434 1264q12 72 60.5 114.5t115.5 42.5q36 0 71.5 -17t59.5 -37t57 -37t66 -17q41 0 74.5 30t40.5 76h53q-12 -72 -60.5 -114.5t-115.5 -42.5q-36 0 -71.5 17 t-59.5 37t-57 37t-66 17q-41 0 -74.5 -30t-40.5 -76h-53z" />
<glyph unicode="&#xe4;" d="M137 274q0 162 133.5 275t323.5 113q119 0 196.5 -46.5t112.5 -115.5l37 227q24 148 -48.5 226.5t-217.5 78.5q-169 0 -352 -102l-21 45q194 108 381 108q178 0 257.5 -96t51.5 -262l-121 -725h-41l15 147q-55 -72 -149 -123t-216 -51q-157 0 -249.5 85t-92.5 216z M190 285q0 -110 79 -185t218 -75q164 0 280 106t116 244q0 109 -82 172t-215 63q-169 0 -282.5 -96t-113.5 -229zM506 1327q0 33 24 55.5t56 22.5q25 0 41 -16t16 -41q0 -33 -24 -55.5t-56 -22.5q-25 0 -41 16t-16 41zM829 1327q0 33 24 55.5t56 22.5q25 0 41.5 -16 t16.5 -41q0 -33 -24 -55.5t-56 -22.5q-25 0 -41.5 16t-16.5 41z" />
<glyph unicode="&#xe5;" d="M137 274q0 162 133.5 275t323.5 113q119 0 196.5 -46.5t112.5 -115.5l37 227q24 148 -48.5 226.5t-217.5 78.5q-169 0 -352 -102l-21 45q194 108 381 108q178 0 257.5 -96t51.5 -262l-121 -725h-41l15 147q-55 -72 -149 -123t-216 -51q-157 0 -249.5 85t-92.5 216z M190 285q0 -110 79 -185t218 -75q164 0 280 106t116 244q0 109 -82 172t-215 63q-169 0 -282.5 -96t-113.5 -229zM596 1335q0 75 50 124.5t122 49.5q56 0 91.5 -34.5t35.5 -90.5q0 -76 -49 -125t-123 -49q-56 0 -91.5 34.5t-35.5 90.5zM645 1343q0 -37 22 -61.5t62 -24.5 q52 0 84.5 35.5t32.5 83.5q0 37 -21.5 61.5t-62.5 24.5q-52 0 -84.5 -35.5t-32.5 -83.5z" />
<glyph unicode="&#xe6;" horiz-adv-x="1898" d="M137 274q0 162 133.5 275t323.5 113q116 0 197 -48t112 -114l37 227q24 148 -48.5 226.5t-217.5 78.5q-155 0 -350 -102l-23 45q71 39 173 73.5t208 34.5q164 0 244 -82.5t69 -226.5q86 148 221 228.5t287 80.5q149 0 251.5 -68.5t143 -185.5t15.5 -264l-6 -37h-951 q-39 -237 71.5 -370t326.5 -133q245 0 426 202l32 -26q-80 -100 -197 -164t-269 -64q-167 0 -279 76.5t-152 212.5q-55 -138 -171.5 -213.5t-264.5 -75.5q-157 0 -249.5 85t-92.5 216zM190 285q0 -110 79 -185t218 -75q165 0 280.5 103.5t115.5 240.5q0 109 -82.5 175 t-214.5 66q-169 0 -282.5 -96t-113.5 -229zM967 578h895q13 110 -11.5 198t-77.5 143t-124.5 84t-155.5 29q-172 0 -323 -122.5t-203 -331.5z" />
<glyph unicode="&#xe7;" horiz-adv-x="1091" d="M166 446q0 127 53 245t140 203.5t203.5 137t238.5 51.5q63 0 119.5 -13.5t94 -32.5t70.5 -45.5t49.5 -45.5t30.5 -39l-30 -45q-119 168 -342 168q-143 0 -274.5 -75.5t-213.5 -208t-82 -285.5q0 -181 115.5 -307.5t286.5 -126.5q227 0 395 182l22 -49 q-17 -21 -48.5 -47.5t-85 -60.5t-131 -56.5t-161.5 -22.5h-24l-35 -110q70 0 111 -35.5t41 -87.5q0 -98 -67.5 -143.5t-166.5 -45.5l-57 5l14 47q32 -4 57 -4q70 0 118 32t48 99q0 44 -34 67t-95 23h-24l43 160q-170 23 -274.5 153t-104.5 313z" />
<glyph unicode="&#xe8;" horiz-adv-x="1167" d="M162 430q0 145 52.5 270t138 207.5t193.5 129t220 46.5q197 0 310.5 -115t113.5 -300q0 -56 -14 -140h-953q-8 -52 -8 -112q0 -182 111 -286.5t297 -104.5q241 0 424 204l34 -28q-80 -100 -197.5 -164t-269.5 -64q-210 0 -331 124t-121 333zM233 578h897q7 47 7 73 q0 184 -104 282.5t-271 98.5q-116 0 -225.5 -53t-192.5 -158t-111 -243zM680 1481h63l105 -287h-45z" />
<glyph unicode="&#xe9;" horiz-adv-x="1167" d="M162 430q0 145 52.5 270t138 207.5t193.5 129t220 46.5q197 0 310.5 -115t113.5 -300q0 -56 -14 -140h-953q-8 -52 -8 -112q0 -182 111 -286.5t297 -104.5q241 0 424 204l34 -28q-80 -100 -197.5 -164t-269.5 -64q-210 0 -331 124t-121 333zM233 578h897q7 47 7 73 q0 184 -104 282.5t-271 98.5q-116 0 -225.5 -53t-192.5 -158t-111 -243zM733 1194l199 287h69l-215 -287h-53z" />
<glyph unicode="&#xea;" horiz-adv-x="1167" d="M162 430q0 145 52.5 270t138 207.5t193.5 129t220 46.5q197 0 310.5 -115t113.5 -300q0 -56 -14 -140h-953q-8 -52 -8 -112q0 -182 111 -286.5t297 -104.5q241 0 424 204l34 -28q-80 -100 -197.5 -164t-269.5 -64q-210 0 -331 124t-121 333zM233 578h897q7 47 7 73 q0 184 -104 282.5t-271 98.5q-116 0 -225.5 -53t-192.5 -158t-111 -243zM578 1235l233 248h57l152 -248h-53l-131 197l-201 -197h-57z" />
<glyph unicode="&#xeb;" horiz-adv-x="1167" d="M162 430q0 145 52.5 270t138 207.5t193.5 129t220 46.5q197 0 310.5 -115t113.5 -300q0 -56 -14 -140h-953q-8 -52 -8 -112q0 -182 111 -286.5t297 -104.5q241 0 424 204l34 -28q-80 -100 -197.5 -164t-269.5 -64q-210 0 -331 124t-121 333zM233 578h897q7 47 7 73 q0 184 -104 282.5t-271 98.5q-116 0 -225.5 -53t-192.5 -158t-111 -243zM584 1327q0 33 24 55.5t56 22.5q25 0 41 -16t16 -41q0 -33 -24 -55.5t-56 -22.5q-25 0 -41 16t-16 41zM907 1327q0 33 24 55.5t56 22.5q25 0 41 -16t16 -41q0 -33 -23.5 -55.5t-55.5 -22.5 q-25 0 -41.5 16t-16.5 41z" />
<glyph unicode="&#xec;" horiz-adv-x="382" d="M166 0l176 1057h51l-176 -1057h-51zM272 1481h64l104 -287h-45z" />
<glyph unicode="&#xed;" horiz-adv-x="382" d="M166 0l176 1057h51l-176 -1057h-51zM344 1194l199 287h69l-215 -287h-53z" />
<glyph unicode="&#xee;" horiz-adv-x="382" d="M166 0l176 1057h51l-176 -1057h-51zM178 1235l234 248h57l152 -248h-54l-131 197l-200 -197h-58z" />
<glyph unicode="&#xef;" horiz-adv-x="382" d="M166 0l176 1057h51l-176 -1057h-51zM186 1327q0 33 24 55.5t56 22.5q25 0 41.5 -16t16.5 -41q0 -33 -24 -55.5t-56 -22.5q-25 0 -41.5 16t-16.5 41zM510 1327q0 33 24 55.5t56 22.5q25 0 41 -16t16 -41q0 -33 -24 -55.5t-56 -22.5q-25 0 -41 16t-16 41z" />
<glyph unicode="&#xf0;" horiz-adv-x="1198" d="M162 422q0 161 76.5 299.5t216.5 222.5t311 84q131 0 225 -55t144 -137q-35 116 -119 227.5t-185 189.5l-348 -133l-8 47l318 121q-91 74 -242 154l43 26q132 -66 250 -159l252 98l6 -45l-217 -84q327 -284 327 -643q0 -309 -167.5 -485.5t-458.5 -176.5 q-192 0 -308 127.5t-116 321.5zM217 428q0 -173 102 -288t275 -115t301 75.5t192 200t64 279.5q0 179 -107.5 288t-285.5 109q-118 0 -220 -45t-171.5 -121t-109.5 -175.5t-40 -207.5z" />
<glyph unicode="&#xf1;" horiz-adv-x="1099" d="M166 0l176 1057h51l-31 -191q59 99 161.5 158t219.5 59q71 0 134 -24t110.5 -69t69 -117.5t6.5 -161.5l-119 -711h-51l115 690q27 157 -51 249.5t-222 92.5q-152 0 -266 -104.5t-143 -276.5l-109 -651h-51zM479 1264q12 72 60.5 114.5t115.5 42.5q36 0 71.5 -17t59.5 -37 t57 -37t66 -17q41 0 74.5 30t40.5 76h53q-12 -72 -60.5 -114.5t-115.5 -42.5q-36 0 -71.5 17t-59.5 37t-57 37t-66 17q-41 0 -74.5 -30t-40.5 -76h-53z" />
<glyph unicode="&#xf2;" horiz-adv-x="1245" d="M166 444q0 130 51 248.5t136.5 204t202.5 136t245 50.5q202 0 329 -133.5t127 -337.5q0 -174 -86 -321.5t-232 -232.5t-316 -85q-202 0 -329.5 133.5t-127.5 337.5zM219 451q0 -184 112 -305t296 -121q155 0 287.5 79t210 213t77.5 289q0 184 -111.5 305t-295.5 121 q-116 0 -222.5 -47t-184 -125t-123.5 -185.5t-46 -223.5zM711 1481h63l105 -287h-45z" />
<glyph unicode="&#xf3;" horiz-adv-x="1245" d="M166 444q0 130 51 248.5t136.5 204t202.5 136t245 50.5q202 0 329 -133.5t127 -337.5q0 -174 -86 -321.5t-232 -232.5t-316 -85q-202 0 -329.5 133.5t-127.5 337.5zM219 451q0 -184 112 -305t296 -121q155 0 287.5 79t210 213t77.5 289q0 184 -111.5 305t-295.5 121 q-116 0 -222.5 -47t-184 -125t-123.5 -185.5t-46 -223.5zM752 1194l198 287h70l-215 -287h-53z" />
<glyph unicode="&#xf4;" horiz-adv-x="1245" d="M166 444q0 130 51 248.5t136.5 204t202.5 136t245 50.5q202 0 329 -133.5t127 -337.5q0 -174 -86 -321.5t-232 -232.5t-316 -85q-202 0 -329.5 133.5t-127.5 337.5zM219 451q0 -184 112 -305t296 -121q155 0 287.5 79t210 213t77.5 289q0 184 -111.5 305t-295.5 121 q-116 0 -222.5 -47t-184 -125t-123.5 -185.5t-46 -223.5zM612 1235l234 248h57l152 -248h-54l-131 197l-200 -197h-58z" />
<glyph unicode="&#xf5;" horiz-adv-x="1245" d="M166 444q0 130 51 248.5t136.5 204t202.5 136t245 50.5q202 0 329 -133.5t127 -337.5q0 -174 -86 -321.5t-232 -232.5t-316 -85q-202 0 -329.5 133.5t-127.5 337.5zM219 451q0 -184 112 -305t296 -121q155 0 287.5 79t210 213t77.5 289q0 184 -111.5 305t-295.5 121 q-116 0 -222.5 -47t-184 -125t-123.5 -185.5t-46 -223.5zM557 1264q12 72 60.5 114.5t115.5 42.5q36 0 71.5 -17t59.5 -37t57 -37t66 -17q41 0 74.5 30t40.5 76h53q-12 -72 -60.5 -114.5t-115.5 -42.5q-36 0 -71.5 17t-59.5 37t-57 37t-66 17q-41 0 -74.5 -30t-40.5 -76h-53 z" />
<glyph unicode="&#xf6;" horiz-adv-x="1245" d="M166 444q0 130 51 248.5t136.5 204t202.5 136t245 50.5q202 0 329 -133.5t127 -337.5q0 -174 -86 -321.5t-232 -232.5t-316 -85q-202 0 -329.5 133.5t-127.5 337.5zM219 451q0 -184 112 -305t296 -121q155 0 287.5 79t210 213t77.5 289q0 184 -111.5 305t-295.5 121 q-116 0 -222.5 -47t-184 -125t-123.5 -185.5t-46 -223.5zM631 1327q0 33 24 55.5t56 22.5q25 0 41 -16t16 -41q0 -33 -24 -55.5t-56 -22.5q-25 0 -41 16t-16 41zM954 1327q0 33 24 55.5t56 22.5q25 0 41.5 -16t16.5 -41q0 -33 -24 -55.5t-56 -22.5q-25 0 -41.5 16t-16.5 41z " />
<glyph unicode="&#xf7;" horiz-adv-x="1126" d="M190 614l9 48h948l-8 -48h-949zM551 305q0 29 23 50.5t53 21.5q23 0 38 -16t15 -39q0 -29 -23 -50.5t-53 -21.5q-23 0 -38 16t-15 39zM659 954q0 29 23 50.5t53 21.5q23 0 38 -16t15 -39q0 -29 -22.5 -50.5t-52.5 -21.5q-23 0 -38.5 16t-15.5 39z" />
<glyph unicode="&#xf8;" horiz-adv-x="1245" d="M166 444q0 130 51 248.5t136.5 204t202.5 136t245 50.5q183 0 303 -108l102 108l35 -32l-104 -109q120 -133 120 -330q0 -174 -86 -321.5t-232 -232.5t-316 -85q-181 0 -304 107l-104 -109l-35 31l107 111q-121 130 -121 331zM219 451q0 -180 105 -297l741 780 q-112 98 -270 98q-116 0 -222.5 -47t-184 -125t-123.5 -185.5t-46 -223.5zM356 121q110 -96 271 -96q155 0 287.5 79t210 213t77.5 289q0 179 -104 295z" />
<glyph unicode="&#xf9;" horiz-adv-x="1085" d="M211 346l119 711h51l-115 -690q-27 -157 51 -249.5t222 -92.5q152 0 266 104.5t143 276.5l109 651h51l-176 -1057h-51l30 190q-59 -99 -161.5 -158t-219.5 -59q-74 0 -137.5 25.5t-109.5 71.5t-66 118t-6 158zM649 1481h64l104 -287h-45z" />
<glyph unicode="&#xfa;" horiz-adv-x="1085" d="M211 346l119 711h51l-115 -690q-27 -157 51 -249.5t222 -92.5q152 0 266 104.5t143 276.5l109 651h51l-176 -1057h-51l30 190q-59 -99 -161.5 -158t-219.5 -59q-74 0 -137.5 25.5t-109.5 71.5t-66 118t-6 158zM696 1194l199 287h70l-215 -287h-54z" />
<glyph unicode="&#xfb;" horiz-adv-x="1085" d="M211 346l119 711h51l-115 -690q-27 -157 51 -249.5t222 -92.5q152 0 266 104.5t143 276.5l109 651h51l-176 -1057h-51l30 190q-59 -99 -161.5 -158t-219.5 -59q-74 0 -137.5 25.5t-109.5 71.5t-66 118t-6 158zM532 1235l234 248h57l152 -248h-53l-131 197l-201 -197h-58z " />
<glyph unicode="&#xfc;" horiz-adv-x="1085" d="M211 346l119 711h51l-115 -690q-27 -157 51 -249.5t222 -92.5q152 0 266 104.5t143 276.5l109 651h51l-176 -1057h-51l30 190q-59 -99 -161.5 -158t-219.5 -59q-74 0 -137.5 25.5t-109.5 71.5t-66 118t-6 158zM547 1327q0 33 24 55.5t56 22.5q25 0 41 -16t16 -41 q0 -33 -24 -55.5t-56 -22.5q-25 0 -41 16t-16 41zM870 1327q0 33 24 55.5t56 22.5q25 0 41.5 -16t16.5 -41q0 -33 -24 -55.5t-56 -22.5q-25 0 -41.5 16t-16.5 41z" />
<glyph unicode="&#xfd;" horiz-adv-x="983" d="M190 1057h56l258 -1002l581 1002h60l-836 -1424h-59l217 363zM645 1194l199 287h69l-215 -287h-53z" />
<glyph unicode="&#xfe;" horiz-adv-x="1241" d="M102 -383l312 1864h51l-113 -680q20 36 49.5 72t75 75t98 68t122 48t143.5 19q189 0 302 -127.5t113 -328.5q0 -184 -80.5 -334.5t-218.5 -235t-303 -84.5q-88 0 -161 27.5t-118.5 72t-73.5 92.5t-40 99l-106 -647h-52zM295 410q0 -99 29.5 -174.5t80.5 -120.5t116 -67.5 t141 -22.5q105 0 203 45t172 121.5t118.5 187.5t44.5 235q0 186 -102.5 302t-266.5 116q-97 0 -191.5 -42.5t-171.5 -119.5t-125 -197.5t-48 -262.5z" />
<glyph unicode="&#xff;" horiz-adv-x="983" d="M190 1057h56l258 -1002l581 1002h60l-836 -1424h-59l217 363zM494 1327q0 33 23.5 55.5t55.5 22.5q25 0 41.5 -16t16.5 -41q0 -33 -24 -55.5t-56 -22.5q-25 0 -41 16t-16 41zM817 1327q0 33 24 55.5t56 22.5q25 0 41 -16t16 -41q0 -33 -24 -55.5t-56 -22.5q-25 0 -41 16 t-16 41z" />
<glyph unicode="&#x100;" horiz-adv-x="1236" d="M35 0l799 1434h49l319 -1434h-55l-119 543h-635l-299 -543h-59zM420 592h598l-168 770zM657 1597l9 54h464l-8 -54h-465z" />
<glyph unicode="&#x101;" d="M137 274q0 162 133.5 275t323.5 113q119 0 196.5 -46.5t112.5 -115.5l37 227q24 148 -48.5 226.5t-217.5 78.5q-169 0 -352 -102l-21 45q194 108 381 108q178 0 257.5 -96t51.5 -262l-121 -725h-41l15 147q-55 -72 -149 -123t-216 -51q-157 0 -249.5 85t-92.5 216z M190 285q0 -110 79 -185t218 -75q164 0 280 106t116 244q0 109 -82 172t-215 63q-169 0 -282.5 -96t-113.5 -229zM506 1341l8 54h465l-8 -54h-465z" />
<glyph unicode="&#x102;" horiz-adv-x="1236" d="M35 0l799 1434h49l319 -1434h-55l-119 543h-635l-299 -543h-59zM420 592h598l-168 770zM705 1767h47q-14 -79 20.5 -125.5t114.5 -46.5q76 0 126 47t64 125h49q-16 -97 -78.5 -159t-168.5 -62q-101 0 -145.5 63t-28.5 158z" />
<glyph unicode="&#x103;" d="M137 274q0 162 133.5 275t323.5 113q119 0 196.5 -46.5t112.5 -115.5l37 227q24 148 -48.5 226.5t-217.5 78.5q-169 0 -352 -102l-21 45q194 108 381 108q178 0 257.5 -96t51.5 -262l-121 -725h-41l15 147q-55 -72 -149 -123t-216 -51q-157 0 -249.5 85t-92.5 216z M190 285q0 -110 79 -185t218 -75q164 0 280 106t116 244q0 109 -82 172t-215 63q-169 0 -282.5 -96t-113.5 -229zM537 1440h47q-14 -79 20.5 -125.5t114.5 -46.5q76 0 126 47t64 125h49q-16 -97 -78.5 -159t-168.5 -62q-101 0 -145.5 63t-28.5 158z" />
<glyph unicode="&#x104;" horiz-adv-x="1236" d="M35 0l799 1434h49l319 -1434q-87 -29 -146 -84.5t-59 -126.5q0 -59 44 -92t104 -33l-8 -51q-81 0 -137 41.5t-56 118.5t57.5 141.5t143.5 93.5l-117 535h-635l-299 -543h-59zM420 592h598l-168 770z" />
<glyph unicode="&#x105;" d="M137 274q0 162 133.5 275t323.5 113q119 0 196.5 -46.5t112.5 -115.5l37 227q24 148 -48.5 226.5t-217.5 78.5q-169 0 -352 -102l-21 45q194 108 381 108q178 0 257.5 -96t51.5 -262l-121 -725q-86 -29 -145 -84.5t-59 -126.5q0 -59 43.5 -92t103.5 -33l-8 -51 q-81 0 -137 41.5t-56 118.5q0 84 62.5 149.5t156.5 93.5l13 131q-55 -72 -149 -123t-216 -51q-157 0 -249.5 85t-92.5 216zM190 285q0 -110 79 -185t218 -75q164 0 280 106t116 244q0 109 -82 172t-215 63q-169 0 -282.5 -96t-113.5 -229z" />
<glyph unicode="&#x106;" horiz-adv-x="1376" d="M201 604q0 176 70 336t185 273t268.5 180t315.5 67q84 0 159 -17t128.5 -45.5t87 -53t58.5 -50.5l-25 -49q-154 162 -412 162q-115 0 -229.5 -38.5t-212.5 -111t-174.5 -168.5t-120 -220t-43.5 -257q0 -255 156 -420t393 -165q85 0 170 21t151 55.5t106 59.5t71 50 l18 -47q-240 -193 -524 -193q-173 0 -309.5 82t-211.5 226t-75 323zM963 1532l198 287h70l-215 -287h-53z" />
<glyph unicode="&#x107;" horiz-adv-x="1091" d="M166 446q0 127 52.5 245t138.5 203.5t202 137t238 51.5q78 0 144.5 -19t110.5 -50t69.5 -56t43.5 -51l-30 -45q-119 168 -342 168q-143 0 -274.5 -75.5t-213.5 -208t-82 -285.5q0 -186 115 -310t287 -124q227 0 395 182l22 -49q-17 -21 -48.5 -47.5t-84.5 -60.5 t-130 -56.5t-161 -22.5q-196 0 -324 136t-128 337zM768 1194l199 287h69l-215 -287h-53z" />
<glyph unicode="&#x108;" horiz-adv-x="1376" d="M201 604q0 176 70 336t185 273t268.5 180t315.5 67q84 0 159 -17t128.5 -45.5t87 -53t58.5 -50.5l-25 -49q-154 162 -412 162q-115 0 -229.5 -38.5t-212.5 -111t-174.5 -168.5t-120 -220t-43.5 -257q0 -255 156 -420t393 -165q85 0 170 21t151 55.5t106 59.5t71 50 l18 -47q-240 -193 -524 -193q-173 0 -309.5 82t-211.5 226t-75 323zM854 1554l233 248h58l151 -248h-53l-131 197l-201 -197h-57z" />
<glyph unicode="&#x109;" horiz-adv-x="1091" d="M166 446q0 127 52.5 245t138.5 203.5t202 137t238 51.5q78 0 144.5 -19t110.5 -50t69.5 -56t43.5 -51l-30 -45q-119 168 -342 168q-143 0 -274.5 -75.5t-213.5 -208t-82 -285.5q0 -186 115 -310t287 -124q227 0 395 182l22 -49q-17 -21 -48.5 -47.5t-84.5 -60.5 t-130 -56.5t-161 -22.5q-196 0 -324 136t-128 337zM614 1235l234 248h57l152 -248h-53l-132 197l-200 -197h-58z" />
<glyph unicode="&#x10a;" horiz-adv-x="1376" d="M201 604q0 176 70 336t185 273t268.5 180t315.5 67q84 0 159 -17t128.5 -45.5t87 -53t58.5 -50.5l-25 -49q-154 162 -412 162q-115 0 -229.5 -38.5t-212.5 -111t-174.5 -168.5t-120 -220t-43.5 -257q0 -255 156 -420t393 -165q85 0 170 21t151 55.5t106 59.5t71 50 l18 -47q-240 -193 -524 -193q-173 0 -309.5 82t-211.5 226t-75 323zM1020 1659q0 27 23 48.5t51 21.5q24 0 39.5 -16t15.5 -38q0 -29 -23 -50t-53 -21q-23 0 -38 16t-15 39z" />
<glyph unicode="&#x10b;" horiz-adv-x="1091" d="M166 446q0 127 52.5 245t138.5 203.5t202 137t238 51.5q78 0 144.5 -19t110.5 -50t69.5 -56t43.5 -51l-30 -45q-119 168 -342 168q-143 0 -274.5 -75.5t-213.5 -208t-82 -285.5q0 -186 115 -310t287 -124q227 0 395 182l22 -49q-17 -21 -48.5 -47.5t-84.5 -60.5 t-130 -56.5t-161 -22.5q-196 0 -324 136t-128 337zM791 1343q0 27 22.5 48.5t50.5 21.5q24 0 40 -15.5t16 -37.5q0 -29 -23 -50.5t-53 -21.5q-23 0 -38 16t-15 39z" />
<glyph unicode="&#x10c;" horiz-adv-x="1376" d="M201 604q0 176 70 336t185 273t268.5 180t315.5 67q84 0 159 -17t128.5 -45.5t87 -53t58.5 -50.5l-25 -49q-154 162 -412 162q-115 0 -229.5 -38.5t-212.5 -111t-174.5 -168.5t-120 -220t-43.5 -257q0 -255 156 -420t393 -165q85 0 170 21t151 55.5t106 59.5t71 50 l18 -47q-240 -193 -524 -193q-173 0 -309.5 82t-211.5 226t-75 323zM879 1802h51l133 -196l199 196h59l-234 -248h-57z" />
<glyph unicode="&#x10d;" horiz-adv-x="1091" d="M166 446q0 127 52.5 245t138.5 203.5t202 137t238 51.5q78 0 144.5 -19t110.5 -50t69.5 -56t43.5 -51l-30 -45q-119 168 -342 168q-143 0 -274.5 -75.5t-213.5 -208t-82 -285.5q0 -186 115 -310t287 -124q227 0 395 182l22 -49q-17 -21 -48.5 -47.5t-84.5 -60.5 t-130 -56.5t-161 -22.5q-196 0 -324 136t-128 337zM651 1483h51l134 -197l198 197h60l-234 -248h-57z" />
<glyph unicode="&#x10e;" horiz-adv-x="1269" d="M184 0l240 1434h254q298 0 465.5 -157.5t167.5 -432.5q0 -199 -63 -358.5t-177 -266t-275.5 -163t-357.5 -56.5h-254zM246 51h200q177 0 325 52t256 149.5t168 246.5t60 335q0 260 -153 404t-432 144h-201zM621 1802h51l133 -196l199 196h59l-234 -248h-57z" />
<glyph unicode="&#x10f;" horiz-adv-x="1241" d="M164 430q0 138 47.5 260t128 207.5t191 135.5t233.5 50q72 0 135 -19.5t106 -51t76 -72t50.5 -80t23.5 -78.5l117 699h51l-248 -1481h-51l45 264q-31 -51 -73.5 -98t-103 -92.5t-141.5 -73t-171 -27.5q-190 0 -303 126t-113 331zM219 442q0 -186 102.5 -301.5 t266.5 -115.5q97 0 191.5 42.5t171.5 118.5t125 196.5t48 262.5q0 186 -105.5 286.5t-262.5 100.5q-105 0 -203 -45t-171.5 -122t-118 -188t-44.5 -235zM1352 1153l84 328h55l-100 -328h-39z" />
<glyph unicode="&#x110;" horiz-adv-x="1273" d="M182 705l8 49h132l114 680h254q295 0 464 -161t169 -429q0 -199 -62.5 -358.5t-177 -266t-276 -163t-358.5 -56.5h-254l118 705h-131zM258 51h201q177 0 325 52t255 149.5t167 246.5t60 335q0 258 -156.5 403t-429.5 145h-201l-104 -628h354l-8 -49h-354z" />
<glyph unicode="&#x111;" horiz-adv-x="1241" d="M164 430q0 138 47.5 260t128 207.5t191 135.5t233.5 50q72 0 135 -19.5t106 -51t76 -72t50.5 -80t23.5 -78.5l78 463h-281l6 47h283l31 189h51l-31 -189h144l-6 -47h-146l-209 -1245h-51l45 264q-31 -51 -73.5 -98t-103 -92.5t-141.5 -73t-171 -27.5q-190 0 -303 126 t-113 331zM219 442q0 -186 102.5 -301.5t266.5 -115.5q97 0 191.5 42.5t171.5 118.5t125 196.5t48 262.5q0 186 -105.5 286.5t-262.5 100.5q-105 0 -203 -45t-171.5 -122t-118 -188t-44.5 -235z" />
<glyph unicode="&#x112;" horiz-adv-x="958" d="M184 0l240 1434h629l-9 -52h-575l-104 -622h507l-8 -51h-508l-110 -658h600l-8 -51h-654zM553 1597l8 54h465l-8 -54h-465z" />
<glyph unicode="&#x113;" horiz-adv-x="1167" d="M162 430q0 145 52.5 270t138 207.5t193.5 129t220 46.5q197 0 310.5 -115t113.5 -300q0 -56 -14 -140h-953q-8 -52 -8 -112q0 -182 111 -286.5t297 -104.5q241 0 424 204l34 -28q-80 -100 -197.5 -164t-269.5 -64q-210 0 -331 124t-121 333zM233 578h897q7 47 7 73 q0 184 -104 282.5t-271 98.5q-116 0 -225.5 -53t-192.5 -158t-111 -243zM610 1341l8 54h465l-8 -54h-465z" />
<glyph unicode="&#x114;" horiz-adv-x="958" d="M184 0l240 1434h629l-9 -52h-575l-104 -622h507l-8 -51h-508l-110 -658h600l-8 -51h-654zM590 1767h47q-14 -79 20.5 -125.5t114.5 -46.5q76 0 126.5 47t64.5 125h49q-16 -97 -79 -159t-169 -62q-101 0 -145.5 63t-28.5 158z" />
<glyph unicode="&#x115;" horiz-adv-x="1167" d="M162 430q0 145 52.5 270t138 207.5t193.5 129t220 46.5q197 0 310.5 -115t113.5 -300q0 -56 -14 -140h-953q-8 -52 -8 -112q0 -182 111 -286.5t297 -104.5q241 0 424 204l34 -28q-80 -100 -197.5 -164t-269.5 -64q-210 0 -331 124t-121 333zM233 578h897q7 47 7 73 q0 184 -104 282.5t-271 98.5q-116 0 -225.5 -53t-192.5 -158t-111 -243zM631 1440h47q-14 -79 20.5 -125.5t114.5 -46.5q76 0 126.5 47t64.5 125h49q-16 -97 -79 -159t-169 -62q-101 0 -145.5 63t-28.5 158z" />
<glyph unicode="&#x116;" horiz-adv-x="958" d="M184 0l240 1434h629l-9 -52h-575l-104 -622h507l-8 -51h-508l-110 -658h600l-8 -51h-654zM758 1659q0 27 22.5 48.5t50.5 21.5q24 0 40 -16t16 -38q0 -29 -23 -50t-53 -21q-23 0 -38 16t-15 39z" />
<glyph unicode="&#x117;" horiz-adv-x="1167" d="M162 430q0 145 52.5 270t138 207.5t193.5 129t220 46.5q197 0 310.5 -115t113.5 -300q0 -56 -14 -140h-953q-8 -52 -8 -112q0 -182 111 -286.5t297 -104.5q241 0 424 204l34 -28q-80 -100 -197.5 -164t-269.5 -64q-210 0 -331 124t-121 333zM233 578h897q7 47 7 73 q0 184 -104 282.5t-271 98.5q-116 0 -225.5 -53t-192.5 -158t-111 -243zM762 1343q0 27 23 48.5t51 21.5q24 0 39.5 -15.5t15.5 -37.5q0 -29 -23 -50.5t-53 -21.5q-23 0 -38 16t-15 39z" />
<glyph unicode="&#x118;" horiz-adv-x="958" d="M184 0l240 1434h629l-9 -52h-575l-104 -622h507l-8 -51h-508l-110 -658h600l-8 -51q-87 -29 -146 -83.5t-59 -127.5q0 -60 43.5 -92.5t105.5 -32.5l-10 -51q-81 0 -136.5 41.5t-55.5 118.5q0 74 52 135.5t126 91.5h-574z" />
<glyph unicode="&#x119;" horiz-adv-x="1167" d="M162 430q0 145 52.5 270t138 207.5t193.5 129t220 46.5q197 0 310.5 -115t113.5 -300q0 -56 -14 -140h-953q-8 -52 -8 -112q0 -182 111 -286.5t297 -104.5q241 0 424 204l34 -28q-123 -152 -301 -203q-81 -30 -136.5 -85.5t-55.5 -123.5q0 -59 43.5 -92t103.5 -33l-8 -51 q-81 0 -136.5 41.5t-55.5 118.5q0 63 37.5 115t97.5 87q-14 -2 -56 -2q-210 0 -331 124t-121 333zM233 578h897q7 47 7 73q0 184 -104 282.5t-271 98.5q-116 0 -225.5 -53t-192.5 -158t-111 -243z" />
<glyph unicode="&#x11a;" horiz-adv-x="958" d="M184 0l240 1434h629l-9 -52h-575l-104 -622h507l-8 -51h-508l-110 -658h600l-8 -51h-654zM602 1802h51l133 -196l199 196h59l-233 -248h-57z" />
<glyph unicode="&#x11b;" horiz-adv-x="1167" d="M162 430q0 145 52.5 270t138 207.5t193.5 129t220 46.5q197 0 310.5 -115t113.5 -300q0 -56 -14 -140h-953q-8 -52 -8 -112q0 -182 111 -286.5t297 -104.5q241 0 424 204l34 -28q-80 -100 -197.5 -164t-269.5 -64q-210 0 -331 124t-121 333zM233 578h897q7 47 7 73 q0 184 -104 282.5t-271 98.5q-116 0 -225.5 -53t-192.5 -158t-111 -243zM623 1483h51l133 -197l199 197h59l-234 -248h-57z" />
<glyph unicode="&#x11c;" horiz-adv-x="1486" d="M201 602q0 177 69.5 337t185.5 273.5t271.5 180.5t321.5 67q289 0 458 -182l-34 -41q-61 70 -169.5 120t-265.5 50q-155 0 -299 -62.5t-250 -168t-169.5 -254t-63.5 -312.5q0 -255 152.5 -419t398.5 -164q77 0 152.5 15.5t131 38t107 51.5t80.5 51t51 42l66 396h-367 l8 51h418l-76 -473q-246 -226 -579 -226q-179 0 -316.5 83t-209.5 225.5t-72 320.5zM842 1554l233 248h58l151 -248h-53l-131 197l-201 -197h-57z" />
<glyph unicode="&#x11d;" horiz-adv-x="1226" d="M156 -276l37 45q55 -39 141 -73t190 -34q208 0 345 115.5t173 339.5l27 147q-31 -51 -73.5 -98t-103 -92.5t-141.5 -73t-171 -27.5q-190 0 -303 126t-113 331q0 138 47.5 260t128 207.5t191 135.5t233.5 50q72 0 135 -19.5t106 -51t76 -72t50.5 -80t23.5 -78.5l45 275h51 l-155 -934q-44 -263 -194.5 -388.5t-385.5 -125.5q-98 0 -194 32.5t-166 82.5zM219 442q0 -186 102.5 -301.5t266.5 -115.5q97 0 191.5 42.5t171.5 118.5t125 196.5t48 262.5q0 186 -105.5 286.5t-262.5 100.5q-105 0 -203 -45t-171.5 -122t-118 -188t-44.5 -235zM598 1235 l233 248h58l151 -248h-53l-131 197l-201 -197h-57z" />
<glyph unicode="&#x11e;" horiz-adv-x="1486" d="M201 602q0 177 69.5 337t185.5 273.5t271.5 180.5t321.5 67q289 0 458 -182l-34 -41q-61 70 -169.5 120t-265.5 50q-155 0 -299 -62.5t-250 -168t-169.5 -254t-63.5 -312.5q0 -255 152.5 -419t398.5 -164q77 0 152.5 15.5t131 38t107 51.5t80.5 51t51 42l66 396h-367 l8 51h418l-76 -473q-246 -226 -579 -226q-179 0 -316.5 83t-209.5 225.5t-72 320.5zM887 1767h47q-14 -79 20.5 -125.5t114.5 -46.5q76 0 126.5 47t64.5 125h49q-16 -97 -79 -159t-169 -62q-101 0 -145.5 63t-28.5 158z" />
<glyph unicode="&#x11f;" horiz-adv-x="1226" d="M156 -276l37 45q55 -39 141 -73t190 -34q208 0 345 115.5t173 339.5l27 147q-31 -51 -73.5 -98t-103 -92.5t-141.5 -73t-171 -27.5q-190 0 -303 126t-113 331q0 138 47.5 260t128 207.5t191 135.5t233.5 50q72 0 135 -19.5t106 -51t76 -72t50.5 -80t23.5 -78.5l45 275h51 l-155 -934q-44 -263 -194.5 -388.5t-385.5 -125.5q-98 0 -194 32.5t-166 82.5zM219 442q0 -186 102.5 -301.5t266.5 -115.5q97 0 191.5 42.5t171.5 118.5t125 196.5t48 262.5q0 186 -105.5 286.5t-262.5 100.5q-105 0 -203 -45t-171.5 -122t-118 -188t-44.5 -235zM621 1440 h47q-14 -79 20.5 -125.5t114.5 -46.5q76 0 126 47t64 125h49q-16 -97 -78.5 -159t-168.5 -62q-101 0 -145.5 63t-28.5 158z" />
<glyph unicode="&#x120;" horiz-adv-x="1486" d="M201 602q0 177 69.5 337t185.5 273.5t271.5 180.5t321.5 67q289 0 458 -182l-34 -41q-61 70 -169.5 120t-265.5 50q-155 0 -299 -62.5t-250 -168t-169.5 -254t-63.5 -312.5q0 -255 152.5 -419t398.5 -164q77 0 152.5 15.5t131 38t107 51.5t80.5 51t51 42l66 396h-367 l8 51h418l-76 -473q-246 -226 -579 -226q-179 0 -316.5 83t-209.5 225.5t-72 320.5zM1018 1659q0 27 23 48.5t51 21.5q24 0 39.5 -16t15.5 -38q0 -29 -23 -50t-53 -21q-23 0 -38 16t-15 39z" />
<glyph unicode="&#x121;" horiz-adv-x="1226" d="M156 -276l37 45q55 -39 141 -73t190 -34q208 0 345 115.5t173 339.5l27 147q-31 -51 -73.5 -98t-103 -92.5t-141.5 -73t-171 -27.5q-190 0 -303 126t-113 331q0 138 47.5 260t128 207.5t191 135.5t233.5 50q72 0 135 -19.5t106 -51t76 -72t50.5 -80t23.5 -78.5l45 275h51 l-155 -934q-44 -263 -194.5 -388.5t-385.5 -125.5q-98 0 -194 32.5t-166 82.5zM219 442q0 -186 102.5 -301.5t266.5 -115.5q97 0 191.5 42.5t171.5 118.5t125 196.5t48 262.5q0 186 -105.5 286.5t-262.5 100.5q-105 0 -203 -45t-171.5 -122t-118 -188t-44.5 -235zM756 1343 q0 27 22.5 48.5t50.5 21.5q24 0 40 -15.5t16 -37.5q0 -29 -23 -50.5t-53 -21.5q-23 0 -38 16t-15 39z" />
<glyph unicode="&#x122;" horiz-adv-x="1486" d="M201 602q0 177 69.5 337t185.5 273.5t271.5 180.5t321.5 67q289 0 458 -182l-34 -41q-61 70 -169.5 120t-265.5 50q-155 0 -299 -62.5t-250 -168t-169.5 -254t-63.5 -312.5q0 -255 152.5 -419t398.5 -164q77 0 152.5 15.5t131 38t107 51.5t80.5 51t51 42l66 396h-367 l8 51h418l-76 -473q-246 -226 -579 -226q-179 0 -316.5 83t-209.5 225.5t-72 320.5zM690 -324q83 71 98 123q-26 0 -42.5 15.5t-16.5 40.5q0 27 21.5 48t48.5 21q26 0 39.5 -16t13.5 -41q0 -58 -39.5 -118.5t-93.5 -104.5z" />
<glyph unicode="&#x123;" horiz-adv-x="1226" d="M156 -276l37 45q55 -39 141 -73t190 -34q208 0 345 115.5t173 339.5l27 147q-31 -51 -73.5 -98t-103 -92.5t-141.5 -73t-171 -27.5q-190 0 -303 126t-113 331q0 138 47.5 260t128 207.5t191 135.5t233.5 50q72 0 135 -19.5t106 -51t76 -72t50.5 -80t23.5 -78.5l45 275h51 l-155 -934q-44 -263 -194.5 -388.5t-385.5 -125.5q-98 0 -194 32.5t-166 82.5zM219 442q0 -186 102.5 -301.5t266.5 -115.5q97 0 191.5 42.5t171.5 118.5t125 196.5t48 262.5q0 186 -105.5 286.5t-262.5 100.5q-105 0 -203 -45t-171.5 -122t-118 -188t-44.5 -235zM750 1286 q0 112 133 223l28 -32q-80 -68 -98 -125q23 0 41 -15t18 -39q0 -28 -20.5 -48.5t-48.5 -20.5q-25 0 -39 16.5t-14 40.5z" />
<glyph unicode="&#x124;" horiz-adv-x="1390" d="M184 0l240 1434h53l-112 -674h915l113 674h53l-240 -1434h-53l119 711h-916l-118 -711h-54zM737 1554l234 248h57l152 -248h-54l-131 197l-200 -197h-58z" />
<glyph unicode="&#x125;" horiz-adv-x="1110" d="M166 0l248 1481h51l-103 -615q59 99 162.5 158t225.5 59q74 0 138.5 -24.5t112 -70t68.5 -117.5t6 -160l-119 -711h-51l115 690q27 157 -52.5 249.5t-226.5 92.5q-153 0 -269.5 -105t-145.5 -276l-109 -651h-51zM600 1536l234 248h57l151 -248h-53l-131 197l-201 -197 h-57z" />
<glyph unicode="&#x126;" horiz-adv-x="1390" d="M184 0l181 1073h-134l9 51h133l51 310h53l-51 -310h915l52 310h53l-51 -310h133l-8 -51h-134l-180 -1073h-53l119 711h-916l-118 -711h-54zM365 760h915l53 313h-915z" />
<glyph unicode="&#x127;" horiz-adv-x="1110" d="M166 0l207 1243h-150l8 49h150l33 189h51l-33 -189h264l-8 -49h-264l-62 -377q59 99 162.5 158t225.5 59q74 0 138.5 -24.5t112 -70t68.5 -117.5t6 -160l-119 -711h-51l115 690q27 157 -52.5 249.5t-226.5 92.5q-153 0 -269.5 -105t-145.5 -276l-109 -651h-51z" />
<glyph unicode="&#x128;" horiz-adv-x="421" d="M184 0l240 1434h53l-239 -1434h-54zM195 1585q12 73 60.5 115.5t115.5 42.5q36 0 71.5 -17t59.5 -37.5t57 -37.5t66 -17q40 0 73.5 30.5t40.5 76.5h54q-12 -72 -61 -115t-116 -43q-36 0 -71.5 17t-59.5 37.5t-57 37.5t-66 17q-40 0 -73.5 -30.5t-40.5 -76.5h-53z" />
<glyph unicode="&#x129;" horiz-adv-x="382" d="M119 1264q12 72 60.5 114.5t115.5 42.5q36 0 71.5 -17t59.5 -37t57 -37t66 -17q41 0 74.5 30t40.5 76h53q-12 -72 -60.5 -114.5t-115.5 -42.5q-36 0 -71.5 17t-59.5 37t-57 37t-66 17q-41 0 -74.5 -30t-40.5 -76h-53zM166 0l176 1057h51l-176 -1057h-51z" />
<glyph unicode="&#x12a;" horiz-adv-x="421" d="M184 0l240 1434h53l-239 -1434h-54zM252 1597l8 54h465l-8 -54h-465z" />
<glyph unicode="&#x12b;" horiz-adv-x="382" d="M166 0l176 1057h51l-176 -1057h-51zM186 1341l9 54h464l-8 -54h-465z" />
<glyph unicode="&#x12c;" horiz-adv-x="421" d="M184 0l240 1434h53l-239 -1434h-54zM299 1767h47q-14 -79 20.5 -125.5t114.5 -46.5q76 0 126.5 47t64.5 125h49q-16 -97 -79 -159t-169 -62q-101 0 -145.5 63t-28.5 158z" />
<glyph unicode="&#x12d;" horiz-adv-x="382" d="M166 0l176 1057h51l-176 -1057h-51zM223 1440h47q-14 -78 21 -125t115 -47q76 0 126 47t64 125h49q-16 -97 -79 -159t-169 -62q-101 0 -145.5 63t-28.5 158z" />
<glyph unicode="&#x12e;" horiz-adv-x="421" d="M-20 -227q0 76 57 137.5t147 95.5l240 1428h53l-239 -1434q-84 -29 -144.5 -83.5t-60.5 -127.5q0 -59 43.5 -92t103.5 -33l-8 -51q-81 0 -136.5 41.5t-55.5 118.5z" />
<glyph unicode="&#x12f;" horiz-adv-x="382" d="M-41 -227q0 77 58.5 140t148.5 93l176 1051h51l-176 -1057q-88 -29 -146.5 -83.5t-58.5 -127.5q0 -59 44 -92t104 -33l-8 -51q-81 0 -137 41.5t-56 118.5zM356 1343q0 28 21.5 48t50.5 20q23 0 38 -14.5t15 -36.5q0 -29 -21.5 -49.5t-51.5 -20.5q-23 0 -37.5 15t-14.5 38 z" />
<glyph unicode="&#x130;" horiz-adv-x="421" d="M184 0l240 1434h53l-239 -1434h-54zM428 1659q0 27 23 48.5t51 21.5q24 0 39.5 -16t15.5 -38q0 -29 -23 -50t-53 -21q-23 0 -38 16t-15 39z" />
<glyph unicode="&#x131;" horiz-adv-x="382" d="M166 0l176 1057h51l-176 -1057h-51z" />
<glyph unicode="&#x132;" horiz-adv-x="1073" d="M184 0l240 1434h53l-239 -1434h-54zM471 8l14 45q74 -18 146 -18q213 0 254 254l192 1145h53l-192 -1145q-25 -146 -98.5 -223.5t-216.5 -77.5q-47 0 -91.5 7t-60.5 13z" />
<glyph unicode="&#x133;" horiz-adv-x="765" d="M166 0l176 1057h51l-176 -1057h-51zM231 -387l9 51q25 -2 45 -2q103 0 166.5 68t87.5 213l186 1114h51l-186 -1108q-56 -338 -309 -338zM356 1343q0 28 21.5 48t50.5 20q23 0 38 -14.5t15 -36.5q0 -29 -21.5 -49.5t-51.5 -20.5q-23 0 -37.5 15t-14.5 38zM739 1343 q0 28 21.5 48t50.5 20q23 0 37 -14.5t14 -36.5q0 -29 -21 -49.5t-50 -20.5q-23 0 -37.5 15t-14.5 38z" />
<glyph unicode="&#x134;" horiz-adv-x="653" d="M51 8l15 45q74 -18 145 -18q213 0 254 254l192 1145h54l-193 -1145q-25 -146 -98.5 -223.5t-216.5 -77.5q-47 0 -91.5 7t-60.5 13zM487 1554l234 248h57l152 -248h-53l-132 197l-200 -197h-58z" />
<glyph unicode="&#x135;" horiz-adv-x="382" d="M-152 -387l9 51q25 -2 45 -2q103 0 166.5 68t87.5 213l186 1114h51l-186 -1108q-56 -338 -316 -338zM176 1235l234 248h57l151 -248h-53l-131 197l-201 -197h-57z" />
<glyph unicode="&#x136;" horiz-adv-x="1064" d="M184 0l240 1434h53l-112 -676l786 676h74l-803 -693l594 -741h-68l-588 735l-122 -735h-54zM453 -324q83 71 98 123q-26 0 -42.5 15.5t-16.5 40.5q0 27 21 48t48 21q26 0 39.5 -16t13.5 -41q0 -58 -39.5 -118.5t-93.5 -104.5z" />
<glyph unicode="&#x137;" horiz-adv-x="876" d="M166 0l248 1481h51l-148 -883l615 459h78l-637 -477l483 -580h-63l-480 575l-96 -575h-51zM373 -324q83 71 98 123q-26 0 -42.5 15.5t-16.5 40.5q0 27 21 48t48 21q26 0 40 -16t14 -41q0 -58 -40 -118.5t-94 -104.5z" />
<glyph unicode="&#x138;" horiz-adv-x="876" d="M166 0l176 1057h51l-80 -477l619 477h78l-641 -496l487 -561h-63l-484 557l-92 -557h-51z" />
<glyph unicode="&#x139;" horiz-adv-x="907" d="M184 0l240 1434h53l-231 -1383h600l-8 -51h-654zM438 1532l199 287h70l-215 -287h-54z" />
<glyph unicode="&#x13a;" horiz-adv-x="382" d="M166 0l248 1481h51l-248 -1481h-51zM416 1532l198 287h70l-215 -287h-53z" />
<glyph unicode="&#x13b;" horiz-adv-x="907" d="M184 0l240 1434h53l-231 -1383h600l-8 -51h-654zM395 -324q84 72 99 123q-26 0 -43 15.5t-17 40.5q0 27 21.5 48t48.5 21q26 0 39.5 -16t13.5 -41q0 -58 -39.5 -118.5t-93.5 -104.5z" />
<glyph unicode="&#x13c;" horiz-adv-x="382" d="M68 -324q83 71 98 123q-26 0 -43 15.5t-17 40.5q0 27 21.5 48t48.5 21q26 0 39.5 -16t13.5 -41q0 -58 -39.5 -118.5t-93.5 -104.5zM166 0l248 1481h51l-248 -1481h-51z" />
<glyph unicode="&#x13d;" horiz-adv-x="907" d="M184 0l240 1434h53l-231 -1383h600l-8 -51h-654zM727 1106l84 328h55l-100 -328h-39z" />
<glyph unicode="&#x13e;" horiz-adv-x="385" d="M166 0l248 1481h51l-248 -1481h-51zM494 1153l84 328h55l-101 -328h-38z" />
<glyph unicode="&#x13f;" horiz-adv-x="907" d="M184 0l240 1434h53l-231 -1383h600l-8 -51h-654zM653 735q0 28 22 49t52 21q24 0 37.5 -15t13.5 -38q0 -28 -20.5 -49t-50.5 -21q-24 0 -39 15.5t-15 37.5z" />
<glyph unicode="&#x140;" horiz-adv-x="526" d="M166 0l248 1481h51l-248 -1481h-51zM428 735q0 28 22 49t52 21q24 0 37.5 -15t13.5 -38q0 -28 -21 -49t-51 -21q-24 0 -38.5 15.5t-14.5 37.5z" />
<glyph unicode="&#x141;" horiz-adv-x="907" d="M156 578l10 63l137 78l121 715h53l-115 -682l318 180l-10 -66l-318 -178l-106 -637h600l-8 -51h-654l109 655z" />
<glyph unicode="&#x142;" horiz-adv-x="462" d="M166 670l12 59l168 107l107 645h53l-100 -609l174 111l-11 -59l-174 -113l-137 -811h-53l131 774z" />
<glyph unicode="&#x143;" horiz-adv-x="1425" d="M184 0l240 1434h47l735 -1344l224 1344h51l-240 -1434h-51l-729 1348l-225 -1348h-52zM928 1532l198 287h70l-215 -287h-53z" />
<glyph unicode="&#x144;" horiz-adv-x="1099" d="M166 0l176 1057h51l-31 -191q59 99 161.5 158t219.5 59q71 0 134 -24t110.5 -69t69 -117.5t6.5 -161.5l-119 -711h-51l115 690q27 157 -51 249.5t-222 92.5q-152 0 -266 -104.5t-143 -276.5l-109 -651h-51zM684 1194l199 287h69l-215 -287h-53z" />
<glyph unicode="&#x145;" horiz-adv-x="1425" d="M184 0l240 1434h47l735 -1344l224 1344h51l-240 -1434h-51l-729 1348l-225 -1348h-52zM588 -324q83 71 98 123q-26 0 -42.5 15.5t-16.5 40.5q0 27 21 48t48 21q26 0 40 -16t14 -41q0 -58 -40 -118.5t-94 -104.5z" />
<glyph unicode="&#x146;" horiz-adv-x="1099" d="M166 0l176 1057h51l-31 -191q59 99 161.5 158t219.5 59q71 0 134 -24t110.5 -69t69 -117.5t6.5 -161.5l-119 -711h-51l115 690q27 157 -51 249.5t-222 92.5q-152 0 -266 -104.5t-143 -276.5l-109 -651h-51zM434 -324q83 71 98 123q-26 0 -42.5 15.5t-16.5 40.5 q0 27 21.5 48t48.5 21q26 0 39.5 -16t13.5 -41q0 -58 -39.5 -118.5t-93.5 -104.5z" />
<glyph unicode="&#x147;" horiz-adv-x="1425" d="M184 0l240 1434h47l735 -1344l224 1344h51l-240 -1434h-51l-729 1348l-225 -1348h-52zM788 1802h52l133 -196l198 196h60l-234 -248h-57z" />
<glyph unicode="&#x148;" horiz-adv-x="1099" d="M166 0l176 1057h51l-31 -191q59 99 161.5 158t219.5 59q71 0 134 -24t110.5 -69t69 -117.5t6.5 -161.5l-119 -711h-51l115 690q27 157 -51 249.5t-222 92.5q-152 0 -266 -104.5t-143 -276.5l-109 -651h-51zM580 1483h51l133 -197l199 197h59l-234 -248h-57z" />
<glyph unicode="&#x149;" horiz-adv-x="1099" d="M166 0l176 1057h51l-31 -191q59 99 161.5 158t219.5 59q71 0 134 -24t110.5 -69t69 -117.5t6.5 -161.5l-119 -711h-51l115 690q27 157 -51 249.5t-222 92.5q-152 0 -266 -104.5t-143 -276.5l-109 -651h-51zM248 1196q83 71 98 123q-26 0 -42.5 15t-16.5 40q0 28 21.5 49 t47.5 21t40 -16.5t14 -41.5q0 -58 -40 -118.5t-94 -104.5z" />
<glyph unicode="&#x14a;" horiz-adv-x="1425" d="M184 0l240 1434h49l733 -1348l224 1348h51l-254 -1522q-51 -301 -316 -301q-101 0 -151 20l14 45q74 -18 146 -18q215 0 256 254l14 88l-729 1348l-225 -1348h-52z" />
<glyph unicode="&#x14b;" horiz-adv-x="1099" d="M166 0l176 1057h51l-31 -191q59 99 162 158t221 59q70 0 132.5 -24t110 -69t69 -117.5t6.5 -161.5l-127 -762q-56 -338 -318 -338l-43 2l11 51q23 -2 43 -2q103 0 166.5 68t87.5 213l125 747q27 157 -51 249.5t-222 92.5q-152 0 -266 -104.5t-143 -276.5l-109 -651h-51z " />
<glyph unicode="&#x14c;" horiz-adv-x="1617" d="M201 606q0 175 71 334.5t188 272.5t272 180t319 67q130 0 243 -48t192.5 -131.5t125 -201t45.5 -252.5q0 -176 -71 -336t-188.5 -272.5t-272.5 -179t-318 -66.5q-263 0 -434.5 178.5t-171.5 454.5zM256 608q0 -256 154.5 -418.5t402.5 -162.5q155 0 299.5 61.5t252 166 t172.5 253t65 313.5q0 256 -155 421t-403 165q-206 0 -387 -105t-291 -290t-110 -404zM848 1597l8 54h465l-8 -54h-465z" />
<glyph unicode="&#x14d;" horiz-adv-x="1245" d="M166 444q0 130 51 248.5t136.5 204t202.5 136t245 50.5q202 0 329 -133.5t127 -337.5q0 -174 -86 -321.5t-232 -232.5t-316 -85q-202 0 -329.5 133.5t-127.5 337.5zM219 451q0 -184 112 -305t296 -121q155 0 287.5 79t210 213t77.5 289q0 184 -111.5 305t-295.5 121 q-116 0 -222.5 -47t-184 -125t-123.5 -185.5t-46 -223.5zM631 1341l8 54h465l-8 -54h-465z" />
<glyph unicode="&#x14e;" horiz-adv-x="1617" d="M201 606q0 175 71 334.5t188 272.5t272 180t319 67q130 0 243 -48t192.5 -131.5t125 -201t45.5 -252.5q0 -176 -71 -336t-188.5 -272.5t-272.5 -179t-318 -66.5q-263 0 -434.5 178.5t-171.5 454.5zM256 608q0 -256 154.5 -418.5t402.5 -162.5q155 0 299.5 61.5t252 166 t172.5 253t65 313.5q0 256 -155 421t-403 165q-206 0 -387 -105t-291 -290t-110 -404zM891 1767h47q-14 -79 20.5 -125.5t114.5 -46.5q76 0 126.5 47t64.5 125h49q-16 -97 -79 -159t-169 -62q-101 0 -145.5 63t-28.5 158z" />
<glyph unicode="&#x14f;" horiz-adv-x="1245" d="M166 444q0 130 51 248.5t136.5 204t202.5 136t245 50.5q202 0 329 -133.5t127 -337.5q0 -174 -86 -321.5t-232 -232.5t-316 -85q-202 0 -329.5 133.5t-127.5 337.5zM219 451q0 -184 112 -305t296 -121q155 0 287.5 79t210 213t77.5 289q0 184 -111.5 305t-295.5 121 q-116 0 -222.5 -47t-184 -125t-123.5 -185.5t-46 -223.5zM653 1440h47q-14 -78 21 -125t115 -47q76 0 126 47t64 125h49q-16 -97 -79 -159t-169 -62q-101 0 -145.5 63t-28.5 158z" />
<glyph unicode="&#x150;" horiz-adv-x="1617" d="M201 606q0 175 71 334.5t188 272.5t272 180t319 67q130 0 243 -48t192.5 -131.5t125 -201t45.5 -252.5q0 -176 -71 -336t-188.5 -272.5t-272.5 -179t-318 -66.5q-263 0 -434.5 178.5t-171.5 454.5zM256 608q0 -256 154.5 -418.5t402.5 -162.5q155 0 299.5 61.5t252 166 t172.5 253t65 313.5q0 256 -155 421t-403 165q-206 0 -387 -105t-291 -290t-110 -404zM889 1520l198 286h70l-215 -286h-53zM1096 1520l198 286h70l-215 -286h-53z" />
<glyph unicode="&#x151;" horiz-adv-x="1245" d="M166 444q0 130 51 248.5t136.5 204t202.5 136t245 50.5q202 0 329 -133.5t127 -337.5q0 -174 -86 -321.5t-232 -232.5t-316 -85q-202 0 -329.5 133.5t-127.5 337.5zM219 451q0 -184 112 -305t296 -121q155 0 287.5 79t210 213t77.5 289q0 184 -111.5 305t-295.5 121 q-116 0 -222.5 -47t-184 -125t-123.5 -185.5t-46 -223.5zM657 1194l199 287h70l-215 -287h-54zM864 1194l199 287h70l-215 -287h-54z" />
<glyph unicode="&#x152;" horiz-adv-x="2203" d="M201 606q0 175 71 334.5t188 272.5t272 180t319 67q91 0 184 -26h1063l-8 -52h-934q140 -81 220.5 -227t80.5 -328q0 -31 -4 -67h465l-9 -51h-462q-30 -218 -164.5 -393t-329.5 -265h938l-8 -51h-1073q-111 -27 -203 -27q-263 0 -434.5 178.5t-171.5 454.5zM256 608 q0 -256 154.5 -418.5t402.5 -162.5q155 0 299.5 61.5t252 166t172.5 253t65 313.5q0 256 -155 421t-403 165q-206 0 -387 -105t-291 -290t-110 -404z" />
<glyph unicode="&#x153;" horiz-adv-x="2193" d="M166 444q0 130 51 248.5t136.5 204t202.5 136t245 50.5q175 0 296 -101.5t152 -266.5q75 170 225 269t318 99q197 0 310.5 -115t113.5 -300q0 -56 -14 -140h-949q-12 -62 -12 -116q0 -185 110 -286t298 -101q241 0 422 202l36 -26q-80 -100 -197.5 -164t-269.5 -64 q-188 0 -306.5 99t-135.5 268q-77 -165 -233.5 -266t-341.5 -101q-202 0 -329.5 133.5t-127.5 337.5zM219 451q0 -184 112 -305t296 -121q155 0 287.5 79t210 213t77.5 289q0 184 -111.5 305t-295.5 121q-116 0 -222.5 -47t-184 -125t-123.5 -185.5t-46 -223.5zM1260 578 h897q6 41 6 73q0 184 -104 282.5t-271 98.5q-116 0 -224.5 -53.5t-191 -158.5t-112.5 -242z" />
<glyph unicode="&#x154;" horiz-adv-x="1048" d="M184 0l240 1434h317q154 0 247 -88.5t93 -229.5q0 -87 -29.5 -160t-81 -123.5t-113 -84.5t-132.5 -52l264 -696h-59l-258 688q-43 -6 -109 -6h-211l-114 -682h-54zM360 733h234q193 0 311.5 109t118.5 270q0 118 -76 194t-215 76h-264zM700 1532l199 287h70l-215 -287 h-54z" />
<glyph unicode="&#x155;" horiz-adv-x="616" d="M166 0l176 1057h51l-37 -223q46 110 148 179.5t233 69.5l-10 -53q-91 0 -164.5 -38t-122.5 -104.5t-81 -148.5t-48 -180l-94 -559h-51zM506 1194l199 287h69l-215 -287h-53z" />
<glyph unicode="&#x156;" horiz-adv-x="1048" d="M184 0l240 1434h317q154 0 247 -88.5t93 -229.5q0 -87 -29.5 -160t-81 -123.5t-113 -84.5t-132.5 -52l264 -696h-59l-258 688q-43 -6 -109 -6h-211l-114 -682h-54zM360 733h234q193 0 311.5 109t118.5 270q0 118 -76 194t-215 76h-264zM420 -324q83 71 98 123 q-26 0 -42.5 15.5t-16.5 40.5q0 27 21 48t48 21q26 0 40 -16t14 -41q0 -58 -39.5 -118.5t-93.5 -104.5z" />
<glyph unicode="&#x157;" horiz-adv-x="616" d="M84 -324q83 71 98 123q-26 0 -42.5 15.5t-16.5 40.5q0 27 21.5 48t48.5 21q26 0 39.5 -16t13.5 -41q0 -58 -39.5 -118.5t-93.5 -104.5zM166 0l176 1057h51l-37 -223q46 110 148 179.5t233 69.5l-10 -53q-91 0 -164.5 -38t-122.5 -104.5t-81 -148.5t-48 -180l-94 -559h-51 z" />
<glyph unicode="&#x158;" horiz-adv-x="1048" d="M184 0l240 1434h317q154 0 247 -88.5t93 -229.5q0 -87 -29.5 -160t-81 -123.5t-113 -84.5t-132.5 -52l264 -696h-59l-258 688q-43 -6 -109 -6h-211l-114 -682h-54zM360 733h234q193 0 311.5 109t118.5 270q0 118 -76 194t-215 76h-264zM578 1802h51l133 -196l199 196h59 l-234 -248h-57z" />
<glyph unicode="&#x159;" horiz-adv-x="616" d="M166 0l176 1057h51l-37 -223q46 110 148 179.5t233 69.5l-10 -53q-91 0 -164.5 -38t-122.5 -104.5t-81 -148.5t-48 -180l-94 -559h-51zM371 1483h51l133 -197l199 197h59l-233 -248h-58z" />
<glyph unicode="&#x15a;" horiz-adv-x="1009" d="M137 270l56 15q7 -50 26 -92t55 -81.5t99 -62t147 -22.5q163 0 279 103t116 263q0 75 -33 135t-85.5 100t-116 75l-127 70t-116 75t-85.5 100t-33 135q0 74 29 142t82 120.5t135.5 83.5t182.5 31q64 0 117 -16t86.5 -39.5t61 -58t41.5 -62t27 -61.5l-51 -21 q-10 35 -28 66.5t-50 65t-86 53.5t-123 20q-166 0 -267 -93t-101 -229q0 -53 20.5 -97.5t55 -76.5t79.5 -60.5t94.5 -54t99 -52t94.5 -59.5t79.5 -71.5t55 -92.5t20.5 -118q0 -184 -129.5 -307t-331.5 -123q-88 0 -157.5 24t-113 66.5t-69 94t-35.5 112.5zM715 1532l198 287 h70l-215 -287h-53z" />
<glyph unicode="&#x15b;" horiz-adv-x="823" d="M119 225l51 13q7 -90 69.5 -151.5t190.5 -61.5q74 0 142.5 32t114.5 96t46 144q0 55 -26 98t-68 71t-93 52t-101.5 48t-92.5 53t-68 73.5t-26 102.5q0 130 97.5 209t238.5 79q55 0 100 -13.5t74.5 -35t51 -49.5t31 -55t11.5 -53l-47 -15q-28 170 -229 170 q-113 0 -193 -64t-80 -169q0 -50 26 -88.5t68 -64t92.5 -48.5t100.5 -48t92 -55.5t68 -78.5t26 -109q0 -144 -105 -239t-261 -95q-77 0 -136 23t-92.5 61.5t-51 80t-21.5 87.5zM551 1194l199 287h69l-215 -287h-53z" />
<glyph unicode="&#x15c;" horiz-adv-x="1009" d="M137 270l56 15q7 -50 26 -92t55 -81.5t99 -62t147 -22.5q163 0 279 103t116 263q0 75 -33 135t-85.5 100t-116 75l-127 70t-116 75t-85.5 100t-33 135q0 74 29 142t82 120.5t135.5 83.5t182.5 31q64 0 117 -16t86.5 -39.5t61 -58t41.5 -62t27 -61.5l-51 -21 q-10 35 -28 66.5t-50 65t-86 53.5t-123 20q-166 0 -267 -93t-101 -229q0 -53 20.5 -97.5t55 -76.5t79.5 -60.5t94.5 -54t99 -52t94.5 -59.5t79.5 -71.5t55 -92.5t20.5 -118q0 -184 -129.5 -307t-331.5 -123q-88 0 -157.5 24t-113 66.5t-69 94t-35.5 112.5zM555 1554l233 248 h58l151 -248h-53l-131 197l-201 -197h-57z" />
<glyph unicode="&#x15d;" horiz-adv-x="823" d="M119 225l51 13q7 -90 69.5 -151.5t190.5 -61.5q74 0 142.5 32t114.5 96t46 144q0 55 -26 98t-68 71t-93 52t-101.5 48t-92.5 53t-68 73.5t-26 102.5q0 130 97.5 209t238.5 79q55 0 100 -13.5t74.5 -35t51 -49.5t31 -55t11.5 -53l-47 -15q-28 170 -229 170 q-113 0 -193 -64t-80 -169q0 -50 26 -88.5t68 -64t92.5 -48.5t100.5 -48t92 -55.5t68 -78.5t26 -109q0 -144 -105 -239t-261 -95q-77 0 -136 23t-92.5 61.5t-51 80t-21.5 87.5zM418 1235l233 248h58l151 -248h-53l-131 197l-201 -197h-57z" />
<glyph unicode="&#x15e;" horiz-adv-x="1009" d="M137 270l56 15q7 -50 26 -92t55 -81.5t99 -62t147 -22.5q163 0 279 103t116 263q0 75 -33 135t-85.5 100t-116 75l-127 70t-116 75t-85.5 100t-33 135q0 74 29 142t82 120.5t135.5 83.5t182.5 31q64 0 117 -16t86.5 -39.5t61 -58t41.5 -62t27 -61.5l-51 -21 q-10 35 -28 66.5t-50 65t-86 53.5t-123 20q-166 0 -267 -93t-101 -229q0 -53 20.5 -97.5t55 -76.5t79.5 -60.5t94.5 -54t99 -52t94.5 -59.5t79.5 -71.5t55 -92.5t20.5 -118q0 -120 -57.5 -217.5t-162 -154.5t-237.5 -58l-35 -110q70 0 111 -35.5t41 -87.5 q0 -98 -67.5 -143.5t-166.5 -45.5l-57 5l14 47q32 -4 58 -4q70 0 118 32t48 99q0 44 -34 67t-95 23h-25l43 155q-150 10 -231.5 92t-100.5 203z" />
<glyph unicode="&#x15f;" horiz-adv-x="823" d="M119 225l51 13q7 -90 69.5 -151.5t190.5 -61.5q74 0 142.5 32t114.5 96t46 144q0 55 -26 98t-68 71t-93 52t-101.5 48t-92.5 53t-68 73.5t-26 102.5q0 130 97.5 209t238.5 79q55 0 100 -13.5t74.5 -35t51 -49.5t31 -55t11.5 -53l-47 -15q-28 170 -229 170 q-113 0 -193 -64t-80 -169q0 -50 26 -88.5t68 -64t92.5 -48.5t100.5 -48t92 -55.5t68 -78.5t26 -109q0 -144 -105.5 -239t-262.5 -95l-35 -110q70 0 111 -35.5t41 -87.5q0 -98 -67.5 -143.5t-166.5 -45.5l-57 5l14 47q32 -4 57 -4q70 0 118 32t48 99q0 44 -34 67t-95 23h-24 l43 155q-123 14 -184 86t-68 164z" />
<glyph unicode="&#x160;" horiz-adv-x="1009" d="M137 270l56 15q7 -50 26 -92t55 -81.5t99 -62t147 -22.5q163 0 279 103t116 263q0 75 -33 135t-85.5 100t-116 75l-127 70t-116 75t-85.5 100t-33 135q0 74 29 142t82 120.5t135.5 83.5t182.5 31q64 0 117 -16t86.5 -39.5t61 -58t41.5 -62t27 -61.5l-51 -21 q-10 35 -28 66.5t-50 65t-86 53.5t-123 20q-166 0 -267 -93t-101 -229q0 -53 20.5 -97.5t55 -76.5t79.5 -60.5t94.5 -54t99 -52t94.5 -59.5t79.5 -71.5t55 -92.5t20.5 -118q0 -184 -129.5 -307t-331.5 -123q-88 0 -157.5 24t-113 66.5t-69 94t-35.5 112.5zM590 1802h51 l133 -196l199 196h59l-233 -248h-58z" />
<glyph unicode="&#x161;" horiz-adv-x="823" d="M119 225l51 13q7 -90 69.5 -151.5t190.5 -61.5q74 0 142.5 32t114.5 96t46 144q0 55 -26 98t-68 71t-93 52t-101.5 48t-92.5 53t-68 73.5t-26 102.5q0 130 97.5 209t238.5 79q55 0 100 -13.5t74.5 -35t51 -49.5t31 -55t11.5 -53l-47 -15q-28 170 -229 170 q-113 0 -193 -64t-80 -169q0 -50 26 -88.5t68 -64t92.5 -48.5t100.5 -48t92 -55.5t68 -78.5t26 -109q0 -144 -105 -239t-261 -95q-77 0 -136 23t-92.5 61.5t-51 80t-21.5 87.5zM453 1483h51l133 -197l199 197h59l-233 -248h-58z" />
<glyph unicode="&#x162;" d="M279 1382l8 52h917l-8 -52h-432l-232 -1382h-51l232 1382h-434zM379 -324q83 71 98 123q-26 0 -42.5 15.5t-16.5 40.5q0 27 21 48t48 21q26 0 40 -16t14 -41q0 -58 -39.5 -118.5t-93.5 -104.5z" />
<glyph unicode="&#x163;" horiz-adv-x="555" d="M207 1010l8 47h135l37 221h53l-37 -221h265l-9 -47h-264l-108 -650q-29 -174 7 -247.5t165 -73.5q21 0 49 4l-8 -49q-17 -6 -68 -6q-126 0 -179.5 84t-27.5 243l117 695h-135zM213 -324q83 71 98 123q-26 0 -42.5 15.5t-16.5 40.5q0 27 21.5 48t48.5 21q26 0 39.5 -16 t13.5 -41q0 -58 -39.5 -118.5t-93.5 -104.5z" />
<glyph unicode="&#x164;" d="M279 1382l8 52h917l-8 -52h-432l-232 -1382h-51l232 1382h-434zM588 1802h51l133 -196l199 196h59l-233 -248h-58z" />
<glyph unicode="&#x165;" horiz-adv-x="555" d="M207 1010l8 47h135l37 221h53l-37 -221h265l-9 -47h-264l-108 -650q-29 -174 7 -247.5t165 -73.5q21 0 49 4l-8 -49q-17 -6 -68 -6q-126 0 -179.5 84t-27.5 243l117 695h-135zM604 1153l84 328h55l-100 -328h-39z" />
<glyph unicode="&#x166;" d="M279 1382l8 52h917l-8 -52h-432l-94 -565h295l-9 -51h-294l-130 -766h-51l129 766h-297l9 51h296l95 565h-434z" />
<glyph unicode="&#x167;" horiz-adv-x="555" d="M156 657l8 48h127l51 305h-135l8 47h135l37 221h53l-37 -221h265l-9 -47h-264l-51 -305h266l-8 -48h-266l-49 -297q-29 -174 7 -247.5t165 -73.5q21 0 49 4l-8 -49q-17 -6 -68 -6q-126 0 -179.5 84t-27.5 243l58 342h-127z" />
<glyph unicode="&#x168;" horiz-adv-x="1359" d="M254 494l158 940h53l-158 -938q-37 -220 60 -344.5t317 -124.5t358 124.5t175 344.5l157 938h53l-157 -940q-40 -246 -194.5 -383.5t-399.5 -137.5q-238 0 -350 141t-72 380zM680 1585q12 73 60.5 115.5t115.5 42.5q36 0 71.5 -17t59.5 -37.5t57 -37.5t66 -17 q41 0 74.5 30.5t40.5 76.5h53q-12 -73 -60.5 -115.5t-115.5 -42.5q-36 0 -71.5 17t-59.5 37.5t-57 37.5t-66 17q-41 0 -74.5 -30.5t-40.5 -76.5h-53z" />
<glyph unicode="&#x169;" horiz-adv-x="1085" d="M211 346l119 711h51l-115 -690q-27 -157 51 -249.5t222 -92.5q152 0 266 104.5t143 276.5l109 651h51l-176 -1057h-51l30 190q-59 -99 -161.5 -158t-219.5 -59q-74 0 -137.5 25.5t-109.5 71.5t-66 118t-6 158zM465 1264q12 72 60.5 114.5t115.5 42.5q36 0 71.5 -17 t59.5 -37t57 -37t66 -17q41 0 74.5 30t40.5 76h53q-12 -72 -60.5 -114.5t-115.5 -42.5q-36 0 -71.5 17t-59.5 37t-57 37t-66 17q-41 0 -74.5 -30t-40.5 -76h-53z" />
<glyph unicode="&#x16a;" horiz-adv-x="1359" d="M254 494l158 940h53l-158 -938q-37 -220 60 -344.5t317 -124.5t358 124.5t175 344.5l157 938h53l-157 -940q-40 -246 -194.5 -383.5t-399.5 -137.5q-238 0 -350 141t-72 380zM741 1597l9 54h464l-8 -54h-465z" />
<glyph unicode="&#x16b;" horiz-adv-x="1085" d="M211 346l119 711h51l-115 -690q-27 -157 51 -249.5t222 -92.5q152 0 266 104.5t143 276.5l109 651h51l-176 -1057h-51l30 190q-59 -99 -161.5 -158t-219.5 -59q-74 0 -137.5 25.5t-109.5 71.5t-66 118t-6 158zM543 1341l8 54h465l-8 -54h-465z" />
<glyph unicode="&#x16c;" horiz-adv-x="1359" d="M254 494l158 940h53l-158 -938q-37 -220 60 -344.5t317 -124.5t358 124.5t175 344.5l157 938h53l-157 -940q-40 -246 -194.5 -383.5t-399.5 -137.5q-238 0 -350 141t-72 380zM766 1767h47q-14 -79 20.5 -125.5t114.5 -46.5q76 0 126.5 47t64.5 125h49q-16 -97 -79 -159 t-169 -62q-101 0 -145.5 63t-28.5 158z" />
<glyph unicode="&#x16d;" horiz-adv-x="1085" d="M211 346l119 711h51l-115 -690q-27 -157 51 -249.5t222 -92.5q152 0 266 104.5t143 276.5l109 651h51l-176 -1057h-51l30 190q-59 -99 -161.5 -158t-219.5 -59q-74 0 -137.5 25.5t-109.5 71.5t-66 118t-6 158zM580 1440h47q-14 -79 20.5 -125.5t114.5 -46.5q76 0 126 47 t64 125h49q-16 -97 -78.5 -159t-168.5 -62q-101 0 -145.5 63t-28.5 158z" />
<glyph unicode="&#x16e;" horiz-adv-x="1359" d="M254 494l158 940h53l-158 -938q-37 -220 60 -344.5t317 -124.5t358 124.5t175 344.5l157 938h53l-157 -940q-40 -246 -194.5 -383.5t-399.5 -137.5q-238 0 -350 141t-72 380zM817 1661q0 75 50 124.5t122 49.5q56 0 91.5 -34.5t35.5 -90.5q0 -76 -49 -125t-123 -49 q-56 0 -91.5 34.5t-35.5 90.5zM866 1669q0 -37 22 -61.5t62 -24.5q52 0 84.5 35.5t32.5 83.5q0 37 -21.5 61.5t-62.5 24.5q-52 0 -84.5 -35.5t-32.5 -83.5z" />
<glyph unicode="&#x16f;" horiz-adv-x="1085" d="M211 346l119 711h51l-115 -690q-27 -157 51 -249.5t222 -92.5q152 0 266 104.5t143 276.5l109 651h51l-176 -1057h-51l30 190q-59 -99 -161.5 -158t-219.5 -59q-74 0 -137.5 25.5t-109.5 71.5t-66 118t-6 158zM627 1335q0 75 50 124.5t122 49.5q56 0 91.5 -34.5 t35.5 -90.5q0 -76 -49 -125t-123 -49q-56 0 -91.5 34.5t-35.5 90.5zM676 1343q0 -37 22 -61.5t62 -24.5q52 0 84.5 35.5t32.5 83.5q0 37 -21.5 61.5t-62.5 24.5q-52 0 -84.5 -35.5t-32.5 -83.5z" />
<glyph unicode="&#x170;" horiz-adv-x="1359" d="M254 494l158 940h53l-158 -938q-37 -220 60 -344.5t317 -124.5t358 124.5t175 344.5l157 938h53l-157 -940q-40 -246 -194.5 -383.5t-399.5 -137.5q-238 0 -350 141t-72 380zM735 1532l199 287h70l-216 -287h-53zM942 1532l199 287h69l-215 -287h-53z" />
<glyph unicode="&#x171;" horiz-adv-x="1085" d="M211 346l119 711h51l-115 -690q-27 -157 51 -249.5t222 -92.5q152 0 266 104.5t143 276.5l109 651h51l-176 -1057h-51l30 190q-59 -99 -161.5 -158t-219.5 -59q-74 0 -137.5 25.5t-109.5 71.5t-66 118t-6 158zM557 1194l199 287h69l-215 -287h-53zM764 1194l199 287h69 l-215 -287h-53z" />
<glyph unicode="&#x172;" horiz-adv-x="1359" d="M254 494l158 940h53l-158 -938q-37 -220 60 -344.5t317 -124.5t358 124.5t175 344.5l157 938h53l-157 -940q-32 -191 -134 -318t-264 -176q-90 -31 -147 -86t-57 -125q0 -59 43.5 -92t103.5 -33l-8 -51q-81 0 -137 41.5t-56 118.5q0 63 38 116.5t98 87.5q-50 -4 -74 -4 q-238 0 -350 141t-72 380z" />
<glyph unicode="&#x173;" horiz-adv-x="1085" d="M211 346l119 711h51l-115 -690q-27 -157 51 -249.5t222 -92.5q152 0 266 104.5t143 276.5l109 651h51l-176 -1057q-205 -74 -205 -211q0 -59 43.5 -92t103.5 -33l-8 -51q-81 0 -136.5 41.5t-55.5 118.5q0 76 62 142.5t145 92.5l30 182q-59 -99 -161.5 -158t-219.5 -59 q-70 0 -133 24.5t-110.5 69.5t-69 117.5t-6.5 161.5z" />
<glyph unicode="&#x174;" horiz-adv-x="1867" d="M268 1434h54l178 -1352l637 1352h69l191 -1352l624 1352h58l-670 -1434h-55l-193 1366l-647 -1366h-55zM977 1554l233 248h58l151 -248h-53l-131 197l-201 -197h-57z" />
<glyph unicode="&#x175;" horiz-adv-x="1648" d="M190 1057h56l198 -981q2 4 525 981h61l197 -981l524 981h59l-571 -1057h-51l-197 993l-530 -993h-51zM811 1235l233 248h58l151 -248h-53l-131 197l-201 -197h-57z" />
<glyph unicode="&#x176;" horiz-adv-x="995" d="M264 1434h55l299 -693l529 693h63l-571 -744l-115 -690h-53l115 690zM539 1554l233 248h57l152 -248h-53l-131 197l-201 -197h-57z" />
<glyph unicode="&#x177;" horiz-adv-x="983" d="M190 1057h56l258 -1002l581 1002h60l-836 -1424h-59l217 363zM489 1235l234 248h57l152 -248h-53l-131 197l-201 -197h-58z" />
<glyph unicode="&#x178;" horiz-adv-x="995" d="M264 1434h55l299 -693l529 693h63l-571 -744l-115 -690h-53l115 690zM555 1706q0 33 24 55.5t56 22.5q25 0 41 -16.5t16 -41.5q0 -33 -24 -55t-56 -22q-25 0 -41 16t-16 41zM879 1706q0 33 23.5 55.5t55.5 22.5q25 0 41.5 -16.5t16.5 -41.5q0 -33 -24 -55t-56 -22 q-25 0 -41 16t-16 41z" />
<glyph unicode="&#x179;" horiz-adv-x="1200" d="M78 0l8 51l1186 1331h-930l8 52h998l-9 -52l-1183 -1331h964l-8 -51h-1034zM823 1532l199 287h70l-215 -287h-54z" />
<glyph unicode="&#x17a;" horiz-adv-x="937" d="M72 0l8 49l866 959h-680l8 49h748l-8 -49l-867 -959h719l-8 -49h-786zM596 1194l199 287h69l-215 -287h-53z" />
<glyph unicode="&#x17b;" horiz-adv-x="1200" d="M78 0l8 51l1186 1331h-930l8 52h998l-9 -52l-1183 -1331h964l-8 -51h-1034zM819 1659q0 27 23 48.5t51 21.5q24 0 39.5 -16t15.5 -38q0 -29 -23 -50t-53 -21q-23 0 -38 16t-15 39z" />
<glyph unicode="&#x17c;" horiz-adv-x="937" d="M72 0l8 49l866 959h-680l8 49h748l-8 -49l-867 -959h719l-8 -49h-786zM631 1343q0 27 23 48.5t51 21.5q24 0 39.5 -15.5t15.5 -37.5q0 -29 -23 -50.5t-53 -21.5q-23 0 -38 16t-15 39z" />
<glyph unicode="&#x17d;" horiz-adv-x="1200" d="M78 0l8 51l1186 1331h-930l8 52h998l-9 -52l-1183 -1331h964l-8 -51h-1034zM680 1802h51l133 -196l199 196h59l-233 -248h-58z" />
<glyph unicode="&#x17e;" horiz-adv-x="937" d="M72 0l8 49l866 959h-680l8 49h748l-8 -49l-867 -959h719l-8 -49h-786zM494 1483h51l133 -197l199 197h59l-234 -248h-57z" />
<glyph unicode="&#x192;" horiz-adv-x="892" d="M-115 -379l11 49q40 -12 108 -12q100 0 166 70.5t94 234.5l137 815h-163l-2 47h172l51 293q16 91 49.5 157t78 101t91 50.5t98.5 15.5q29 0 57 -4t41 -8l13 -3l-10 -49q-46 13 -103 13q-104 0 -170.5 -70.5t-95.5 -235.5l-47 -260h250l2 -47h-256l-146 -848 q-15 -93 -48 -159t-77 -100t-90 -49t-98 -15q-32 0 -60.5 3.5t-40.5 7.5z" />
<glyph unicode="&#x1fa;" horiz-adv-x="1239" d="M35 0l774 1391q-37 11 -59.5 42t-22.5 76q0 75 52 124.5t124 49.5q56 0 90.5 -33.5t34.5 -90.5q0 -64 -37.5 -109t-97.5 -59l309 -1391h-55l-119 543h-635l-299 -543h-59zM420 592h598l-168 770zM778 1516q0 -35 22 -58.5t60 -23.5q51 0 83 34.5t32 81.5q0 37 -21 60.5 t-59 23.5q-52 0 -84.5 -34.5t-32.5 -83.5zM883 1739l180 274h70l-197 -274h-53z" />
<glyph unicode="&#x1fb;" horiz-adv-x="1015" d="M137 274q0 162 133.5 275t323.5 113q119 0 196.5 -46.5t112.5 -115.5l37 227q24 148 -48.5 226.5t-217.5 78.5q-169 0 -352 -102l-21 45q194 108 381 108q178 0 257.5 -96t51.5 -262l-121 -725h-41l15 147q-55 -72 -149 -123t-216 -51q-157 0 -249.5 85t-92.5 216z M190 285q0 -110 79 -185t218 -75q164 0 280 106t116 244q0 109 -82 172t-215 63q-169 0 -282.5 -96t-113.5 -229zM578 1317q0 75 50 124.5t122 49.5q56 0 91.5 -34.5t35.5 -90.5q0 -76 -49 -125t-123 -49q-56 0 -91.5 34.5t-35.5 90.5zM627 1325q0 -37 22 -61.5t62 -24.5 q52 0 84 35.5t32 83.5q0 37 -21.5 61.5t-62.5 24.5q-52 0 -84 -35.5t-32 -83.5zM719 1552l199 287h69l-215 -287h-53z" />
<glyph unicode="&#x1fc;" horiz-adv-x="1572" d="M16 0l949 1434h702l-8 -52h-576l-104 -622h508l-8 -51h-508l-111 -658h600l-8 -51h-653l90 543h-457l-356 -543h-60zM465 592h432l133 790h-43zM1176 1532l198 287h70l-215 -287h-53z" />
<glyph unicode="&#x1fd;" horiz-adv-x="1898" d="M137 274q0 162 133.5 275t323.5 113q116 0 197 -48t112 -114l37 227q24 148 -48.5 226.5t-217.5 78.5q-155 0 -350 -102l-23 45q71 39 173 73.5t208 34.5q164 0 244 -82.5t69 -226.5q86 148 221 228.5t287 80.5q149 0 251.5 -68.5t143 -185.5t15.5 -264l-6 -37h-951 q-39 -237 71.5 -370t326.5 -133q245 0 426 202l32 -26q-80 -100 -197 -164t-269 -64q-167 0 -279 76.5t-152 212.5q-55 -138 -171.5 -213.5t-264.5 -75.5q-157 0 -249.5 85t-92.5 216zM190 285q0 -110 79 -185t218 -75q165 0 280.5 103.5t115.5 240.5q0 109 -82.5 175 t-214.5 66q-169 0 -282.5 -96t-113.5 -229zM967 578h895q13 110 -11.5 198t-77.5 143t-124.5 84t-155.5 29q-172 0 -323 -122.5t-203 -331.5zM1047 1194l198 287h70l-215 -287h-53z" />
<glyph unicode="&#x1fe;" horiz-adv-x="1617" d="M201 606q0 175 71 334.5t188 272.5t272 180t319 67q239 0 403 -151l150 157l34 -34l-147 -156q79 -86 122.5 -201.5t43.5 -247.5q0 -176 -71 -336t-188.5 -272.5t-272.5 -179t-318 -66.5q-243 0 -408 152l-147 -154l-37 31l150 158q-164 175 -164 446zM256 608 q0 -252 145 -409l1016 1071q-150 137 -373 137q-206 0 -387 -105t-291 -290t-110 -404zM436 164q153 -137 377 -137q155 0 299.5 61.5t252 166t172.5 253t65 313.5q0 123 -39.5 229.5t-110.5 184.5zM1008 1532l198 287h70l-215 -287h-53z" />
<glyph unicode="&#x1ff;" horiz-adv-x="1245" d="M166 444q0 130 51 248.5t136.5 204t202.5 136t245 50.5q183 0 303 -108l102 108l35 -32l-104 -109q120 -133 120 -330q0 -174 -86 -321.5t-232 -232.5t-316 -85q-181 0 -304 107l-104 -109l-35 31l107 111q-121 130 -121 331zM219 451q0 -180 105 -297l741 780 q-112 98 -270 98q-116 0 -222.5 -47t-184 -125t-123.5 -185.5t-46 -223.5zM356 121q110 -96 271 -96q155 0 287.5 79t210 213t77.5 289q0 179 -104 295zM752 1194l198 287h70l-215 -287h-53z" />
<glyph unicode="&#x218;" horiz-adv-x="1009" d="M137 270l56 15q7 -50 26 -92t55 -81.5t99 -62t147 -22.5q163 0 279 103t116 263q0 75 -33 135t-85.5 100t-116 75l-127 70t-116 75t-85.5 100t-33 135q0 74 29 142t82 120.5t135.5 83.5t182.5 31q64 0 117 -16t86.5 -39.5t61 -58t41.5 -62t27 -61.5l-51 -21 q-10 35 -28 66.5t-50 65t-86 53.5t-123 20q-166 0 -267 -93t-101 -229q0 -53 20.5 -97.5t55 -76.5t79.5 -60.5t94.5 -54t99 -52t94.5 -59.5t79.5 -71.5t55 -92.5t20.5 -118q0 -184 -129.5 -307t-331.5 -123q-88 0 -157.5 24t-113 66.5t-69 94t-35.5 112.5zM389 -324 q83 71 98 123q-26 0 -42.5 15.5t-16.5 40.5q0 27 21.5 48t48.5 21q26 0 39.5 -16t13.5 -41q0 -58 -39.5 -118.5t-93.5 -104.5z" />
<glyph unicode="&#x219;" horiz-adv-x="823" d="M119 225l51 13q7 -90 69.5 -151.5t190.5 -61.5q74 0 142.5 32t114.5 96t46 144q0 55 -26 98t-68 71t-93 52t-101.5 48t-92.5 53t-68 73.5t-26 102.5q0 130 97.5 209t238.5 79q55 0 100 -13.5t74.5 -35t51 -49.5t31 -55t11.5 -53l-47 -15q-28 170 -229 170 q-113 0 -193 -64t-80 -169q0 -50 26 -88.5t68 -64t92.5 -48.5t100.5 -48t92 -55.5t68 -78.5t26 -109q0 -144 -105 -239t-261 -95q-77 0 -136 23t-92.5 61.5t-51 80t-21.5 87.5zM299 -324q83 71 98 123q-26 0 -42.5 15.5t-16.5 40.5q0 27 21.5 48t48.5 21q26 0 39.5 -16 t13.5 -41q0 -58 -39.5 -118.5t-93.5 -104.5z" />
<glyph unicode="&#x21a;" d="M279 1382l8 52h917l-8 -52h-432l-232 -1382h-51l232 1382h-434zM377 -324q83 71 98 123q-26 0 -42.5 15.5t-16.5 40.5q0 27 21 48t48 21q26 0 40 -16t14 -41q0 -58 -39.5 -118.5t-93.5 -104.5z" />
<glyph unicode="&#x21b;" horiz-adv-x="555" d="M207 1010l8 47h135l37 221h53l-37 -221h265l-9 -47h-264l-108 -650q-29 -174 7 -247.5t165 -73.5q21 0 49 4l-8 -49q-17 -6 -68 -6q-126 0 -179.5 84t-27.5 243l117 695h-135zM209 -324q83 71 98 123q-26 0 -42.5 15.5t-16.5 40.5q0 27 21 48t48 21q26 0 40 -16t14 -41 q0 -58 -39.5 -118.5t-93.5 -104.5z" />
<glyph unicode="&#x237;" horiz-adv-x="382" d="M-152 -387l9 51q25 -2 45 -2q103 0 166.5 68t87.5 213l186 1114h51l-186 -1108q-56 -338 -316 -338z" />
<glyph unicode="&#x2c6;" horiz-adv-x="933" d="M453 1235l233 248h57l152 -248h-53l-131 197l-201 -197h-57z" />
<glyph unicode="&#x2c7;" horiz-adv-x="933" d="M494 1483h51l133 -197l199 197h59l-234 -248h-57z" />
<glyph unicode="&#x2d8;" horiz-adv-x="937" d="M500 1440h47q-14 -79 20.5 -125.5t114.5 -46.5q76 0 126 47t64 125h50q-16 -97 -79 -159t-169 -62q-101 0 -145.5 63t-28.5 158z" />
<glyph unicode="&#x2d9;" horiz-adv-x="937" d="M631 1343q0 27 23 48.5t51 21.5q24 0 39.5 -15.5t15.5 -37.5q0 -29 -23 -50.5t-53 -21.5q-23 0 -38 16t-15 39z" />
<glyph unicode="&#x2da;" horiz-adv-x="937" d="M547 1335q0 75 50 124.5t122 49.5q56 0 91.5 -34.5t35.5 -90.5q0 -76 -49 -125t-123 -49q-56 0 -91.5 34.5t-35.5 90.5zM596 1343q0 -37 22 -61.5t62 -24.5q52 0 84.5 35.5t32.5 83.5q0 37 -21.5 61.5t-62.5 24.5q-52 0 -84.5 -35.5t-32.5 -83.5z" />
<glyph unicode="&#x2db;" horiz-adv-x="933" d="M319 -227q0 75 53.5 136t131.5 91h74q-87 -29 -146 -84.5t-59 -126.5q0 -59 43.5 -92t103.5 -33l-8 -51q-81 0 -137 41.5t-56 118.5z" />
<glyph unicode="&#x2dc;" horiz-adv-x="935" d="M393 1264q12 72 60.5 114.5t115.5 42.5q36 0 71.5 -17t59.5 -37t57 -37t66 -17q41 0 74.5 30t40.5 76h53q-12 -72 -60.5 -114.5t-115.5 -42.5q-36 0 -71.5 17t-59.5 37t-57 37t-66 17q-41 0 -74.5 -30t-40.5 -76h-53z" />
<glyph unicode="&#x2dd;" horiz-adv-x="923" d="M449 1194l198 287h70l-215 -287h-53zM655 1194l199 287h70l-215 -287h-54z" />
<glyph unicode="&#x1e80;" horiz-adv-x="1867" d="M268 1434h54l178 -1352l637 1352h69l191 -1352l624 1352h58l-670 -1434h-55l-193 1366l-647 -1366h-55zM1071 1819h64l104 -287h-45z" />
<glyph unicode="&#x1e81;" horiz-adv-x="1648" d="M190 1057h56l198 -981q2 4 525 981h61l197 -981l524 981h59l-571 -1057h-51l-197 993l-530 -993h-51zM965 1481h63l105 -287h-46z" />
<glyph unicode="&#x1e82;" horiz-adv-x="1867" d="M268 1434h54l178 -1352l637 1352h69l191 -1352l624 1352h58l-670 -1434h-55l-193 1366l-647 -1366h-55zM1137 1532l198 287h70l-215 -287h-53z" />
<glyph unicode="&#x1e83;" horiz-adv-x="1648" d="M190 1057h56l198 -981q2 4 525 981h61l197 -981l524 981h59l-571 -1057h-51l-197 993l-530 -993h-51zM965 1194l198 287h70l-215 -287h-53z" />
<glyph unicode="&#x1e84;" horiz-adv-x="1867" d="M268 1434h54l178 -1352l637 1352h69l191 -1352l624 1352h58l-670 -1434h-55l-193 1366l-647 -1366h-55zM981 1653q0 33 24 55.5t56 22.5q25 0 41 -16.5t16 -41.5q0 -33 -24 -55.5t-56 -22.5q-25 0 -41 16.5t-16 41.5zM1305 1653q0 33 23.5 55.5t55.5 22.5 q25 0 41.5 -16.5t16.5 -41.5q0 -33 -24 -55.5t-56 -22.5q-25 0 -41 16.5t-16 41.5z" />
<glyph unicode="&#x1e85;" horiz-adv-x="1648" d="M190 1057h56l198 -981q2 4 525 981h61l197 -981l524 981h59l-571 -1057h-51l-197 993l-530 -993h-51zM815 1327q0 33 24 55.5t56 22.5q25 0 41 -16t16 -41q0 -33 -24 -55.5t-56 -22.5q-25 0 -41 16t-16 41zM1139 1327q0 33 24 55.5t56 22.5q25 0 41 -16t16 -41 q0 -33 -24 -55.5t-56 -22.5q-25 0 -41 16t-16 41z" />
<glyph unicode="&#x1ef2;" horiz-adv-x="995" d="M264 1434h55l299 -693l529 693h63l-571 -744l-115 -690h-53l115 690zM643 1819h64l104 -287h-45z" />
<glyph unicode="&#x1ef3;" horiz-adv-x="983" d="M190 1057h56l258 -1002l581 1002h60l-836 -1424h-59l217 363zM582 1481h63l105 -287h-45z" />
<glyph unicode="&#x2000;" horiz-adv-x="1006" />
<glyph unicode="&#x2001;" horiz-adv-x="2013" />
<glyph unicode="&#x2002;" horiz-adv-x="1006" />
<glyph unicode="&#x2003;" horiz-adv-x="2013" />
<glyph unicode="&#x2004;" horiz-adv-x="671" />
<glyph unicode="&#x2005;" horiz-adv-x="503" />
<glyph unicode="&#x2006;" horiz-adv-x="335" />
<glyph unicode="&#x2007;" horiz-adv-x="335" />
<glyph unicode="&#x2008;" horiz-adv-x="251" />
<glyph unicode="&#x2009;" horiz-adv-x="402" />
<glyph unicode="&#x200a;" horiz-adv-x="111" />
<glyph unicode="&#x2010;" horiz-adv-x="634" d="M176 588l8 47h478l-9 -47h-477z" />
<glyph unicode="&#x2011;" horiz-adv-x="634" d="M176 588l8 47h478l-9 -47h-477z" />
<glyph unicode="&#x2012;" horiz-adv-x="634" d="M176 588l8 47h478l-9 -47h-477z" />
<glyph unicode="&#x2013;" horiz-adv-x="1140" d="M178 584l8 47h983l-8 -47h-983z" />
<glyph unicode="&#x2014;" horiz-adv-x="1675" d="M178 584l8 47h1518l-8 -47h-1518z" />
<glyph unicode="&#x2018;" horiz-adv-x="303" d="M293 1214q0 113 133 224l29 -33q-82 -70 -99 -125q23 0 41.5 -14.5t18.5 -38.5q0 -28 -21 -49t-49 -21q-25 0 -39 16.5t-14 40.5z" />
<glyph unicode="&#x2019;" horiz-adv-x="303" d="M287 1190q80 68 98 125q-23 0 -41 14.5t-18 38.5q0 28 20.5 49t48.5 21q25 0 39.5 -17t14.5 -41q0 -111 -134 -223z" />
<glyph unicode="&#x201a;" horiz-adv-x="397" d="M94 -152q82 70 99 125q-23 0 -41.5 15t-18.5 39q0 28 21 48.5t49 20.5q25 0 39 -16.5t14 -40.5q0 -112 -133 -223z" />
<glyph unicode="&#x201c;" horiz-adv-x="507" d="M293 1214q0 113 133 224l29 -33q-82 -70 -99 -125q23 0 41.5 -14.5t18.5 -38.5q0 -28 -21 -49t-49 -21q-25 0 -39 16.5t-14 40.5zM496 1214q0 113 133 224l28 -33q-80 -68 -98 -125q23 0 41 -14.5t18 -38.5q0 -28 -20.5 -49t-48.5 -21q-25 0 -39 16.5t-14 40.5z" />
<glyph unicode="&#x201d;" horiz-adv-x="507" d="M287 1190q80 68 98 125q-23 0 -41 14.5t-18 38.5q0 28 20.5 49t48.5 21q25 0 39.5 -17t14.5 -41q0 -111 -134 -223zM489 1190q82 70 99 125q-23 0 -41.5 14.5t-18.5 38.5q0 28 21 49t49 21q25 0 39 -16.5t14 -41.5q0 -112 -133 -223z" />
<glyph unicode="&#x201e;" horiz-adv-x="569" d="M63 -152q82 70 99 125q-23 0 -41.5 15t-18.5 39q0 28 21 48.5t49 20.5q25 0 39 -16.5t14 -40.5q0 -112 -133 -223zM266 -152q82 70 99 125q-23 0 -41.5 15t-18.5 39q0 28 21 48.5t49 20.5q25 0 39 -16.5t14 -40.5q0 -112 -133 -223z" />
<glyph unicode="&#x2020;" horiz-adv-x="673" d="M250 1012l8 47h231l62 375h51l-61 -375h239l-8 -47h-240l-170 -1012h-51l170 1012h-231z" />
<glyph unicode="&#x2021;" horiz-adv-x="673" d="M152 428l8 47h231l80 483h-231l8 48h231l72 428h51l-72 -428h240l-8 -48h-240l-80 -483h240l-8 -47h-240l-72 -428h-51l72 428h-231z" />
<glyph unicode="&#x2022;" horiz-adv-x="831" d="M164 584q0 164 123.5 283.5t292.5 119.5q133 0 216 -86.5t83 -214.5q0 -164 -123.5 -283.5t-292.5 -119.5q-134 0 -216.5 86t-82.5 215z" />
<glyph unicode="&#x202f;" horiz-adv-x="402" />
<glyph unicode="&#x2030;" horiz-adv-x="2160" d="M145 0l1340 1434h71l-1339 -1434h-72zM301 1126q0 135 97.5 234.5t234.5 99.5q108 0 176 -71.5t68 -176.5q0 -135 -97.5 -234t-234.5 -99q-108 0 -176 71t-68 176zM356 1133q0 -88 52.5 -145.5t140.5 -57.5q113 0 192.5 81.5t79.5 194.5q0 88 -52.5 145.5t-139.5 57.5 q-113 0 -193 -81.5t-80 -194.5zM825 221q0 135 97.5 234.5t234.5 99.5q108 0 176 -71.5t68 -176.5q0 -135 -97.5 -234.5t-234.5 -99.5q-108 0 -176 71.5t-68 176.5zM881 227q0 -88 52 -145t140 -57q113 0 193 81.5t80 194.5q0 88 -52.5 145.5t-140.5 57.5q-113 0 -192.5 -82 t-79.5 -195zM1524 221q0 135 97 234.5t234 99.5q108 0 176 -71.5t68 -176.5q0 -135 -97.5 -234.5t-234.5 -99.5q-108 0 -175.5 71.5t-67.5 176.5zM1579 227q0 -88 52.5 -145t140.5 -57q113 0 192.5 81.5t79.5 194.5q0 88 -52.5 145.5t-140.5 57.5q-113 0 -192.5 -82 t-79.5 -195z" />
<glyph unicode="&#x2039;" horiz-adv-x="493" d="M182 594l318 371h61l-319 -379l188 -363h-53z" />
<glyph unicode="&#x203a;" horiz-adv-x="493" d="M111 223l319 379l-188 363h53l194 -371l-317 -371h-61z" />
<glyph unicode="&#x2044;" horiz-adv-x="829" d="M-41 -84l1094 1602h59l-1094 -1602h-59z" />
<glyph unicode="&#x205f;" horiz-adv-x="503" />
<glyph unicode="&#x20ac;" horiz-adv-x="1253" d="M158 557l8 49h117q0 127 43 246h-119l8 49h127q47 113 122.5 213.5t172.5 178t217.5 122.5t247.5 45q189 0 299 -84l-31 -43q-111 76 -276 76q-217 0 -411.5 -145.5t-287.5 -362.5h672l-12 -49h-676q-42 -110 -45 -246h661l-12 -49h-647q8 -146 70 -264.5t180.5 -192 t275.5 -73.5q180 0 324 90l28 -39q-161 -105 -352 -105q-167 0 -298 79t-203 211t-78 294h-125z" />
<glyph unicode="&#x2116;" horiz-adv-x="2306" d="M184 0l240 1434h47l735 -1344l224 1344h51l-240 -1434h-51l-729 1348l-225 -1348h-52zM1567 541l8 49h655l-8 -49h-655zM1638 1055q0 164 117 284.5t289 120.5q136 0 216.5 -85.5t80.5 -213.5q0 -108 -52 -201t-146 -149.5t-208 -56.5q-134 0 -215.5 86t-81.5 215z M1686 1063q0 -112 69.5 -186t183.5 -74q145 0 250 104t105 244q0 111 -69.5 185.5t-184.5 74.5q-144 0 -249 -104t-105 -244z" />
<glyph unicode="&#x2122;" horiz-adv-x="1402" d="M299 1389l8 45h449l-8 -45h-201l-115 -691h-47l115 691h-201zM731 698l123 736h43l215 -588l412 588h51l-123 -736h-45l109 658l-394 -563h-32l-205 563l-109 -658h-45z" />
<glyph unicode="&#x2212;" horiz-adv-x="1124" d="M190 614l9 48h948l-8 -48h-949z" />
<glyph unicode="&#x25fc;" horiz-adv-x="1054" d="M0 0v1055h1055v-1055h-1055z" />
<glyph unicode="&#xf6c3;" horiz-adv-x="354" d="M57 -324q84 72 99 123q-26 0 -43 15.5t-17 40.5q0 27 21.5 48t48.5 21q26 0 39.5 -16t13.5 -41q0 -58 -39.5 -118.5t-93.5 -104.5z" />
<glyph horiz-adv-x="634" d="M195 700l8 48h477l-8 -48h-477z" />
<glyph horiz-adv-x="1140" d="M197 700l8 48h983l-8 -48h-983z" />
<glyph horiz-adv-x="1675" d="M197 700l8 48h1517l-8 -48h-1517z" />
<glyph horiz-adv-x="761" d="M205 731l317 371h62l-320 -379l189 -363h-54zM473 731l318 371h61l-320 -379l189 -363h-53z" />
<glyph horiz-adv-x="761" d="M133 360l320 379l-189 363h53l195 -371l-317 -371h-62zM401 360l320 379l-189 363h54l194 -371l-317 -371h-62z" />
<glyph horiz-adv-x="493" d="M205 731l317 371h62l-320 -379l189 -363h-54z" />
<glyph horiz-adv-x="493" d="M133 360l320 379l-189 363h53l195 -371l-317 -371h-62z" />
<glyph horiz-adv-x="548" d="M182 27l224 1339q20 121 82 176t149 55h27l-9 -51h-28q-68 0 -111 -48.5t-57 -135.5l-223 -1331q-29 -185 106 -185h29l-9 -51h-26q-84 0 -129 56t-25 176z" />
<glyph horiz-adv-x="548" d="M117 -205l8 51h29q68 0 111 48.5t57 136.5l223 1331q14 88 -12.5 136t-94.5 48h-28l8 51h26q79 0 126.5 -56t27.5 -175l-223 -1339q-20 -120 -84 -176t-148 -56h-26z" />
<glyph horiz-adv-x="548" d="M143 -205l301 1802h220l-9 -51h-166l-284 -1700h166l-9 -51h-219z" />
<glyph horiz-adv-x="536" d="M117 -205l8 51h166l284 1700h-165l8 51h219l-301 -1802h-219z" />
<glyph horiz-adv-x="608" d="M203 672l8 49q76 0 120.5 52t63.5 163l72 430q20 120 83.5 175.5t147.5 55.5h27l-8 -51h-29q-68 0 -111 -48.5t-57 -135.5l-71 -426q-31 -184 -154 -240q9 -5 15 -8.5t17.5 -14t18.5 -21t15.5 -30t11.5 -41.5t2.5 -54.5t-6.5 -69.5l-72 -426q-14 -88 12 -136.5t94 -48.5 h29l-8 -51h-27q-83 0 -128 56t-25 176l71 430q19 110 -8.5 162.5t-103.5 52.5z" />
<glyph horiz-adv-x="458" d="M154 -291l323 1929h53l-323 -1929h-53z" />
<glyph horiz-adv-x="608" d="M117 -205l8 51h29q68 0 111 48.5t57 136.5l71 426q9 52 25 93.5t32 65t37.5 42t33.5 25t28 13.5q-9 5 -15.5 9t-18 14t-19.5 21t-16 30t-11.5 41.5t-2.5 54.5t7 70l72 426q14 88 -12.5 136t-94.5 48h-28l8 51h26q84 0 129 -55.5t25 -175.5l-72 -430q-37 -215 115 -215 l-8 -49q-77 0 -122.5 -52.5t-64.5 -162.5l-71 -430q-20 -120 -84 -176t-148 -56h-26z" />
<glyph horiz-adv-x="823" d="M43 -166l920 1757h55l-920 -1757h-55z" />
<glyph horiz-adv-x="823" d="M338 1591h55l330 -1757h-55z" />
<glyph horiz-adv-x="466" d="M207 0l190 1116h43l-182 -1116h-51zM406 1391q0 28 20.5 48.5t50.5 20.5q24 0 38.5 -15.5t14.5 -37.5q0 -28 -21.5 -49t-51.5 -21q-24 0 -37.5 15.5t-13.5 38.5z" />
<glyph horiz-adv-x="929" d="M154 285q0 83 25.5 155t67.5 124t93 98t104 87.5t98.5 81.5t79 89.5t42.5 103.5l16 92h51l-16 -92q-11 -62 -45.5 -117t-79.5 -97t-97.5 -83.5t-103 -85.5t-91.5 -92.5t-66 -114t-25 -141.5q0 -119 73.5 -193.5t198.5 -74.5q207 0 340 206l45 -20q-27 -43 -60 -81 t-81 -75.5t-112.5 -59.5t-137.5 -22q-144 0 -231.5 89.5t-87.5 222.5zM684 1391q0 28 21 48.5t51 20.5q24 0 37.5 -15t13.5 -38q0 -28 -21 -49t-51 -21q-24 0 -37.5 15.5t-13.5 38.5z" />
<glyph horiz-adv-x="419" d="M268 719q0 28 21 48.5t51 20.5q24 0 38.5 -15.5t14.5 -37.5q0 -28 -21.5 -48.5t-52.5 -20.5q-24 0 -37.5 15t-13.5 38z" />
<glyph horiz-adv-x="831" d="M180 674q0 107 57 200.5t153 148t206 54.5q134 0 216.5 -86t82.5 -215q0 -164 -123.5 -283.5t-292.5 -119.5q-134 0 -216.5 86t-82.5 215z" />
<glyph horiz-adv-x="1095" d="M206.5 323.5q-4.5 86.5 3 180.5t26.5 213q23 146 50 253t70 204t100 157t139 94.5t187 34.5t177.5 -34.5t111.5 -95.5t53.5 -156.5t8.5 -204t-29 -252.5q-24 -146 -51.5 -253t-71 -204t-100 -157t-139 -95t-187.5 -35q-88 0 -153 23t-105.5 69.5t-63 109t-27 149z M254.5 374q0.5 -46 7 -96t20.5 -85.5t37.5 -69t56.5 -54t79 -32.5t104 -12t108 12.5t89.5 33t73.5 54t59.5 69.5t48 86t38 96t30 108t24.5 113.5t21 119.5q12 78 19 136t12 126.5t0.5 118.5t-15 102t-33.5 87.5t-56.5 64.5t-84 43t-115.5 14q-74 0 -135 -20t-106 -53 t-81.5 -86.5t-61 -107.5t-45.5 -130.5t-33.5 -141t-26.5 -153.5q-11 -68 -18 -120.5t-12 -114.5t-4.5 -108z" />
<glyph horiz-adv-x="1095" d="M221 0l8 51h328l221 1321l-348 -145l-14 47l385 160h39l-232 -1383h291l-8 -51h-670z" />
<glyph horiz-adv-x="1095" d="M145 0l5 29q12 83 68.5 164.5t137.5 151t176 139.5t188 142t169 147.5t123 167.5t47 189q0 122 -74.5 200.5t-210.5 78.5q-140 0 -234 -79t-141 -197l-47 14q10 33 30.5 70.5t58 81.5t83.5 79t113 58.5t141 23.5q159 0 246.5 -93t87.5 -228q0 -81 -29 -159.5t-79 -144 t-114.5 -129t-137 -120.5t-145.5 -111.5t-141 -107.5t-122.5 -103.5t-91 -106t-45.5 -108.5h751l-8 -49h-805z" />
<glyph horiz-adv-x="1095" d="M168 258l47 16q57 -249 338 -249q113 0 213 54.5t161.5 154.5t61.5 221q0 141 -88 224t-250 83h-104l8 45l541 575h-697l9 52h761l-8 -54l-538 -567h36q173 0 279 -89.5t106 -258.5q0 -136 -68.5 -250t-182.5 -178t-246 -64q-308 0 -379 285z" />
<glyph horiz-adv-x="1095" d="M137 389l8 47l867 998h41l-166 -996h205l-9 -49h-204l-66 -389h-51l65 389h-690zM207 438h629l149 893z" />
<glyph horiz-adv-x="1095" d="M166 262l47 17q50 -252 322 -252q127 0 230 66t158.5 174t55.5 233q0 149 -82.5 243.5t-226.5 94.5q-176 0 -322 -125l-39 14l146 707h659l-8 -48h-614l-127 -606q142 107 313 107q109 0 191 -52t123.5 -137.5t41.5 -191.5q0 -140 -65.5 -261.5t-182.5 -195.5t-258 -74 q-85 0 -151 24t-107.5 66.5t-66 90.5t-37.5 106z" />
<glyph horiz-adv-x="1095" d="M201 420q0 108 10.5 212t33.5 208t57.5 195t86.5 169.5t116.5 135t150 88.5t184.5 32q174 0 297 -110l-39 -37q-114 96 -267 96q-108 0 -198 -46t-151.5 -120t-107.5 -174t-70.5 -201.5t-35.5 -210.5q75 112 185 181t254 69q114 0 195.5 -52t119 -134t37.5 -184 q0 -248 -139 -406t-369 -158q-78 0 -139 24.5t-100 66t-64.5 100t-36 121t-10.5 135.5zM264 582q-67 -557 295 -557q91 0 172 34.5t142.5 97t97 159t35.5 212.5q0 144 -79.5 236t-228.5 92q-130 0 -244.5 -76.5t-189.5 -197.5z" />
<glyph horiz-adv-x="1095" d="M350 0l793 1382h-785l9 52h839l-8 -52l-790 -1382h-58z" />
<glyph horiz-adv-x="1095" d="M168 326q0 83 27 155.5t67.5 121.5t93 87t99 58t88.5 28q-29 12 -59.5 33t-62 54.5t-51.5 84t-20 109.5q0 118 61 211t161.5 142.5t218.5 49.5q142 0 233.5 -83t91.5 -220q0 -66 -22 -125t-54.5 -100.5t-74.5 -75.5t-78 -53t-70 -31q38 -9 77 -33t77 -62.5t62 -98 t24 -129.5q0 -204 -147 -340t-363 -136q-167 0 -273 99.5t-106 253.5zM221 334q0 -130 87 -219.5t245 -89.5q100 0 186 35.5t143 93.5t89.5 132.5t32.5 153.5q0 142 -93 222.5t-239 80.5q-119 0 -220.5 -47.5t-166 -142.5t-64.5 -219zM403 1065q0 -113 78.5 -191.5 t200.5 -78.5q150 0 265.5 107t115.5 247q0 113 -72.5 187.5t-206.5 74.5q-86 0 -159 -29.5t-120.5 -78.5t-74.5 -110.5t-27 -127.5z" />
<glyph horiz-adv-x="1095" d="M199 84l39 37q114 -96 266 -96q108 0 198 46t151.5 119.5t107.5 174t70.5 201.5t35.5 210q-75 -112 -184.5 -181t-253.5 -69q-114 0 -196 52.5t-119.5 134.5t-37.5 184q0 248 139 405.5t369 157.5q97 0 167.5 -36.5t109 -101t56.5 -140.5t18 -168q0 -153 -20.5 -296.5 t-68.5 -280.5t-119.5 -238.5t-182.5 -163.5t-248 -62q-172 0 -297 111zM330 905q0 -144 79 -235.5t228 -91.5q130 0 244.5 76.5t189.5 197.5q67 557 -295 557q-189 0 -317.5 -136.5t-128.5 -367.5z" />
<glyph d="M279 1382l8 52h917l-8 -52h-432l-232 -1382l-45 -137q70 0 111 -35.5t41 -87.5q0 -98 -67 -143.5t-166 -45.5l-58 5l14 47q32 -4 58 -4q70 0 118 32t48 99q0 44 -34 67t-95 23h-25l49 180l232 1382h-434z" />
<glyph horiz-adv-x="555" d="M205 -444l14 47q32 -4 57 -4q70 0 118 32t48 99q0 44 -34 67t-95 23h-24l55 198h49l-49 -155q70 0 111 -35.5t41 -87.5q0 -98 -67.5 -143.5t-166.5 -45.5zM207 1010l8 47h135l37 221h53l-37 -221h265l-9 -47h-264l-108 -650q-29 -174 7 -247.5t165 -73.5q21 0 49 4 l-8 -49q-17 -6 -68 -6q-126 0 -179.5 84t-27.5 243l117 695h-135z" />
</font>
</defs>
</svg>
