<?xml version="1.0" standalone="no"?>
<!DOCTYPE svg PUBLIC "-//W3C//DTD SVG 1.1//EN" "http://www.w3.org/Graphics/SVG/1.1/DTD/svg11.dtd" >
<svg xmlns="http://www.w3.org/2000/svg">
<metadata></metadata>
<defs>
<font id="geomanistitalic" horiz-adv-x="577" >
<font-face units-per-em="2048" ascent="1536" descent="-512" />
<missing-glyph horiz-adv-x="409" />
<glyph unicode="&#x2e;&#x2e;&#x2e;" horiz-adv-x="1839" d="M84 168q0 105 81 182.5t191 77.5q88 0 142.5 -56t54.5 -141q0 -104 -81 -181t-191 -77q-87 0 -142 56.5t-55 138.5zM719 168q0 105 81 182.5t191 77.5q88 0 142.5 -56t54.5 -141q0 -104 -81.5 -181t-191.5 -77q-87 0 -141.5 56.5t-54.5 138.5zM1354 168q0 105 81 182.5 t191 77.5q88 0 142.5 -56t54.5 -141q0 -104 -81.5 -181t-191.5 -77q-87 0 -141.5 56.5t-54.5 138.5z" />
<glyph unicode=" "  horiz-adv-x="409" />
<glyph unicode="&#x09;" horiz-adv-x="409" />
<glyph unicode="&#xa0;" horiz-adv-x="409" />
<glyph unicode="!" horiz-adv-x="671" d="M135 168q0 104 81.5 182t191.5 78q88 0 142 -56t54 -141q0 -104 -81 -181t-191 -77q-87 0 -142 56.5t-55 138.5zM233 465l132 969h421l-192 -969h-361z" />
<glyph unicode="&#x22;" horiz-adv-x="911" d="M238 874l84 560h313l-105 -560h-292zM674 874l84 560h313l-104 -560h-293z" />
<glyph unicode="#" horiz-adv-x="1396" d="M102 338l107 287h172l68 182h-170l108 287h172l129 340h326l-129 -340h166l131 340h325l-131 -340h160l-109 -287h-159l-70 -182h160l-107 -287h-159l-129 -338h-326l129 338h-168l-129 -338h-326l129 338h-170zM707 625h165l70 182h-170z" />
<glyph unicode="$" horiz-adv-x="1118" d="M78 322l368 167q23 -59 70.5 -100t101.5 -41q51 0 77 20.5t26 51.5q0 26 -27 49.5t-70 45.5t-95.5 47.5t-105 60.5t-95.5 78t-70 108t-27 143q0 199 128.5 334t340.5 166l21 117h229l-20 -121q65 -14 117.5 -45t84.5 -66.5t55.5 -79.5t34.5 -77.5t17 -67.5l-365 -151 q-9 30 -16 47t-22.5 39.5t-40.5 33.5t-60 11q-40 0 -65 -21t-25 -53q0 -29 27.5 -54t71.5 -47t97 -46.5t106 -58t97 -74t71.5 -102t27.5 -136.5q0 -188 -123 -329.5t-334 -182.5l-29 -164h-229l27 153q-76 14 -139 45.5t-103 68t-70 81t-44 80.5t-21 70z" />
<glyph unicode="%" horiz-adv-x="1769" d="M145 0l1340 1434h379l-1340 -1434h-379zM213 1042q0 171 133.5 294.5t315.5 123.5q151 0 242 -89t91 -224q0 -173 -132 -293.5t-320 -120.5q-149 0 -239.5 87t-90.5 222zM508 1083q0 -35 23 -58.5t57 -23.5q51 0 81.5 32t30.5 77q0 33 -21.5 55.5t-57.5 22.5 q-48 0 -80.5 -32t-32.5 -73zM1010 285q0 170 133.5 292.5t316.5 122.5q150 0 242 -89.5t92 -225.5q0 -111 -61.5 -206.5t-166 -150.5t-225.5 -55q-150 0 -240.5 88t-90.5 224zM1307 324q0 -34 21 -57t56 -23q48 0 81.5 32t33.5 74q0 34 -23 57t-59 23q-48 0 -79 -31.5 t-31 -74.5z" />
<glyph unicode="&#x26;" horiz-adv-x="1421" d="M104 377q0 290 312 461q-54 98 -54 194q0 186 146.5 307t372.5 121q191 0 294 -92.5t103 -241.5q0 -250 -281 -419l82 -97q19 37 25 78h369q-31 -189 -177 -358l117 -154l-301 -239l-121 149q-172 -113 -387 -113q-232 0 -366 113t-134 291zM516 446q0 -59 41 -91.5 t100 -32.5q76 0 125 34l-182 232q-84 -55 -84 -142zM721 1042q0 -65 80 -135q121 80 121 164q0 35 -24 57.5t-67 22.5q-44 0 -77 -32.5t-33 -76.5z" />
<glyph unicode="'" horiz-adv-x="477" d="M238 874l84 560h313l-105 -560h-292z" />
<glyph unicode="(" horiz-adv-x="753" d="M72 102l184 1100q40 246 218.5 376t447.5 130l-58 -336q-188 0 -217 -170l-184 -1100q-26 -170 162 -170l-58 -335q-263 0 -399 130t-96 375z" />
<glyph unicode=")" horiz-adv-x="755" d="M51 -403l55 335q192 0 218 170l184 1100q29 170 -160 170l58 336q263 0 398 -130.5t95 -375.5l-184 -1100q-27 -164 -121 -279.5t-232 -170.5t-311 -55z" />
<glyph unicode="*" horiz-adv-x="917" d="M211 971l168 80l-141 77l165 213l140 -77l28 170h258l-28 -170l162 77l92 -213l-162 -79l137 -76l-164 -215l-137 82l-29 -174h-258l29 172l-164 -80z" />
<glyph unicode="+" horiz-adv-x="1150" d="M152 485l51 308h340l59 354h328l-60 -354h342l-51 -308h-342l-59 -356h-328l60 356h-340z" />
<glyph unicode="," horiz-adv-x="571" d="M39 -205q56 33 112.5 85.5t77.5 96.5q-71 18 -109 71.5t-38 119.5q0 105 82.5 182.5t191.5 77.5q88 0 143.5 -53t55.5 -150q0 -162 -110 -329.5t-283 -268.5z" />
<glyph unicode="-" horiz-adv-x="829" d="M176 455l57 348h627l-57 -348h-627z" />
<glyph unicode="." horiz-adv-x="571" d="M84 168q0 105 81 182.5t191 77.5q88 0 142.5 -56t54.5 -141q0 -104 -81 -181t-191 -77q-87 0 -142 56.5t-55 138.5z" />
<glyph unicode="/" horiz-adv-x="997" d="M-16 -221l909 1757h342l-909 -1757h-342z" />
<glyph unicode="0" horiz-adv-x="1245" d="M209 717q59 380 216.5 561.5t432.5 181.5q274 0 374.5 -181.5t41.5 -561.5q-62 -381 -219.5 -562.5t-431.5 -181.5q-276 0 -376 181.5t-38 562.5zM600.5 428q13.5 -82 81.5 -82t107 81t73 290q22 141 23 220t-19 114.5t-67 35.5q-67 0 -106.5 -81.5t-71.5 -288.5 q-34 -207 -20.5 -289z" />
<glyph unicode="1" horiz-adv-x="768" d="M236 1339l313 95h334l-240 -1434h-403l174 1044l-142 -36z" />
<glyph unicode="2" horiz-adv-x="1187" d="M84 0l22 131q15 88 56.5 170.5t96.5 145.5t121.5 123t132.5 106t128 92t109.5 83.5t76.5 78.5t29 78q0 38 -29 62t-75 24q-55 0 -97.5 -32.5t-68.5 -86.5l-336 102q18 51 48.5 101.5t80 102.5t110.5 91t146.5 63.5t181.5 24.5q199 0 330 -104.5t131 -278.5 q0 -80 -29.5 -153.5t-78.5 -131t-109.5 -109.5t-126.5 -97t-124 -84.5t-108 -81t-73 -78.5h542l-57 -342h-1030z" />
<glyph unicode="3" horiz-adv-x="1159" d="M127 362l369 101q9 -55 43.5 -89t89.5 -34q65 0 104 39t39 94q0 42 -30 71t-89 29h-217l51 301l263 213h-439l60 347h907l-57 -342l-267 -209q104 -25 172 -112t68 -218q0 -171 -79 -304t-216 -204.5t-307 -71.5q-98 0 -178 25.5t-131 65t-86 92.5t-51 104t-19 102z" />
<glyph unicode="4" horiz-adv-x="1280" d="M98 307l47 281l686 846h482l-133 -791h157l-55 -336h-158l-51 -307h-397l51 307h-629zM565 643h217l64 373z" />
<glyph unicode="5" horiz-adv-x="1165" d="M127 362l369 101q4 -60 41 -91.5t94 -31.5q67 0 119.5 46.5t52.5 119.5q0 50 -34 85.5t-93 35.5q-84 0 -146 -70l-317 61l166 816h897l-59 -347h-535l-35 -159q86 33 178 33q169 0 282.5 -116t113.5 -290q0 -160 -81.5 -294t-221.5 -211t-306 -77q-99 0 -181 25.5 t-136 65.5t-92 92.5t-55.5 103.5t-20.5 102z" />
<glyph unicode="6" horiz-adv-x="1204" d="M154 455q0 83 9 168.5t34 186.5t63 191t101.5 175.5t144.5 147t197.5 99t254.5 37.5q206 0 342 -86l-204 -327q-74 38 -181 38q-108 0 -175 -52t-95 -124q105 54 223 54q160 0 261.5 -95.5t101.5 -275.5q0 -131 -45.5 -246t-125 -196.5t-191 -129t-238.5 -47.5 q-244 0 -360.5 126.5t-116.5 355.5zM557 471.5q-3 -53.5 25.5 -89.5t91.5 -36q76 0 111.5 46t35.5 116q0 54 -27.5 85.5t-80.5 31.5q-72 0 -142 -37q-11 -63 -14 -116.5z" />
<glyph unicode="7" horiz-adv-x="1118" d="M180 0l615 1087h-570l58 347h1026l-47 -279l-637 -1155h-445z" />
<glyph unicode="8" horiz-adv-x="1208" d="M125 365q0 132 61 234.5t158 158.5q-38 33 -61 92t-23 129q0 97 42 184.5t116.5 153.5t185.5 104.5t242 38.5q211 0 327.5 -102.5t116.5 -265.5q0 -109 -50.5 -195t-125.5 -139q51 -37 81 -105.5t30 -152.5q0 -236 -171.5 -381.5t-455.5 -145.5q-225 0 -349 104t-124 288 zM549 428q0 -43 28 -67.5t80 -24.5q69 0 108.5 35t39.5 94q0 41 -26.5 69.5t-82.5 28.5q-71 0 -109 -41t-38 -94zM659 985q0 -80 95 -80q127 0 127 117q0 38 -24.5 60t-70.5 22q-61 0 -94 -33t-33 -86z" />
<glyph unicode="9" horiz-adv-x="1204" d="M143 59l205 328q76 -39 180 -39q108 0 175.5 52t95.5 124q-103 -53 -224 -53q-160 0 -261 95.5t-101 275.5q0 131 45.5 245.5t125 196.5t191 129t238.5 47q244 0 360.5 -126t116.5 -355q0 -83 -9 -169t-34 -187t-63 -191t-102 -175.5t-145 -147t-197.5 -99t-254.5 -37.5 q-206 0 -342 86zM623 926q0 -54 27.5 -85.5t80.5 -31.5q71 0 141 37q8 41 12 72t1 64.5t-14.5 55t-36.5 35.5t-64 14q-76 0 -111.5 -45.5t-35.5 -115.5z" />
<glyph unicode=":" horiz-adv-x="571" d="M84 168q0 105 81 182.5t191 77.5q88 0 142.5 -56t54.5 -141q0 -104 -81 -181t-191 -77q-87 0 -142 56.5t-55 138.5zM195 836q0 104 82 182t192 78q88 0 141.5 -56t53.5 -141q0 -104 -81.5 -181t-191.5 -77q-87 0 -141.5 56.5t-54.5 138.5z" />
<glyph unicode=";" horiz-adv-x="571" d="M39 -205q56 33 112.5 85.5t77.5 96.5q-71 18 -109 71.5t-38 119.5q0 105 82.5 182.5t191.5 77.5q88 0 143.5 -53t55.5 -150q0 -162 -110 -329.5t-283 -268.5zM195 836q0 105 81 182.5t191 77.5q88 0 142.5 -56t54.5 -141q0 -104 -81.5 -181t-191.5 -77q-87 0 -141.5 56.5 t-54.5 138.5z" />
<glyph unicode="&#x3c;" horiz-adv-x="1089" d="M182 504l45 272l959 393l-62 -342l-563 -196l498 -197l-49 -323z" />
<glyph unicode="=" horiz-adv-x="1150" d="M115 262l51 305h1010l-52 -305h-1009zM186 692l52 305h1009l-51 -305h-1010z" />
<glyph unicode="&#x3e;" horiz-adv-x="1089" d="M117 111l57 346l563 196l-497 197l55 319l825 -393l-45 -272z" />
<glyph unicode="?" horiz-adv-x="1036" d="M223 1151q21 40 48.5 78t74.5 81.5t102 75.5t134.5 53t169.5 21q186 0 306 -100t120 -252q0 -68 -21.5 -126.5t-56.5 -101t-78 -80t-87 -69.5t-81.5 -62.5t-64.5 -66.5t-33 -74l-11 -63h-383l15 90q11 67 44.5 125t76 96t90 74t86.5 62.5t64.5 58.5t25.5 65t-22.5 56.5 t-71.5 23.5q-90 0 -148 -102zM272 168q0 104 81.5 182t191.5 78q88 0 142 -56t54 -141q0 -104 -81 -181t-191 -77q-87 0 -142 56.5t-55 138.5z" />
<glyph unicode="@" horiz-adv-x="1916" d="M143 403q0 172 56 326.5t155.5 272.5t231.5 205t289.5 132t324.5 45q178 0 324.5 -49.5t243 -136t149.5 -204t53 -253.5q0 -172 -65.5 -312t-184.5 -220t-268 -80q-85 0 -149.5 33t-92.5 90q-39 -49 -111 -87t-169 -38q-150 0 -235 92.5t-85 241.5q0 128 55.5 236 t157.5 172.5t228 64.5q65 0 112 -21.5t64 -42.5l8 52h287l-76 -453q-17 -100 70 -100q77 0 127.5 101t50.5 239q0 205 -139 320.5t-390 115.5q-157 0 -294 -54.5t-233 -149t-151 -225t-55 -278.5q0 -230 145.5 -361.5t405.5 -131.5q117 0 231 27.5t197 78.5l102 -196 q-115 -69 -264.5 -110.5t-306.5 -41.5q-371 0 -585 191.5t-214 508.5zM920 508q0 -53 28 -86t78 -33q64 0 109 47t45 117q0 48 -28.5 83.5t-76.5 35.5q-62 0 -108.5 -47.5t-46.5 -116.5z" />
<glyph unicode="A" horiz-adv-x="1437" d="M8 0l735 1434h431l256 -1434h-404l-41 274h-430l-131 -274h-416zM707 600h237l-49 412z" />
<glyph unicode="B" horiz-adv-x="1249" d="M119 0l239 1434h555q201 0 314.5 -88t113.5 -240q0 -226 -211 -354q77 -37 114.5 -105t37.5 -155q0 -98 -31.5 -179.5t-87 -138.5t-131.5 -96.5t-163.5 -58.5t-184.5 -19h-565zM582 342h145q58 0 97.5 42t39.5 91q0 41 -23.5 69.5t-68.5 28.5h-151zM674 891h119 q55 0 86.5 34.5t31.5 86.5q0 38 -23 60t-67 22h-114z" />
<glyph unicode="C" horiz-adv-x="1300" d="M156 608q0 171 69 327.5t187.5 272t287.5 184t359 68.5q125 0 234 -33.5t180 -89.5l-173 -356q-110 106 -282 106q-182 0 -306 -124.5t-124 -303.5q0 -138 82.5 -225.5t222.5 -87.5q167 0 319 107l54 -357q-91 -56 -210.5 -89.5t-244.5 -33.5q-152 0 -276.5 49 t-207 134.5t-127 201.5t-44.5 250z" />
<glyph unicode="D" horiz-adv-x="1400" d="M119 0l239 1434h467q307 0 483.5 -158.5t176.5 -437.5q0 -249 -115 -440.5t-319 -294.5t-465 -103h-467zM584 344h51q189 0 305.5 118.5t116.5 332.5q0 144 -79.5 219.5t-217.5 75.5h-51z" />
<glyph unicode="E" horiz-adv-x="1019" d="M119 0l239 1434h803l-59 -357h-395l-29 -176h334l-60 -354h-334l-32 -191h411l-59 -356h-819z" />
<glyph unicode="F" horiz-adv-x="987" d="M119 0l239 1434h797l-59 -357h-389l-33 -200h338l-60 -355h-338l-88 -522h-407z" />
<glyph unicode="G" horiz-adv-x="1570" d="M156 608q0 171 69 327.5t187.5 272t287.5 184t359 68.5q118 0 217.5 -26.5t165.5 -69.5t106.5 -82.5t67.5 -81.5l-301 -262q-20 29 -40.5 50t-56 46.5t-86.5 39t-114 13.5q-182 0 -306 -123.5t-124 -301.5q0 -140 85.5 -228t233.5 -88q106 0 178.5 21t108.5 47l12 80 h-231l57 333h604l-106 -630q-79 -52 -134.5 -83t-144 -68t-194 -55t-230.5 -18q-202 0 -356 84.5t-234.5 228t-80.5 322.5z" />
<glyph unicode="H" horiz-adv-x="1507" d="M119 0l239 1434h408l-90 -539h454l91 539h407l-239 -1434h-408l90 537h-455l-90 -537h-407z" />
<glyph unicode="I" horiz-adv-x="645" d="M119 0l239 1434h408l-240 -1434h-407z" />
<glyph unicode="J" horiz-adv-x="837" d="M39 10l108 352q54 -8 105 -8q59 0 93.5 32.5t41.5 76.5l162 971h409l-176 -1049q-15 -89 -50.5 -158t-83.5 -113.5t-111.5 -73t-130.5 -40.5t-144 -12q-139 0 -223 22z" />
<glyph unicode="K" horiz-adv-x="1378" d="M119 0l239 1434h408l-96 -574l458 574h463l-592 -723l369 -711h-461l-282 586l-99 -586h-407z" />
<glyph unicode="L" horiz-adv-x="960" d="M119 0l239 1434h408l-180 -1078h411l-59 -356h-819z" />
<glyph unicode="M" horiz-adv-x="1939" d="M119 0l239 1434h531l178 -852l465 852h528l-239 -1434h-389l145 872l-403 -759h-371l-148 759l-145 -872h-391z" />
<glyph unicode="N" horiz-adv-x="1515" d="M119 0l239 1434h416l326 -813l135 813h401l-239 -1434h-406l-340 801l-133 -801h-399z" />
<glyph unicode="O" horiz-adv-x="1642" d="M156 606q0 173 68.5 329.5t187.5 272t289 184t364 68.5q155 0 281 -48.5t208.5 -133.5t127 -200t44.5 -249q0 -174 -68.5 -331.5t-187.5 -273t-289 -183.5t-364 -68q-154 0 -280 48.5t-208.5 133.5t-127.5 200.5t-45 250.5zM588 655q0 -137 78.5 -223t212.5 -86 q177 0 297 125.5t120 306.5q0 135 -78.5 222t-213.5 87q-176 0 -296 -125.5t-120 -306.5z" />
<glyph unicode="P" horiz-adv-x="1196" d="M119 0l239 1434h553q193 0 306.5 -112.5t113.5 -279.5q0 -162 -73.5 -291.5t-203 -202.5t-290.5 -73h-158l-80 -475h-407zM664 817h86q72 0 114.5 47.5t42.5 116.5q0 50 -29 80.5t-79 30.5h-90z" />
<glyph unicode="Q" horiz-adv-x="1644" d="M156 606q0 173 68.5 329.5t187.5 272t289 184t364 68.5q155 0 281 -48.5t208.5 -133.5t127 -200t44.5 -249q0 -276 -163 -497l102 -96l-283 -271l-116 115q-206 -107 -449 -107q-154 0 -280 48.5t-208.5 133.5t-127.5 200.5t-45 250.5zM588 655q0 -137 78.5 -223 t212.5 -86q57 0 106 12l-94 99l274 266l103 -105q28 76 28 160q0 135 -78.5 222t-213.5 87q-176 0 -296 -125.5t-120 -306.5z" />
<glyph unicode="R" horiz-adv-x="1294" d="M119 0l239 1434h506q229 0 344 -97.5t115 -273.5q0 -143 -69.5 -267.5t-190.5 -193.5l227 -602h-448l-158 506h-74l-84 -506h-407zM666 838h67q76 0 121 43t45 108q0 103 -123 103h-67z" />
<glyph unicode="S" horiz-adv-x="1118" d="M78 322l368 167q23 -59 70.5 -100t101.5 -41q51 0 77 20.5t26 51.5q0 26 -27 49.5t-70 45.5t-95.5 47.5t-105 60.5t-95.5 78t-70 108t-27 143q0 150 74 266t205 179t297 63q79 0 145 -17.5t110 -48t77 -65.5t53 -77t30.5 -74.5t16.5 -65.5l-365 -151q-9 30 -16 47 t-22.5 39.5t-40.5 33.5t-60 11q-40 0 -65 -21t-25 -53q0 -29 27.5 -54t71.5 -47t97 -46.5t106 -58t97 -74t71.5 -102t27.5 -136.5q0 -109 -41.5 -204.5t-116.5 -167.5t-189 -113.5t-251 -41.5q-96 0 -176 27t-129 66.5t-85.5 90t-53 90.5t-23.5 75z" />
<glyph unicode="T" horiz-adv-x="1067" d="M217 1077l59 357h998l-60 -357h-296l-181 -1077h-407l180 1077h-293z" />
<glyph unicode="U" horiz-adv-x="1486" d="M213 561l145 873h408l-145 -875q-4 -26 -4 -49q-1 -66 35 -110q48 -58 148.5 -58t169 58.5t85.5 158.5l145 875h408l-146 -873q-22 -132 -74.5 -238t-137.5 -185t-209.5 -122t-280.5 -43q-198 0 -332 75q-136 76 -190 208q-36 86 -35 190q0 55 10 115z" />
<glyph unicode="V" horiz-adv-x="1501" d="M248 1434h446l135 -963l457 963h447l-760 -1434h-445z" />
<glyph unicode="W" horiz-adv-x="2105" d="M254 1434h436l31 -953l389 953h365l69 -953l350 953h437l-613 -1434h-461l-67 823l-342 -823h-463z" />
<glyph unicode="X" horiz-adv-x="1398" d="M8 0l565 739l-327 695h479l147 -406l267 406h493l-565 -729l324 -705h-453l-168 420l-291 -420h-471z" />
<glyph unicode="Y" horiz-adv-x="1318" d="M252 1434h446l119 -433l270 433h459l-577 -793l-107 -641h-405l106 641z" />
<glyph unicode="Z" horiz-adv-x="1277" d="M63 0l41 250l730 831h-576l59 353h1127l-41 -248l-737 -834h604l-60 -352h-1147z" />
<glyph unicode="[" horiz-adv-x="753" d="M-12 -403l354 2111h580l-58 -336h-188l-242 -1440h189l-56 -335h-579z" />
<glyph unicode="\" horiz-adv-x="997" d="M279 1536h342l319 -1757h-342z" />
<glyph unicode="]" horiz-adv-x="751" d="M51 -403l55 335h189l242 1440h-189l58 336h579l-354 -2111h-580z" />
<glyph unicode="^" horiz-adv-x="1230" d="M180 651l514 783h320l252 -783h-355l-110 416l-250 -416h-371z" />
<glyph unicode="_" horiz-adv-x="1296" d="M-27 -358l50 299h1230l-49 -299h-1231z" />
<glyph unicode="`" horiz-adv-x="999" d="M481 1485h404l82 -309h-301z" />
<glyph unicode="a" horiz-adv-x="1128" d="M82 279q0 186 138 301.5t358 115.5q114 0 184 -41l6 33q1 5 1 10q0 28 -29 50q-34 26 -103 26q-121 0 -268 -61l-115 258q99 61 235 99t256 38q106 0 186.5 -24t128 -67t76.5 -101q30 -59 32 -128v-26q0 -57 -9 -119l-108 -643h-357l-12 59q-99 -86 -270 -86 q-140 0 -235 80.5t-95 225.5zM487 340q0 -35 30 -53.5t73 -18.5q50 0 89.5 25t39.5 67q0 36 -29.5 56t-73.5 20q-52 0 -90.5 -26t-38.5 -70z" />
<glyph unicode="b" horiz-adv-x="1310" d="M90 0l248 1481h397l-78 -467q48 35 123.5 64.5t167.5 29.5q199 0 312.5 -127t113.5 -336q0 -143 -49.5 -268t-134.5 -213.5t-202 -139.5t-249 -51q-96 0 -167 30t-101 67l-12 -70h-369zM561 498q0 -79 43.5 -131t122.5 -52q108 0 175 75.5t67 193.5q0 82 -43.5 133 t-122.5 51q-104 0 -173 -76t-69 -194z" />
<glyph unicode="c" horiz-adv-x="995" d="M119 453q0 185 97.5 336.5t259 235t349.5 83.5q90 0 168.5 -24.5t128.5 -61.5l-159 -324q-76 62 -179 62q-121 0 -192.5 -76.5t-71.5 -181.5q0 -86 56 -136.5t147 -50.5q44 0 97 15.5t93 42.5l50 -318q-140 -82 -332 -82q-235 0 -373.5 132.5t-138.5 347.5z" />
<glyph unicode="d" horiz-adv-x="1308" d="M119 446q0 184 77.5 335t219 239t317.5 88q92 0 157.5 -29.5t100.5 -64.5l80 467h397l-247 -1481h-369l10 70q-43 -38 -120 -67.5t-173 -29.5q-205 0 -327.5 131t-122.5 342zM522 496q0 -84 43 -132.5t123 -48.5q110 0 176 80t66 191q0 86 -44.5 134t-121.5 48 q-109 0 -175.5 -77t-66.5 -195z" />
<glyph unicode="e" horiz-adv-x="1159" d="M123 467q0 172 82.5 318.5t231.5 234.5t331 88q225 0 341 -122.5t116 -348.5q0 -89 -29 -201h-676q4 -63 48 -97t118 -34q66 0 124.5 32t86.5 64l238 -188q-16 -25 -54 -60.5t-101 -78.5t-157.5 -72t-197.5 -29q-159 0 -274.5 67.5t-171.5 178t-56 248.5zM569 678h267v11 q0 37 -24 69q-28 36 -89 37q-63 0 -102.5 -38t-51.5 -79z" />
<glyph unicode="f" horiz-adv-x="741" d="M150 0l129 768h-113l51 313h113l4 21q15 83 51.5 149.5t86.5 110.5t113.5 73.5t131.5 42.5t143 13q61 0 115 -8l-53 -324q-30 6 -62 6q-117 0 -127 -69l-2 -15h154l-51 -313h-156l-129 -768h-399z" />
<glyph unicode="g" horiz-adv-x="1296" d="M121 451q0 138 45.5 259.5t126 209t195 138t247.5 50.5q93 0 158.5 -29t99.5 -65l13 67h397l-158 -944q-20 -118 -67 -210.5t-111 -152t-147.5 -97.5t-170.5 -54t-186 -16q-246 0 -418 88l152 299q153 -68 285 -68q101 0 171 27t81 88l4 22q-109 -81 -265 -81 q-207 0 -329.5 130t-122.5 339zM524 502q0 -81 44 -129.5t124 -48.5q109 0 174.5 78t65.5 186q0 84 -44.5 132t-121.5 48q-108 0 -175 -76.5t-67 -189.5z" />
<glyph unicode="h" horiz-adv-x="1198" d="M90 0l248 1481h397l-82 -490q45 47 118 82t157 35q189 0 264 -108q53 -76 53 -194q0 -50 -10 -108l-117 -698h-397l106 637q3 16 3 30q0 38 -20 60q-27 31 -79 31q-56 0 -91.5 -33t-43.5 -82l-109 -643h-397z" />
<glyph unicode="i" d="M90 0l180 1081h398l-181 -1081h-397zM299 1315q0 94 74.5 159.5t173.5 65.5q78 0 130 -48.5t52 -123.5q0 -93 -75 -158t-173 -65q-79 0 -130.5 48t-51.5 122z" />
<glyph unicode="j" d="M-152 -385l54 324q26 -2 51 -2q62 0 98.5 26.5t44.5 73.5l176 1044h398l-181 -1077q-66 -397 -559 -397q-42 0 -82 8zM301 1315q0 94 74 159.5t172 65.5q79 0 130.5 -48.5t51.5 -123.5q0 -93 -74.5 -158t-173.5 -65q-78 0 -129 48t-51 122z" />
<glyph unicode="k" horiz-adv-x="1210" d="M90 0l248 1481h397l-137 -819l320 419h448l-422 -528l270 -553h-438l-209 477l-80 -477h-397z" />
<glyph unicode="l" d="M90 0l248 1481h397l-248 -1481h-397z" />
<glyph unicode="m" horiz-adv-x="1765" d="M90 0l180 1081h387l-16 -102q44 53 115.5 91t169.5 38q175 0 250 -127q134 127 323 127q119 0 194.5 -57t100.5 -149q14 -52 14 -111q0 -45 -8 -95l-117 -696h-397l109 645q2 13 2 25q1 34 -17 57q-24 31 -71 31q-45 0 -77 -32.5t-40 -80.5l-109 -645h-395l107 637 q3 17 3 32q0 35 -15 57q-21 32 -70 32q-99 0 -117 -115l-109 -643h-397z" />
<glyph unicode="n" horiz-adv-x="1193" d="M90 0l180 1081h387l-16 -102q44 49 123 89t170 40q186 0 258 -108q49 -75 49 -192q0 -52 -10 -112l-117 -696h-397l106 637q3 16 3 31q0 37 -19 59q-26 31 -78 31q-56 0 -90.5 -33t-42.5 -82l-109 -643h-397z" />
<glyph unicode="o" horiz-adv-x="1277" d="M119 461q0 179 96.5 328.5t258 234t349.5 84.5q229 0 372.5 -137t143.5 -350q0 -135 -57 -256t-152.5 -206.5t-225 -135.5t-269.5 -50q-229 0 -372.5 137t-143.5 351zM520 500q0 -85 47 -135t125 -50q103 0 174.5 75t71.5 192q0 84 -46.5 135t-123.5 51 q-103 0 -175.5 -76t-72.5 -192z" />
<glyph unicode="p" horiz-adv-x="1310" d="M27 -383l245 1464h369l-12 -69q43 37 120 66.5t173 29.5q205 0 327.5 -131t122.5 -342q0 -184 -77.5 -335t-219 -239t-317.5 -88q-92 0 -157.5 30t-100.5 65l-76 -451h-397zM561 496q0 -86 44.5 -134.5t121.5 -48.5q109 0 176.5 78t67.5 195q0 83 -44.5 131.5 t-123.5 48.5q-110 0 -176 -79.5t-66 -190.5z" />
<glyph unicode="q" horiz-adv-x="1308" d="M119 436q0 142 50.5 267.5t137 214t205 139.5t250.5 51q95 0 161.5 -29t98.5 -67l12 69h369l-246 -1464h-397l76 451q-130 -95 -291 -95q-200 0 -313 127t-113 336zM522 498q0 -84 44 -134.5t124 -50.5q104 0 173 75t69 196q0 80 -42.5 131t-123.5 51q-108 0 -176 -75 t-68 -193z" />
<glyph unicode="r" horiz-adv-x="798" d="M90 0l180 1081h387l-22 -137q54 76 137.5 120t171.5 44l-65 -387q-28 8 -62 8q-99 0 -163 -59t-83 -166l-84 -504h-397z" />
<glyph unicode="s" horiz-adv-x="942" d="M45 145l254 217q96 -75 219 -75q40 0 60 12t20 31q0 18 -31.5 33.5t-78 28t-101.5 36.5t-101.5 55.5t-78 89t-31.5 132.5q0 120 68 213t181.5 141.5t250.5 48.5q139 0 235.5 -51t149.5 -127l-289 -203q-70 70 -149 70q-33 0 -50.5 -12t-17.5 -29q0 -19 23.5 -35.5 t61.5 -30.5t83.5 -30t91 -40.5t83.5 -56t61.5 -81t23.5 -111.5q0 -190 -143 -294t-373 -104q-131 0 -246.5 51.5t-175.5 120.5z" />
<glyph unicode="t" horiz-adv-x="776" d="M160 768l53 313h113l36 228h388l-37 -228h174l-53 -313h-175l-59 -354q-4 -27 5.5 -45t31 -26.5t42.5 -11.5t48 -3l39 2l-55 -334q-48 -12 -146 -12q-372 0 -372 313q0 52 10 113l59 358h-102z" />
<glyph unicode="u" horiz-adv-x="1185" d="M145 385l117 696h397l-106 -637q-3 -16 -3 -31q0 -37 19 -59q26 -30 78 -30q56 0 91.5 32.5t43.5 81.5l109 643h395l-180 -1081h-387l16 102q-42 -49 -121 -89t-170 -40q-186 1 -258 109q-50 75 -51 192q0 51 10 111z" />
<glyph unicode="v" horiz-adv-x="1198" d="M184 1081h422l64 -671l282 671h418l-536 -1081h-463z" />
<glyph unicode="w" horiz-adv-x="1751" d="M195 1081h428l6 -659q3 9 243 659h369l21 -659l221 659h436l-473 -1081h-449l-32 545l-211 -545h-449z" />
<glyph unicode="x" horiz-adv-x="1165" d="M0 0l451 553l-267 528h441l94 -272l174 272h446l-440 -542l266 -539h-424l-114 281l-197 -281h-430z" />
<glyph unicode="y" horiz-adv-x="1185" d="M193 1081h419l64 -559l258 559h420l-774 -1448h-373l213 408z" />
<glyph unicode="z" horiz-adv-x="987" d="M55 0l39 229l455 529h-361l54 323h870l-39 -231l-461 -526h375l-53 -324h-879z" />
<glyph unicode="{" horiz-adv-x="897" d="M123 465l61 373q36 0 61.5 6.5t52 25t45 58t28.5 100.5l28 174q27 164 121.5 279.5t233 171t311.5 55.5l-57 -336q-188 0 -217 -170l-46 -268q-9 -53 -32 -98.5t-52 -76.5t-63 -54.5t-63.5 -36t-55.5 -17.5q31 -7 63 -26t62 -51.5t44 -86t3 -118.5l-45 -267 q-29 -170 160 -170l-55 -335q-263 0 -399.5 130t-96.5 375l29 172q11 50 6.5 84.5t-12.5 55.5t-28 32.5t-39.5 15t-47.5 3.5z" />
<glyph unicode="|" horiz-adv-x="645" d="M45 -537l385 2300h375l-385 -2300h-375z" />
<glyph unicode="}" horiz-adv-x="897" d="M51 -403l55 335q189 0 218 170l45 267q11 65 43 118.5t73 86t79 51.5t71 26q-24 5 -48.5 18t-52 36t-45 55t-27 75.5t0.5 98.5l45 268q29 170 -160 170l58 336q263 0 398 -130.5t95 -375.5l-29 -174q-11 -50 -6.5 -84.5t12.5 -55t28 -32t39.5 -15t47.5 -3.5l-61 -373 q-36 0 -61.5 -6.5t-52 -25.5t-45 -58.5t-28.5 -100.5l-28 -172q-27 -164 -121 -279.5t-232 -170.5t-311 -55z" />
<glyph unicode="~" horiz-adv-x="1159" d="M123 408q32 196 146.5 313t271.5 117q71 0 170.5 -36t142.5 -36q33 0 56.5 19.5t29.5 54.5h303q-12 -75 -45 -149t-83 -138t-123 -103.5t-156 -39.5q-72 0 -180.5 36.5t-145.5 36.5q-35 0 -58.5 -19.5t-27.5 -55.5h-301z" />
<glyph unicode="&#xa1;" horiz-adv-x="671" d="M72 -313l192 968h361l-131 -968h-422zM254 889q0 104 81 181t191 77q87 0 142 -56.5t55 -138.5q0 -105 -81 -182.5t-191 -77.5q-88 0 -142.5 56t-54.5 141z" />
<glyph unicode="&#xa2;" horiz-adv-x="978" d="M141 606q0 165 80 304t216 225.5t304 111.5l31 187h227l-30 -189q43 -4 94.5 -26t83.5 -48l-160 -329q-85 65 -182 65q-121 0 -191.5 -74t-70.5 -182q0 -86 53.5 -135t148.5 -49q106 0 189 59l49 -319q-84 -49 -201 -70l-22 -137h-228l23 135q-192 28 -303 155t-111 316z " />
<glyph unicode="&#xa3;" horiz-adv-x="1230" d="M66 0l57 346h106l37 211h-96l47 291h96l27 158q34 202 186.5 328t378.5 126q86 0 156 -23t114.5 -58.5t76.5 -81.5t47 -87.5t20 -81.5l-350 -137q-15 101 -109 101q-46 0 -81.5 -31.5t-43.5 -77.5l-22 -135h301l-47 -291h-301l-37 -211h598l-58 -346h-1103z" />
<glyph unicode="&#xa5;" horiz-adv-x="1318" d="M205 287l41 245h299l18 111h-299l41 246h160l-213 545h450l119 -433l271 433h454l-397 -545h158l-41 -246h-297l-19 -111h297l-41 -245h-297l-47 -287h-405l47 287h-299z" />
<glyph unicode="&#xa7;" horiz-adv-x="1130" d="M39 -123l358 143q13 -51 58.5 -93t105.5 -42q28 0 51 15t23 47q0 27 -21 48.5t-67 51.5l-207 135q-94 61 -142 133.5t-48 167.5q0 207 219 318q-113 104 -113 248q0 194 148 323t389 129q92 0 170.5 -26t129 -65t88.5 -88.5t56.5 -92.5t24.5 -80l-359 -143q-13 51 -58 93 t-104 42q-29 0 -51 -16t-22 -46q0 -27 20.5 -48.5t65.5 -51.5l221 -145q176 -114 176 -289q0 -209 -221 -320q117 -108 117 -245q0 -195 -149 -325t-388 -130q-93 0 -172 26t-130 65t-89 88.5t-56 92.5t-24 80zM532 547q0 -32 31 -51l129 -86q41 0 63.5 19t22.5 50 q0 33 -30 51l-130 86q-41 0 -63.5 -19t-22.5 -50z" />
<glyph unicode="&#xa8;" horiz-adv-x="999" d="M313 1313q0 79 60 137.5t147 58.5q69 0 110.5 -42t41.5 -105q0 -80 -61 -138.5t-148 -58.5q-67 0 -108.5 42.5t-41.5 105.5zM776 1311q0 81 58.5 139.5t146.5 58.5q67 0 108 -42t41 -105q0 -80 -60 -138.5t-146 -58.5q-68 0 -108 42t-40 104z" />
<glyph unicode="&#xa9;" horiz-adv-x="1628" d="M170 610q0 231 120.5 427t325 309.5t443.5 113.5q143 0 263.5 -49t202.5 -134.5t127.5 -203.5t45.5 -254q0 -172 -72 -329.5t-192 -271t-284 -180.5t-341 -67q-192 0 -339 85t-223.5 229.5t-76.5 324.5zM416 631q0 -198 115.5 -320.5t312.5 -122.5q128 0 241 48 t193.5 130t127 196t46.5 243q0 194 -116 316t-312 122q-171 0 -310.5 -80.5t-218.5 -220.5t-79 -311zM555 659q0 122 61 226t165 164.5t225 60.5q61 0 111.5 -17t82 -44t49.5 -53t27 -52l-223 -153q-23 63 -84 63q-49 0 -88 -48t-39 -116q0 -48 22.5 -78t59.5 -30 q62 0 104 63l180 -156q-139 -163 -334 -163q-144 0 -231.5 94t-87.5 239z" />
<glyph unicode="&#xaa;" horiz-adv-x="864" d="M195 844q0 139 102.5 223t267.5 84q84 0 142 -29l4 25q5 26 -20.5 45.5t-78.5 19.5q-98 0 -204 -47l-78 193q71 45 166.5 73.5t193.5 28.5q366 0 311 -336l-81 -489h-267l-8 41q-75 -62 -188 -62q-111 0 -186.5 60.5t-75.5 169.5zM496 887q0 -26 22.5 -39.5t54.5 -13.5 q44 0 72.5 17.5t28.5 53.5q0 27 -22.5 41.5t-57.5 14.5q-40 0 -69 -20t-29 -54z" />
<glyph unicode="&#xab;" horiz-adv-x="1140" d="M150 606l309 393h352l-324 -411l193 -375h-340zM598 598l311 401h351l-324 -411l192 -375h-337z" />
<glyph unicode="&#xad;" horiz-adv-x="829" d="M176 455l57 348h627l-57 -348h-627z" />
<glyph unicode="&#xae;" horiz-adv-x="944" d="M203 1024q0 134 68.5 248t187.5 181t260 67q180 0 282.5 -101.5t102.5 -261.5q0 -134 -67.5 -248t-188.5 -182t-268 -68q-175 0 -276 102t-101 263zM338 1040q0 -115 70 -187.5t192 -72.5q163 0 266 104t103 259q0 115 -71.5 184.5t-199.5 69.5q-154 0 -257 -102.5 t-103 -254.5zM432 874l76 443h207q67 0 106 -34t39 -89q0 -58 -26.5 -97t-67.5 -55l53 -168h-149l-41 142h-29l-25 -142h-143zM618 1126h48q18 0 30.5 11.5t12.5 31.5q0 13 -8.5 22t-22.5 9h-47z" />
<glyph unicode="&#xaf;" horiz-adv-x="919" d="M354 1190l45 274h609l-45 -274h-609z" />
<glyph unicode="&#xb0;" horiz-adv-x="833" d="M223 1055q0 164 131 284.5t308 120.5q142 0 230.5 -88.5t88.5 -218.5q0 -109 -59 -201.5t-160 -146t-219 -53.5q-144 0 -232 86t-88 217zM500 1090q0 -36 22 -59t64 -23q56 0 87.5 33.5t31.5 80.5q0 35 -22.5 58.5t-64.5 23.5q-55 0 -86.5 -34t-31.5 -80z" />
<glyph unicode="&#xb2;" horiz-adv-x="788" d="M162 614l18 111q10 61 48 114.5t87.5 89.5t105 69.5t101.5 57.5t76.5 50.5t30.5 50.5q0 19 -15 31t-39 12q-25 0 -46.5 -13.5t-32.5 -27.5t-29 -41l-221 80q16 38 44.5 76.5t74 80.5t114.5 68.5t148 26.5q129 0 216 -63t87 -170q0 -63 -30.5 -118t-79.5 -93.5t-96.5 -67 t-97.5 -54t-67 -38.5h322l-39 -232h-680z" />
<glyph unicode="&#xb3;" horiz-adv-x="778" d="M190 850l242 80q5 -34 25 -57t57 -23q33 0 52.5 18t19.5 45q0 24 -17.5 39t-46.5 15h-112l26 163l94 78h-241l39 226h606l-31 -177l-182 -141q69 -15 112.5 -70.5t43.5 -125.5q0 -102 -54.5 -176.5t-140 -110t-188.5 -35.5q-64 0 -117 18t-86 45.5t-56 62.5t-33 66.5 t-12 59.5z" />
<glyph unicode="&#xb4;" horiz-adv-x="999" d="M424 1176l184 309h410l-277 -309h-317z" />
<glyph unicode="&#xb6;" horiz-adv-x="1216" d="M233 987q0 123 64.5 226.5t173 162t236.5 58.5h286l-256 -1526h-297l125 741q-147 3 -239.5 97t-92.5 241zM852 -92l256 1526h299l-256 -1526h-299z" />
<glyph unicode="&#xb7;" horiz-adv-x="569" d="M158 612q0 105 81 182.5t191 77.5q88 0 142.5 -55.5t54.5 -140.5q0 -104 -81.5 -181t-191.5 -77q-87 0 -141.5 56t-54.5 138z" />
<glyph unicode="&#xb8;" horiz-adv-x="919" d="M147 -463l80 178q35 -10 70 -10q36 0 56 14t20 35q0 23 -24 35t-54 12l-41 -4l78 232h190l-30 -95q60 -18 95.5 -61t35.5 -106q0 -124 -89 -191.5t-227 -67.5q-42 0 -89.5 9.5t-70.5 19.5z" />
<glyph unicode="&#xb9;" horiz-adv-x="657" d="M301 1372l211 62h240l-138 -820h-288l90 541l-88 -22z" />
<glyph unicode="&#xba;" horiz-adv-x="1028" d="M227 973q0 135 71 247.5t191 176t261 63.5q179 0 288 -100.5t109 -259.5q0 -135 -69.5 -246.5t-188.5 -175.5t-262 -64q-178 0 -289 101t-111 258zM528 1006q0 -61 36 -98.5t95 -37.5q75 0 132 56.5t57 138.5q0 64 -37 101.5t-96 37.5q-79 0 -133 -55.5t-54 -142.5z" />
<glyph unicode="&#xbb;" horiz-adv-x="1140" d="M84 213l324 412l-193 374h338l192 -385l-311 -401h-350zM532 213l324 412l-192 374h340l190 -393l-309 -393h-353z" />
<glyph unicode="&#xbc;" horiz-adv-x="1816" d="M287 1372l211 62h239l-137 -820h-289l90 541l-88 -22zM315 -84l1022 1602h336l-1026 -1602h-332zM1040 137l35 211l422 471h315l-73 -442h90l-41 -240h-90l-23 -137h-280l22 137h-377zM1339 377h119l29 178z" />
<glyph unicode="&#xbd;" horiz-adv-x="1845" d="M287 1372l211 62h239l-137 -820h-289l90 541l-88 -22zM295 -84l1022 1602h334l-1024 -1602h-332zM1092 0l18 111q11 68 61 128t113 100.5t124 75.5t102.5 67t41.5 61q0 43 -49 43q-62 0 -112 -82l-215 80q13 29 32 59.5t53 66t74.5 62.5t98.5 45.5t122 18.5 q131 0 217.5 -60.5t86.5 -173.5q0 -63 -30.5 -118t-79.5 -93.5t-96.5 -67t-97.5 -54t-67 -38.5h321l-38 -231h-680z" />
<glyph unicode="&#xbe;" horiz-adv-x="1892" d="M182 850l242 80q5 -34 25 -57t57 -23q33 0 52.5 18t19.5 45q0 24 -17.5 39t-46.5 15h-113l27 163l94 78h-241l38 226h607l-31 -177l-182 -141q69 -15 112 -70.5t43 -125.5q0 -102 -54.5 -176.5t-140 -110t-188.5 -35.5q-64 0 -117 18t-85.5 45.5t-55.5 63t-33 66.5 t-12 59zM395 -84l1022 1602h334l-1024 -1602h-332zM1112 137l35 211l422 471h315l-74 -442h91l-39 -240h-90l-23 -137h-281l23 137h-379zM1411 377h119l31 178z" />
<glyph unicode="&#xbf;" horiz-adv-x="1036" d="M47 12q0 68 21.5 126.5t56.5 101t78 80t87 69.5t81.5 62.5t64.5 66.5t33 74l10 63h383l-14 -90q-11 -67 -44.5 -125t-76 -96t-90 -74t-86.5 -62.5t-64.5 -58.5t-25.5 -65t22.5 -56.5t71.5 -23.5q89 0 147 102l299 -137q-21 -40 -48 -78t-74 -81.5t-102.5 -75.5 t-134.5 -53t-169 -21q-186 0 -306 100t-120 252zM483 889q0 104 81.5 181t191.5 77q87 0 141.5 -56.5t54.5 -138.5q0 -105 -81 -182.5t-191 -77.5q-88 0 -142.5 56t-54.5 141z" />
<glyph unicode="&#xc0;" horiz-adv-x="1437" d="M8 0l735 1434h431l256 -1434h-404l-41 274h-430l-131 -274h-416zM662 1798h403l82 -309h-301zM707 600h237l-49 412z" />
<glyph unicode="&#xc1;" horiz-adv-x="1437" d="M8 0l735 1434h431l256 -1434h-404l-41 274h-430l-131 -274h-416zM707 600h237l-49 412zM770 1489l184 309h410l-277 -309h-317z" />
<glyph unicode="&#xc2;" horiz-adv-x="1437" d="M8 0l735 1434h431l256 -1434h-404l-41 274h-430l-131 -274h-416zM569 1493l252 309h402l149 -309h-325l-56 125l-96 -125h-326zM707 600h237l-49 412z" />
<glyph unicode="&#xc3;" horiz-adv-x="1437" d="M8 0l735 1434h431l256 -1434h-404l-41 274h-430l-131 -274h-416zM559 1495q25 148 113 237t209 89q63 0 141 -31t102 -31q56 0 68 64h238q-24 -154 -109.5 -240t-206.5 -86q-63 0 -141.5 31t-102.5 31q-58 0 -67 -64h-244zM707 600h237l-49 412z" />
<glyph unicode="&#xc4;" horiz-adv-x="1437" d="M8 0l735 1434h431l256 -1434h-404l-41 274h-430l-131 -274h-416zM578 1640q0 79 60 138t146 59q69 0 110.5 -42t41.5 -105q0 -80 -61 -138.5t-148 -58.5q-67 0 -108 42t-41 105zM707 600h237l-49 412zM1040 1638q0 81 58.5 140t146.5 59q68 0 109 -42t41 -105 q0 -80 -60.5 -138.5t-146.5 -58.5q-68 0 -108 41.5t-40 103.5z" />
<glyph unicode="&#xc5;" horiz-adv-x="1437" d="M8 0l735 1434h431l256 -1434h-404l-41 274h-430l-131 -274h-416zM707 600h237l-49 412zM743 1679q0 111 87.5 184.5t207.5 73.5q98 0 160 -54t62 -140q0 -111 -87.5 -184.5t-209.5 -73.5q-97 0 -158.5 54t-61.5 140zM930 1700q0 -29 15.5 -46.5t43.5 -17.5q37 0 61.5 25 t24.5 63q0 28 -16 45t-45 17q-35 0 -59.5 -24.5t-24.5 -61.5z" />
<glyph unicode="&#xc6;" horiz-adv-x="1880" d="M16 0l1012 1434h993l-59 -357h-395l-29 -176h334l-60 -354h-333l-33 -191h409l-59 -356h-817l45 274h-377l-188 -274h-443zM848 600h231l78 463z" />
<glyph unicode="&#xc7;" horiz-adv-x="1300" d="M156 608q0 171 69 327.5t187.5 272t287.5 184t359 68.5q125 0 234 -33.5t180 -89.5l-173 -356q-110 106 -282 106q-182 0 -306 -124.5t-124 -303.5q0 -138 82.5 -225.5t222.5 -87.5q167 0 319 107l54 -357q-91 -56 -210.5 -89.5t-244.5 -33.5h-8l-12 -39q60 -18 95.5 -61 t35.5 -106q0 -124 -89 -191.5t-227 -67.5q-42 0 -89.5 9.5t-70.5 19.5l80 178q35 -10 70 -10q36 0 56 14t20 35q0 23 -24 35t-54 12l-41 -4l65 199q-218 53 -340 218.5t-122 393.5z" />
<glyph unicode="&#xc8;" horiz-adv-x="1019" d="M119 0l239 1434h803l-59 -357h-395l-29 -176h334l-60 -354h-334l-32 -191h411l-59 -356h-819zM502 1798h403l82 -309h-301z" />
<glyph unicode="&#xc9;" horiz-adv-x="1019" d="M119 0l239 1434h803l-59 -357h-395l-29 -176h334l-60 -354h-334l-32 -191h411l-59 -356h-819zM573 1489l185 309h409l-276 -309h-318z" />
<glyph unicode="&#xca;" horiz-adv-x="1019" d="M119 0l239 1434h803l-59 -357h-395l-29 -176h334l-60 -354h-334l-32 -191h411l-59 -356h-819zM373 1493l252 309h401l150 -309h-326l-55 125l-97 -125h-325z" />
<glyph unicode="&#xcb;" horiz-adv-x="1019" d="M119 0l239 1434h803l-59 -357h-395l-29 -176h334l-60 -354h-334l-32 -191h411l-59 -356h-819zM373 1640q0 79 60.5 138t146.5 59q69 0 110 -42t41 -105q0 -80 -61 -138.5t-148 -58.5q-67 0 -108 42t-41 105zM836 1638q0 81 58.5 140t145.5 59q68 0 109 -42t41 -105 q0 -80 -60.5 -138.5t-146.5 -58.5q-68 0 -107.5 41.5t-39.5 103.5z" />
<glyph unicode="&#xcc;" horiz-adv-x="647" d="M119 0l239 1434h408l-240 -1434h-407zM307 1798h404l82 -309h-301z" />
<glyph unicode="&#xcd;" horiz-adv-x="647" d="M119 0l239 1434h408l-240 -1434h-407zM379 1489l184 309h410l-277 -309h-317z" />
<glyph unicode="&#xce;" horiz-adv-x="647" d="M119 0l239 1434h408l-240 -1434h-407zM174 1493l252 309h401l150 -309h-326l-55 125l-96 -125h-326z" />
<glyph unicode="&#xcf;" horiz-adv-x="647" d="M119 0l239 1434h408l-240 -1434h-407zM195 1640q0 79 60 138t146 59q69 0 110.5 -42t41.5 -105q0 -80 -61 -138.5t-148 -58.5q-67 0 -108 42t-41 105zM657 1638q0 81 58.5 140t146.5 59q68 0 109 -42t41 -105q0 -80 -60.5 -138.5t-146.5 -58.5q-68 0 -108 41.5t-40 103.5 z" />
<glyph unicode="&#xd0;" horiz-adv-x="1437" d="M135 545l58 348h110l92 541h467q307 0 482.5 -158.5t175.5 -437.5q0 -187 -67 -344t-185.5 -265t-285 -168.5t-361.5 -60.5h-467l92 545h-111zM621 344h51q189 0 304.5 118.5t115.5 332.5q0 145 -78 220t-217 75h-52l-34 -197h174l-58 -348h-174z" />
<glyph unicode="&#xd1;" horiz-adv-x="1515" d="M119 0l239 1434h416l326 -813l135 813h401l-239 -1434h-406l-340 801l-133 -801h-399zM610 1495q25 148 113 237t209 89q63 0 141.5 -31t102.5 -31q55 0 67 64h238q-24 -154 -109.5 -240t-206.5 -86q-63 0 -141 31t-102 31q-28 0 -46 -16.5t-22 -47.5h-244z" />
<glyph unicode="&#xd2;" horiz-adv-x="1644" d="M156 606q0 173 68.5 329.5t187.5 272t289 184t364 68.5q155 0 281 -48.5t208.5 -133.5t127 -200t44.5 -249q0 -174 -68.5 -331.5t-187.5 -273t-289 -183.5t-364 -68q-154 0 -280 48.5t-208.5 133.5t-127.5 200.5t-45 250.5zM588 655q0 -137 78.5 -223t212.5 -86 q177 0 297 125.5t120 306.5q0 135 -78.5 222t-213.5 87q-176 0 -296 -125.5t-120 -306.5zM778 1798h404l82 -309h-301z" />
<glyph unicode="&#xd3;" horiz-adv-x="1644" d="M156 606q0 173 68.5 329.5t187.5 272t289 184t364 68.5q155 0 281 -48.5t208.5 -133.5t127 -200t44.5 -249q0 -174 -68.5 -331.5t-187.5 -273t-289 -183.5t-364 -68q-154 0 -280 48.5t-208.5 133.5t-127.5 200.5t-45 250.5zM588 655q0 -137 78.5 -223t212.5 -86 q177 0 297 125.5t120 306.5q0 135 -78.5 222t-213.5 87q-176 0 -296 -125.5t-120 -306.5zM883 1489l184 309h410l-277 -309h-317z" />
<glyph unicode="&#xd4;" horiz-adv-x="1644" d="M156 606q0 173 68.5 329.5t187.5 272t289 184t364 68.5q155 0 281 -48.5t208.5 -133.5t127 -200t44.5 -249q0 -174 -68.5 -331.5t-187.5 -273t-289 -183.5t-364 -68q-154 0 -280 48.5t-208.5 133.5t-127.5 200.5t-45 250.5zM588 655q0 -137 78.5 -223t212.5 -86 q177 0 297 125.5t120 306.5q0 135 -78.5 222t-213.5 87q-176 0 -296 -125.5t-120 -306.5zM666 1493l252 309h401l149 -309h-325l-56 125l-96 -125h-325z" />
<glyph unicode="&#xd5;" horiz-adv-x="1642" d="M156 606q0 173 68.5 329.5t187.5 272t289 184t364 68.5q155 0 281 -48.5t208.5 -133.5t127 -200t44.5 -249q0 -174 -68.5 -331.5t-187.5 -273t-289 -183.5t-364 -68q-154 0 -280 48.5t-208.5 133.5t-127.5 200.5t-45 250.5zM588 655q0 -137 78.5 -223t212.5 -86 q177 0 297 125.5t120 306.5q0 135 -78.5 222t-213.5 87q-176 0 -296 -125.5t-120 -306.5zM666 1495q25 149 112.5 237.5t208.5 88.5q63 0 141.5 -31t102.5 -31q55 0 67 64h238q-25 -154 -109.5 -240t-205.5 -86q-63 0 -141.5 31t-102.5 31q-28 0 -46 -16.5t-22 -47.5h-243z " />
<glyph unicode="&#xd6;" horiz-adv-x="1642" d="M156 606q0 173 68.5 329.5t187.5 272t289 184t364 68.5q155 0 281 -48.5t208.5 -133.5t127 -200t44.5 -249q0 -174 -68.5 -331.5t-187.5 -273t-289 -183.5t-364 -68q-154 0 -280 48.5t-208.5 133.5t-127.5 200.5t-45 250.5zM588 655q0 -137 78.5 -223t212.5 -86 q177 0 297 125.5t120 306.5q0 135 -78.5 222t-213.5 87q-176 0 -296 -125.5t-120 -306.5zM692 1640q0 79 60.5 138t146.5 59q69 0 110.5 -42t41.5 -105q0 -80 -61 -138.5t-148 -58.5q-68 0 -109 42t-41 105zM1155 1638q0 81 58.5 140t146.5 59q67 0 108 -42t41 -105 q0 -80 -60 -138.5t-146 -58.5q-68 0 -108 41.5t-40 103.5z" />
<glyph unicode="&#xd7;" horiz-adv-x="1101" d="M96 356l353 306l-232 282l242 203l227 -281l326 281l188 -227l-328 -285l250 -305l-235 -201l-250 303l-350 -303z" />
<glyph unicode="&#xd8;" horiz-adv-x="1644" d="M156 606q0 173 68.5 329.5t187.5 272t289 184t364 68.5q203 0 358 -84l115 117l178 -160l-112 -112q122 -162 122 -392q0 -174 -68.5 -331.5t-187.5 -273t-289 -183.5t-364 -68q-208 0 -358 84l-113 -114l-178 159l108 111q-120 159 -120 393zM588 655q0 -64 14 -110 l516 522q-58 20 -114 20q-176 0 -296 -125.5t-120 -306.5zM762 367q52 -21 117 -21q177 0 297 125.5t120 306.5q0 57 -16 113z" />
<glyph unicode="&#xd9;" horiz-adv-x="1484" d="M213 561l145 873h408l-145 -875q-17 -100 31.5 -158.5t148.5 -58.5t168.5 58.5t85.5 158.5l145 875h408l-146 -873q-22 -132 -74.5 -238t-137.5 -185t-209.5 -122t-280.5 -43q-198 0 -332.5 75t-189 207.5t-25.5 305.5zM696 1798h404l82 -309h-301z" />
<glyph unicode="&#xda;" horiz-adv-x="1484" d="M213 561l145 873h408l-145 -875q-17 -100 31.5 -158.5t148.5 -58.5t168.5 58.5t85.5 158.5l145 875h408l-146 -873q-22 -132 -74.5 -238t-137.5 -185t-209.5 -122t-280.5 -43q-198 0 -332.5 75t-189 207.5t-25.5 305.5zM811 1489l184 309h410l-277 -309h-317z" />
<glyph unicode="&#xdb;" horiz-adv-x="1484" d="M213 561l145 873h408l-145 -875q-17 -100 31.5 -158.5t148.5 -58.5t168.5 58.5t85.5 158.5l145 875h408l-146 -873q-22 -132 -74.5 -238t-137.5 -185t-209.5 -122t-280.5 -43q-198 0 -332.5 75t-189 207.5t-25.5 305.5zM592 1493l252 309h401l150 -309h-326l-55 125 l-96 -125h-326z" />
<glyph unicode="&#xdc;" horiz-adv-x="1486" d="M213 561l145 873h408l-145 -875q-17 -100 31.5 -158.5t148.5 -58.5t168.5 58.5t85.5 158.5l145 875h408l-146 -873q-22 -132 -74.5 -238t-137.5 -185t-209.5 -122t-280.5 -43q-198 0 -332.5 75t-189 207.5t-25.5 305.5zM621 1640q0 79 60 138t146 59q69 0 110.5 -42 t41.5 -105q0 -80 -61 -138.5t-148 -58.5q-67 0 -108 42t-41 105zM1083 1638q0 81 58.5 140t146.5 59q68 0 109 -42t41 -105q0 -80 -60.5 -138.5t-146.5 -58.5q-68 0 -108 41.5t-40 103.5z" />
<glyph unicode="&#xdd;" horiz-adv-x="1318" d="M252 1434h446l119 -433l270 433h459l-577 -793l-107 -641h-405l106 641zM733 1489l185 309h409l-276 -309h-318z" />
<glyph unicode="&#xde;" horiz-adv-x="1232" d="M119 0l239 1434h408l-37 -228h191q188 0 298.5 -106.5t110.5 -284.5q0 -163 -73 -293.5t-203.5 -204t-294.5 -73.5h-191l-41 -244h-407zM625 592h129q73 0 112 47t39 117q0 49 -26 78.5t-74 29.5h-133z" />
<glyph unicode="&#xdf;" horiz-adv-x="1212" d="M90 0l184 1102q14 85 51.5 152t89.5 111t118.5 73t135 41t144.5 12q214 0 339.5 -92.5t125.5 -233.5q0 -56 -13.5 -101.5t-39.5 -78.5t-52.5 -55.5t-62.5 -44.5q156 -105 156 -314q0 -256 -193.5 -413.5t-517.5 -157.5l53 317q120 0 188 63.5t68 154.5q0 68 -50 108.5 t-144 40.5l49 299q182 0 182 107q0 32 -28 53.5t-78 21.5q-59 0 -90.5 -27t-36.5 -63l-181 -1075h-397z" />
<glyph unicode="&#xe0;" horiz-adv-x="1128" d="M82 279q0 186 138 301.5t358 115.5q114 0 184 -41l6 33q6 35 -28 60.5t-103 25.5q-121 0 -268 -61l-115 258q99 61 235 99t256 38q106 0 186.5 -24t128 -67t76.5 -101.5t31.5 -127.5t-8.5 -145l-108 -643h-357l-12 59q-99 -86 -270 -86q-140 0 -235 80.5t-95 225.5z M487 340q0 -35 30 -53.5t73 -18.5q50 0 89.5 25t39.5 67q0 36 -29.5 56t-73.5 20q-52 0 -90.5 -26t-38.5 -70zM487 1485h404l82 -309h-301z" />
<glyph unicode="&#xe1;" horiz-adv-x="1128" d="M82 279q0 186 138 301.5t358 115.5q114 0 184 -41l6 33q6 35 -28 60.5t-103 25.5q-121 0 -268 -61l-115 258q99 61 235 99t256 38q106 0 186.5 -24t128 -67t76.5 -101.5t31.5 -127.5t-8.5 -145l-108 -643h-357l-12 59q-99 -86 -270 -86q-140 0 -235 80.5t-95 225.5z M487 340q0 -35 30 -53.5t73 -18.5q50 0 89.5 25t39.5 67q0 36 -29.5 56t-73.5 20q-52 0 -90.5 -26t-38.5 -70zM582 1176l184 309h410l-277 -309h-317z" />
<glyph unicode="&#xe2;" horiz-adv-x="1128" d="M82 279q0 186 138 301.5t358 115.5q114 0 184 -41l6 33q6 35 -28 60.5t-103 25.5q-121 0 -268 -61l-115 258q99 61 235 99t256 38q106 0 186.5 -24t128 -67t76.5 -101.5t31.5 -127.5t-8.5 -145l-108 -643h-357l-12 59q-99 -86 -270 -86q-140 0 -235 80.5t-95 225.5z M354 1176l252 309h402l149 -309h-326l-55 124l-96 -124h-326zM487 340q0 -35 30 -53.5t73 -18.5q50 0 89.5 25t39.5 67q0 36 -29.5 56t-73.5 20q-52 0 -90.5 -26t-38.5 -70z" />
<glyph unicode="&#xe3;" horiz-adv-x="1128" d="M82 279q0 186 138 301.5t358 115.5q114 0 184 -41l6 33q6 35 -28 60.5t-103 25.5q-121 0 -268 -61l-115 258q99 61 235 99t256 38q106 0 186.5 -24t128 -67t76.5 -101.5t31.5 -127.5t-8.5 -145l-108 -643h-357l-12 59q-99 -86 -270 -86q-140 0 -235 80.5t-95 225.5z M348 1174q25 148 113 236.5t209 88.5q63 0 141 -30.5t102 -30.5q56 0 68 63h238q-24 -153 -109 -239t-207 -86q-63 0 -141.5 30.5t-102.5 30.5q-58 0 -67 -63h-244zM487 340q0 -35 30 -53.5t73 -18.5q50 0 89.5 25t39.5 67q0 36 -29.5 56t-73.5 20q-52 0 -90.5 -26 t-38.5 -70z" />
<glyph unicode="&#xe4;" horiz-adv-x="1128" d="M82 279q0 186 138 301.5t358 115.5q114 0 184 -41l6 33q6 35 -28 60.5t-103 25.5q-121 0 -268 -61l-115 258q99 61 235 99t256 38q106 0 186.5 -24t128 -67t76.5 -101.5t31.5 -127.5t-8.5 -145l-108 -643h-357l-12 59q-99 -86 -270 -86q-140 0 -235 80.5t-95 225.5z M377 1313q0 79 60 137.5t147 58.5q69 0 110 -42t41 -105q0 -80 -61 -138.5t-148 -58.5q-67 0 -108 42.5t-41 105.5zM487 340q0 -35 30 -53.5t73 -18.5q50 0 89.5 25t39.5 67q0 36 -29.5 56t-73.5 20q-52 0 -90.5 -26t-38.5 -70zM840 1311q0 81 58 139.5t146 58.5 q68 0 109 -42t41 -105q0 -80 -60.5 -138.5t-146.5 -58.5q-68 0 -107.5 42t-39.5 104z" />
<glyph unicode="&#xe5;" horiz-adv-x="1128" d="M82 279q0 186 138 301.5t358 115.5q114 0 184 -41l6 33q6 35 -28 60.5t-103 25.5q-121 0 -268 -61l-115 258q99 61 235 99t256 38q106 0 186.5 -24t128 -67t76.5 -101.5t31.5 -127.5t-8.5 -145l-108 -643h-357l-12 59q-99 -86 -270 -86q-140 0 -235 80.5t-95 225.5z M487 340q0 -35 30 -53.5t73 -18.5q50 0 89.5 25t39.5 67q0 36 -29.5 56t-73.5 20q-52 0 -90.5 -26t-38.5 -70zM539 1329q0 111 87.5 184.5t207.5 73.5q98 0 159.5 -54t61.5 -140q0 -111 -87.5 -184.5t-209.5 -73.5q-97 0 -158 54t-61 140zM725 1350q0 -29 15.5 -46.5 t43.5 -17.5q37 0 61.5 25t24.5 63q0 28 -16 45t-45 17q-35 0 -59.5 -24.5t-24.5 -61.5z" />
<glyph unicode="&#xe6;" horiz-adv-x="1763" d="M84 283q0 183 138 298t356 115q116 0 186 -41l6 33q7 36 -25 61t-102 25q-127 0 -274 -61l-105 258q95 61 228 99t253 38q208 0 316 -98q150 98 311 98q225 0 342 -123t117 -348q0 -81 -31 -201h-676q4 -63 48 -97t118 -34q67 0 126.5 32.5t84.5 63.5l240 -188 q-17 -26 -55 -61t-101.5 -78t-158 -72t-197.5 -29q-122 0 -217 40t-156 110q-143 -150 -401 -150q-158 0 -264.5 83t-106.5 227zM487 340q0 -35 30 -53.5t73 -18.5q51 0 90 24t39 68q0 36 -29.5 56t-73.5 20q-52 0 -90.5 -26t-38.5 -70zM1176 678h266q4 43 -25.5 80 t-89.5 37q-63 0 -102 -38t-49 -79z" />
<glyph unicode="&#xe7;" horiz-adv-x="995" d="M119 453q0 185 97.5 336.5t259 235t349.5 83.5q90 0 168.5 -24.5t128.5 -61.5l-159 -324q-76 62 -179 62q-121 0 -192.5 -76.5t-71.5 -181.5q0 -86 56 -136.5t147 -50.5q44 0 97 15.5t93 42.5l50 -318q-132 -79 -324 -82l-12 -39q60 -18 95.5 -61t35.5 -106 q0 -124 -89 -191.5t-227 -67.5q-42 0 -89 9.5t-70 19.5l79 178q35 -10 70 -10q38 0 57 13.5t19 35.5q0 23 -22.5 35t-55.5 12l-41 -4l66 199q-158 44 -247 165.5t-89 291.5z" />
<glyph unicode="&#xe8;" horiz-adv-x="1159" d="M123 467q0 172 82.5 318.5t231.5 234.5t331 88q225 0 341 -122.5t116 -348.5q0 -89 -29 -201h-676q4 -63 48 -97t118 -34q66 0 124.5 32t86.5 64l238 -188q-16 -25 -54 -60.5t-101 -78.5t-157.5 -72t-197.5 -29q-159 0 -274.5 67.5t-171.5 178t-56 248.5zM498 1485h403 l82 -309h-301zM569 678h267q4 44 -24.5 80.5t-88.5 36.5q-63 0 -102.5 -38t-51.5 -79z" />
<glyph unicode="&#xe9;" horiz-adv-x="1159" d="M123 467q0 172 82.5 318.5t231.5 234.5t331 88q225 0 341 -122.5t116 -348.5q0 -89 -29 -201h-676q4 -63 48 -97t118 -34q66 0 124.5 32t86.5 64l238 -188q-16 -25 -54 -60.5t-101 -78.5t-157.5 -72t-197.5 -29q-159 0 -274.5 67.5t-171.5 178t-56 248.5zM569 678h267 q4 44 -24.5 80.5t-88.5 36.5q-63 0 -102.5 -38t-51.5 -79zM592 1176l184 309h410l-277 -309h-317z" />
<glyph unicode="&#xea;" horiz-adv-x="1159" d="M123 467q0 172 82.5 318.5t231.5 234.5t331 88q225 0 341 -122.5t116 -348.5q0 -89 -29 -201h-676q4 -63 48 -97t118 -34q66 0 124.5 32t86.5 64l238 -188q-16 -25 -54 -60.5t-101 -78.5t-157.5 -72t-197.5 -29q-159 0 -274.5 67.5t-171.5 178t-56 248.5zM393 1176 l252 309h402l149 -309h-326l-55 124l-96 -124h-326zM569 678h267q4 44 -24.5 80.5t-88.5 36.5q-63 0 -102.5 -38t-51.5 -79z" />
<glyph unicode="&#xeb;" horiz-adv-x="1159" d="M123 467q0 172 82.5 318.5t231.5 234.5t331 88q225 0 341 -122.5t116 -348.5q0 -89 -29 -201h-676q4 -63 48 -97t118 -34q66 0 124.5 32t86.5 64l238 -188q-16 -25 -54 -60.5t-101 -78.5t-157.5 -72t-197.5 -29q-159 0 -274.5 67.5t-171.5 178t-56 248.5zM401 1313 q0 79 60 137.5t147 58.5q69 0 110.5 -42t41.5 -105q0 -80 -61 -138.5t-148 -58.5q-67 0 -108.5 42.5t-41.5 105.5zM569 678h267q4 44 -24.5 80.5t-88.5 36.5q-63 0 -102.5 -38t-51.5 -79zM864 1311q0 81 58.5 139.5t146.5 58.5q68 0 109 -42t41 -105q0 -80 -60.5 -138.5 t-146.5 -58.5q-68 0 -108 42t-40 104z" />
<glyph unicode="&#xec;" d="M90 0l180 1081h398l-181 -1081h-397zM201 1485h403l82 -309h-301z" />
<glyph unicode="&#xed;" d="M90 0l180 1081h398l-181 -1081h-397zM274 1176l185 309h409l-276 -309h-318z" />
<glyph unicode="&#xee;" d="M88 1176l252 309h401l150 -309h-326l-55 124l-96 -124h-326zM90 0l180 1081h398l-181 -1081h-397z" />
<glyph unicode="&#xef;" d="M90 0l180 1081h398l-181 -1081h-397zM109 1313q0 79 60 137.5t146 58.5q69 0 110.5 -42t41.5 -105q0 -80 -61 -138.5t-148 -58.5q-67 0 -108 42.5t-41 105.5zM571 1311q0 81 58.5 139.5t146.5 58.5q68 0 109 -42t41 -105q0 -80 -60.5 -138.5t-146.5 -58.5q-68 0 -108 42 t-40 104z" />
<glyph unicode="&#xf0;" horiz-adv-x="1224" d="M111 436q0 132 53.5 243t140.5 182.5t196 111t222 39.5q23 0 39 -2q-4 15 -19 44t-30 44l-348 -111l4 234l157 49q-36 34 -123 84l250 194q153 -57 271 -149l309 98l-6 -240l-131 -43q82 -99 137 -242t55 -296q0 -100 -25.5 -198t-80.5 -189.5t-133.5 -161.5t-194 -112 t-252.5 -42q-154 0 -267 63t-168.5 166.5t-55.5 233.5zM512 479q0 -72 39.5 -118t110.5 -46q95 0 155 70.5t60 167.5q0 68 -38.5 111t-111.5 43q-101 0 -158 -66t-57 -162z" />
<glyph unicode="&#xf1;" horiz-adv-x="1193" d="M90 0l180 1081h387l-16 -102q44 49 123 89t170 40q186 0 257.5 -108.5t39.5 -303.5l-117 -696h-397l106 637q10 59 -16 90t-78 31q-56 0 -90.5 -33t-42.5 -82l-109 -643h-397zM399 1174q25 148 113 236.5t209 88.5q63 0 141.5 -30.5t102.5 -30.5q55 0 67 63h238 q-24 -153 -109 -239t-207 -86q-63 0 -141 30.5t-102 30.5q-59 0 -68 -63h-244z" />
<glyph unicode="&#xf2;" horiz-adv-x="1277" d="M119 461q0 179 96.5 328.5t258 234t349.5 84.5q229 0 372.5 -137t143.5 -350q0 -135 -57 -256t-152.5 -206.5t-225 -135.5t-269.5 -50q-229 0 -372.5 137t-143.5 351zM520 500q0 -85 47 -135t125 -50q103 0 174.5 75t71.5 192q0 84 -46.5 135t-123.5 51 q-103 0 -175.5 -76t-72.5 -192zM557 1485h404l81 -309h-301z" />
<glyph unicode="&#xf3;" horiz-adv-x="1277" d="M119 461q0 179 96.5 328.5t258 234t349.5 84.5q229 0 372.5 -137t143.5 -350q0 -135 -57 -256t-152.5 -206.5t-225 -135.5t-269.5 -50q-229 0 -372.5 137t-143.5 351zM520 500q0 -85 47 -135t125 -50q103 0 174.5 75t71.5 192q0 84 -46.5 135t-123.5 51 q-103 0 -175.5 -76t-72.5 -192zM643 1176l184 309h410l-276 -309h-318z" />
<glyph unicode="&#xf4;" horiz-adv-x="1277" d="M119 461q0 179 96.5 328.5t258 234t349.5 84.5q229 0 372.5 -137t143.5 -350q0 -135 -57 -256t-152.5 -206.5t-225 -135.5t-269.5 -50q-229 0 -372.5 137t-143.5 351zM438 1176l252 309h402l149 -309h-326l-55 124l-96 -124h-326zM520 500q0 -85 47 -135t125 -50 q103 0 174.5 75t71.5 192q0 84 -46.5 135t-123.5 51q-103 0 -175.5 -76t-72.5 -192z" />
<glyph unicode="&#xf5;" horiz-adv-x="1277" d="M119 461q0 179 96.5 328.5t258 234t349.5 84.5q229 0 372.5 -137t143.5 -350q0 -135 -57 -256t-152.5 -206.5t-225 -135.5t-269.5 -50q-229 0 -372.5 137t-143.5 351zM426 1174q25 148 113 236.5t209 88.5q63 0 141 -30.5t102 -30.5q56 0 68 63h237q-24 -154 -109 -239.5 t-206 -85.5q-63 0 -141.5 30.5t-102.5 30.5q-58 0 -67 -63h-244zM520 500q0 -85 47 -135t125 -50q103 0 174.5 75t71.5 192q0 84 -46.5 135t-123.5 51q-103 0 -175.5 -76t-72.5 -192z" />
<glyph unicode="&#xf6;" horiz-adv-x="1277" d="M119 461q0 179 96.5 328.5t258 234t349.5 84.5q229 0 372.5 -137t143.5 -350q0 -135 -57 -256t-152.5 -206.5t-225 -135.5t-269.5 -50q-229 0 -372.5 137t-143.5 351zM463 1313q0 79 60 137.5t147 58.5q69 0 110 -42t41 -105q0 -80 -61 -138.5t-148 -58.5 q-67 0 -108 42.5t-41 105.5zM520 500q0 -85 47 -135t125 -50q103 0 174.5 75t71.5 192q0 84 -46.5 135t-123.5 51q-103 0 -175.5 -76t-72.5 -192zM926 1311q0 81 58 139.5t146 58.5q68 0 109 -42t41 -105q0 -80 -60.5 -138.5t-146.5 -58.5q-68 0 -107.5 42t-39.5 104z" />
<glyph unicode="&#xf7;" horiz-adv-x="1153" d="M154 485l51 308h1009l-51 -308h-1009zM422 193q0 85 65.5 147.5t153.5 62.5q71 0 114.5 -45.5t43.5 -113.5q0 -85 -65.5 -148t-153.5 -63q-70 0 -114 46t-44 114zM563 1034q0 85 65 148t154 63q69 0 113.5 -46.5t44.5 -113.5q0 -85 -65.5 -148t-153.5 -63q-70 0 -114 46 t-44 114z" />
<glyph unicode="&#xf8;" horiz-adv-x="1286" d="M119 461q0 179 96.5 328.5t258 234t349.5 84.5q150 0 269 -64l100 103l151 -133l-98 -101q94 -127 94 -292q0 -135 -57 -256t-152.5 -206.5t-225 -135.5t-269.5 -50q-136 0 -254 56l-105 -109l-151 133l96 101q-102 127 -102 307zM520 500q0 -27 2 -39l293 301 q-21 6 -47 6q-103 0 -175.5 -76t-72.5 -192zM664 317q8 -2 28 -2q103 0 174.5 75t71.5 192v16z" />
<glyph unicode="&#xf9;" horiz-adv-x="1185" d="M145 385l117 696h397l-106 -637q-10 -59 16 -89.5t78 -30.5q56 0 91.5 32.5t43.5 81.5l109 643h395l-180 -1081h-387l16 102q-42 -49 -121 -89t-170 -40q-186 0 -258.5 108.5t-40.5 303.5zM508 1485h403l82 -309h-301z" />
<glyph unicode="&#xfa;" horiz-adv-x="1185" d="M145 385l117 696h397l-106 -637q-10 -59 16 -89.5t78 -30.5q56 0 91.5 32.5t43.5 81.5l109 643h395l-180 -1081h-387l16 102q-42 -49 -121 -89t-170 -40q-186 0 -258.5 108.5t-40.5 303.5zM598 1176l184 309h410l-277 -309h-317z" />
<glyph unicode="&#xfb;" horiz-adv-x="1185" d="M145 385l117 696h397l-106 -637q-10 -59 16 -89.5t78 -30.5q56 0 91.5 32.5t43.5 81.5l109 643h395l-180 -1081h-387l16 102q-42 -49 -121 -89t-170 -40q-186 0 -258.5 108.5t-40.5 303.5zM395 1176l252 309h402l149 -309h-326l-55 124l-96 -124h-326z" />
<glyph unicode="&#xfc;" horiz-adv-x="1185" d="M145 385l117 696h397l-106 -637q-10 -59 16 -89.5t78 -30.5q56 0 91.5 32.5t43.5 81.5l109 643h395l-180 -1081h-387l16 102q-42 -49 -121 -89t-170 -40q-186 0 -258.5 108.5t-40.5 303.5zM410 1313q0 79 60 137.5t146 58.5q69 0 110.5 -42t41.5 -105q0 -80 -61 -138.5 t-148 -58.5q-67 0 -108 42.5t-41 105.5zM872 1311q0 81 58.5 139.5t146.5 58.5q68 0 109 -42t41 -105q0 -80 -60.5 -138.5t-146.5 -58.5q-68 0 -108 42t-40 104z" />
<glyph unicode="&#xfd;" horiz-adv-x="1185" d="M193 1081h419l64 -559l258 559h420l-774 -1448h-373l213 408zM608 1176l185 309h409l-276 -309h-318z" />
<glyph unicode="&#xfe;" horiz-adv-x="1310" d="M27 -383l311 1864h397l-78 -467q45 34 119.5 64t165.5 30q192 0 312 -129.5t120 -333.5q0 -141 -46 -265.5t-126.5 -214t-195.5 -141t-248 -51.5q-92 0 -157.5 30t-100.5 65l-76 -451h-397zM561 496q0 -86 44.5 -134.5t121.5 -48.5q109 0 176.5 78t67.5 195 q0 83 -44.5 131.5t-123.5 48.5q-110 0 -176 -79.5t-66 -190.5z" />
<glyph unicode="&#xff;" horiz-adv-x="1185" d="M193 1081h419l64 -559l258 559h420l-774 -1448h-373l213 408zM410 1313q0 79 60 137.5t146 58.5q69 0 110.5 -42t41.5 -105q0 -80 -61 -138.5t-148 -58.5q-67 0 -108 42.5t-41 105.5zM872 1311q0 81 58.5 139.5t146.5 58.5q68 0 109 -42t41 -105q0 -80 -60.5 -138.5 t-146.5 -58.5q-68 0 -108 42t-40 104z" />
<glyph unicode="&#x100;" horiz-adv-x="1437" d="M8 0l735 1434h431l256 -1434h-404l-41 274h-430l-131 -274h-416zM666 1518l45 274h608l-45 -274h-608zM707 600h237l-49 412z" />
<glyph unicode="&#x101;" horiz-adv-x="1128" d="M82 279q0 186 138 301.5t358 115.5q114 0 184 -41l6 33q6 35 -28 60.5t-103 25.5q-121 0 -268 -61l-115 258q99 61 235 99t256 38q106 0 186.5 -24t128 -67t76.5 -101.5t31.5 -127.5t-8.5 -145l-108 -643h-357l-12 59q-99 -86 -270 -86q-140 0 -235 80.5t-95 225.5z M471 1190l45 274h608l-45 -274h-608zM487 340q0 -35 30 -53.5t73 -18.5q50 0 89.5 25t39.5 67q0 36 -29.5 56t-73.5 20q-52 0 -90.5 -26t-38.5 -70z" />
<glyph unicode="&#x102;" horiz-adv-x="1437" d="M8 0l735 1434h431l256 -1434h-404l-41 274h-430l-131 -274h-416zM662 1833h266q-7 -43 7 -75t60 -32q48 0 74 32t33 75h282q-25 -147 -136.5 -235.5t-280.5 -88.5q-168 0 -249 88.5t-56 235.5zM707 600h237l-49 412z" />
<glyph unicode="&#x103;" horiz-adv-x="1128" d="M82 279q0 186 138 301.5t358 115.5q114 0 184 -41l6 33q6 35 -28 60.5t-103 25.5q-121 0 -268 -61l-115 258q99 61 235 99t256 38q106 0 186.5 -24t128 -67t76.5 -101.5t31.5 -127.5t-8.5 -145l-108 -643h-357l-12 59q-99 -86 -270 -86q-140 0 -235 80.5t-95 225.5z M463 1503h266q-7 -43 7.5 -74.5t60.5 -31.5q48 0 73.5 31.5t32.5 74.5h283q-25 -147 -136.5 -235t-281.5 -88q-168 0 -249 88t-56 235zM487 340q0 -35 30 -53.5t73 -18.5q50 0 89.5 25t39.5 67q0 36 -29.5 56t-73.5 20q-52 0 -90.5 -26t-38.5 -70z" />
<glyph unicode="&#x104;" horiz-adv-x="1437" d="M8 0l735 1434h431l256 -1434q-31 -8 -66 -40.5t-35 -74.5q0 -57 78 -57l-43 -258q-66 -19 -147 -19q-62 0 -113 16t-87 58.5t-36 106.5q0 52 22 98t58 79t69.5 54.5t69.5 36.5h-174l-41 274h-430l-131 -274h-416zM707 600h237l-49 412z" />
<glyph unicode="&#x105;" horiz-adv-x="1128" d="M82 279q0 186 138 301.5t358 115.5q114 0 184 -41l6 33q6 35 -28 60.5t-103 25.5q-121 0 -268 -61l-115 258q99 61 235 99t256 38q106 0 186.5 -24t128 -67t76.5 -101.5t31.5 -127.5t-8.5 -145l-108 -643q-31 -8 -66 -40.5t-35 -74.5q0 -57 78 -57l-43 -258 q-67 -19 -147 -19q-62 0 -113 16t-87 58.5t-36 106.5q0 52 22 98t58 79t69.5 54.5t69.5 36.5h-127l-12 59q-99 -86 -270 -86q-140 0 -235 80.5t-95 225.5zM487 340q0 -35 30 -53.5t73 -18.5q50 0 89.5 25t39.5 67q0 36 -29.5 56t-73.5 20q-52 0 -90.5 -26t-38.5 -70z" />
<glyph unicode="&#x106;" horiz-adv-x="1300" d="M156 608q0 171 69 327.5t187.5 272t287.5 184t359 68.5q125 0 234 -33.5t180 -89.5l-173 -356q-110 106 -282 106q-182 0 -306 -124.5t-124 -303.5q0 -138 82.5 -225.5t222.5 -87.5q167 0 319 107l54 -357q-91 -56 -210.5 -89.5t-244.5 -33.5q-152 0 -276.5 49 t-207 134.5t-127 201.5t-44.5 250zM844 1489l184 309h410l-277 -309h-317z" />
<glyph unicode="&#x107;" horiz-adv-x="995" d="M119 453q0 185 97.5 336.5t259 235t349.5 83.5q90 0 168.5 -24.5t128.5 -61.5l-159 -324q-76 62 -179 62q-121 0 -192.5 -76.5t-71.5 -181.5q0 -86 56 -136.5t147 -50.5q44 0 97 15.5t93 42.5l50 -318q-140 -82 -332 -82q-235 0 -373.5 132.5t-138.5 347.5zM616 1176 l185 309h409l-276 -309h-318z" />
<glyph unicode="&#x108;" horiz-adv-x="1300" d="M156 608q0 171 69 327.5t187.5 272t287.5 184t359 68.5q125 0 234 -33.5t180 -89.5l-173 -356q-110 106 -282 106q-182 0 -306 -124.5t-124 -303.5q0 -138 82.5 -225.5t222.5 -87.5q167 0 319 107l54 -357q-91 -56 -210.5 -89.5t-244.5 -33.5q-152 0 -276.5 49 t-207 134.5t-127 201.5t-44.5 250zM662 1493l251 309h402l149 -309h-325l-56 125l-96 -125h-325z" />
<glyph unicode="&#x109;" horiz-adv-x="995" d="M119 453q0 185 97.5 336.5t259 235t349.5 83.5q90 0 168.5 -24.5t128.5 -61.5l-159 -324q-76 62 -179 62q-121 0 -192.5 -76.5t-71.5 -181.5q0 -86 56 -136.5t147 -50.5q44 0 97 15.5t93 42.5l50 -318q-140 -82 -332 -82q-235 0 -373.5 132.5t-138.5 347.5zM412 1176 l252 309h401l149 -309h-325l-55 124l-97 -124h-325z" />
<glyph unicode="&#x10a;" horiz-adv-x="1300" d="M156 608q0 171 69 327.5t187.5 272t287.5 184t359 68.5q125 0 234 -33.5t180 -89.5l-173 -356q-110 106 -282 106q-182 0 -306 -124.5t-124 -303.5q0 -138 82.5 -225.5t222.5 -87.5q167 0 319 107l54 -357q-91 -56 -210.5 -89.5t-244.5 -33.5q-152 0 -276.5 49 t-207 134.5t-127 201.5t-44.5 250zM915 1651q0 80 63 139t144 59q64 0 106 -43t42 -106q0 -81 -63 -140t-144 -59q-64 0 -106 43t-42 107z" />
<glyph unicode="&#x10b;" horiz-adv-x="995" d="M119 453q0 185 97.5 336.5t259 235t349.5 83.5q90 0 168.5 -24.5t128.5 -61.5l-159 -324q-76 62 -179 62q-121 0 -192.5 -76.5t-71.5 -181.5q0 -86 56 -136.5t147 -50.5q44 0 97 15.5t93 42.5l50 -318q-140 -82 -332 -82q-235 0 -373.5 132.5t-138.5 347.5zM682 1317 q0 81 63 140t144 59q64 0 105.5 -43t41.5 -107q0 -81 -63 -140t-144 -59q-64 0 -105.5 43t-41.5 107z" />
<glyph unicode="&#x10c;" horiz-adv-x="1300" d="M156 608q0 171 69 327.5t187.5 272t287.5 184t359 68.5q125 0 234 -33.5t180 -89.5l-173 -356q-110 106 -282 106q-182 0 -306 -124.5t-124 -303.5q0 -138 82.5 -225.5t222.5 -87.5q167 0 319 107l54 -357q-91 -56 -210.5 -89.5t-244.5 -33.5q-152 0 -276.5 49 t-207 134.5t-127 201.5t-44.5 250zM723 1802h319l56 -125l96 125h332l-252 -309h-402z" />
<glyph unicode="&#x10d;" horiz-adv-x="995" d="M119 453q0 185 97.5 336.5t259 235t349.5 83.5q90 0 168.5 -24.5t128.5 -61.5l-159 -324q-76 62 -179 62q-121 0 -192.5 -76.5t-71.5 -181.5q0 -86 56 -136.5t147 -50.5q44 0 97 15.5t93 42.5l50 -318q-140 -82 -332 -82q-235 0 -373.5 132.5t-138.5 347.5zM469 1485h319 l56 -125l96 125h332l-252 -309h-402z" />
<glyph unicode="&#x10e;" horiz-adv-x="1400" d="M119 0l239 1434h467q307 0 483.5 -158.5t176.5 -437.5q0 -249 -115 -440.5t-319 -294.5t-465 -103h-467zM506 1802h319l56 -125l96 125h332l-252 -309h-402zM584 344h51q189 0 305.5 118.5t116.5 332.5q0 144 -79.5 219.5t-217.5 75.5h-51z" />
<glyph unicode="&#x10f;" horiz-adv-x="1312" d="M119 446q0 184 77.5 335t219 239t317.5 88q92 0 157.5 -29.5t100.5 -64.5l80 467h397l-247 -1481h-369l10 70q-43 -38 -120 -67.5t-173 -29.5q-205 0 -327.5 131t-122.5 342zM522 496q0 -84 43 -132.5t123 -48.5q110 0 176 80t66 191q0 86 -44.5 134t-121.5 48 q-109 0 -175.5 -77t-66.5 -195zM1501 1124l74 357h285l-162 -357h-197z" />
<glyph unicode="&#x110;" horiz-adv-x="1437" d="M135 545l58 348h110l92 541h467q307 0 482.5 -158.5t175.5 -437.5q0 -187 -67 -344t-185.5 -265t-285 -168.5t-361.5 -60.5h-467l92 545h-111zM621 344h51q189 0 304.5 118.5t115.5 332.5q0 145 -78 220t-217 75h-52l-34 -197h174l-58 -348h-174z" />
<glyph unicode="&#x111;" horiz-adv-x="1343" d="M119 446q0 184 77.5 335t219 239t317.5 88q92 0 157.5 -29.5t100.5 -64.5l25 141h-256l39 236h256l16 90h397l-16 -90h90l-39 -236h-90l-192 -1155h-369l10 70q-43 -38 -120 -67.5t-173 -29.5q-205 0 -327.5 131t-122.5 342zM522 496q0 -84 43 -132.5t123 -48.5 q110 0 176 80t66 191q0 86 -44.5 134t-121.5 48q-109 0 -175.5 -77t-66.5 -195z" />
<glyph unicode="&#x112;" horiz-adv-x="1019" d="M119 0l239 1434h803l-59 -357h-395l-29 -176h334l-60 -354h-334l-32 -191h411l-59 -356h-819zM483 1518l45 274h609l-45 -274h-609z" />
<glyph unicode="&#x113;" horiz-adv-x="1159" d="M123 467q0 172 82.5 318.5t231.5 234.5t331 88q225 0 341 -122.5t116 -348.5q0 -89 -29 -201h-676q4 -63 48 -97t118 -34q66 0 124.5 32t86.5 64l238 -188q-16 -25 -54 -60.5t-101 -78.5t-157.5 -72t-197.5 -29q-159 0 -274.5 67.5t-171.5 178t-56 248.5zM489 1190 l46 274h608l-45 -274h-609zM569 678h267q4 44 -24.5 80.5t-88.5 36.5q-63 0 -102.5 -38t-51.5 -79z" />
<glyph unicode="&#x114;" horiz-adv-x="1019" d="M119 0l239 1434h803l-59 -357h-395l-29 -176h334l-60 -354h-334l-32 -191h411l-59 -356h-819zM475 1833h266q-7 -43 7.5 -75t60.5 -32q47 0 73 32t33 75h283q-25 -147 -137 -235.5t-281 -88.5q-168 0 -249 88.5t-56 235.5z" />
<glyph unicode="&#x115;" horiz-adv-x="1159" d="M123 467q0 172 82.5 318.5t231.5 234.5t331 88q225 0 341 -122.5t116 -348.5q0 -89 -29 -201h-676q4 -63 48 -97t118 -34q66 0 124.5 32t86.5 64l238 -188q-16 -25 -54 -60.5t-101 -78.5t-157.5 -72t-197.5 -29q-159 0 -274.5 67.5t-171.5 178t-56 248.5zM492 1503h266 q-7 -43 7 -74.5t60 -31.5q48 0 74 31.5t33 74.5h282q-25 -147 -136.5 -235t-280.5 -88q-168 0 -249 88t-56 235zM569 678h267q4 44 -24.5 80.5t-88.5 36.5q-63 0 -102.5 -38t-51.5 -79z" />
<glyph unicode="&#x116;" horiz-adv-x="1019" d="M119 0l239 1434h803l-59 -357h-395l-29 -176h334l-60 -354h-334l-32 -191h411l-59 -356h-819zM635 1651q0 80 63 139t144 59q64 0 105.5 -42.5t41.5 -106.5q0 -81 -63 -140t-144 -59q-64 0 -105.5 43t-41.5 107z" />
<glyph unicode="&#x117;" horiz-adv-x="1159" d="M123 467q0 172 82.5 318.5t231.5 234.5t331 88q225 0 341 -122.5t116 -348.5q0 -89 -29 -201h-676q4 -63 48 -97t118 -34q66 0 124.5 32t86.5 64l238 -188q-16 -25 -54 -60.5t-101 -78.5t-157.5 -72t-197.5 -29q-159 0 -274.5 67.5t-171.5 178t-56 248.5zM569 678h267 q4 44 -24.5 80.5t-88.5 36.5q-63 0 -102.5 -38t-51.5 -79zM639 1317q0 81 63 140t144 59q64 0 105.5 -43t41.5 -107q0 -81 -63 -140t-144 -59q-64 0 -105.5 43t-41.5 107z" />
<glyph unicode="&#x118;" horiz-adv-x="1019" d="M119 0l239 1434h803l-59 -357h-395l-29 -176h334l-60 -354h-334l-32 -191h411l-59 -356q-31 -8 -65.5 -40.5t-34.5 -74.5q0 -57 77 -57l-43 -260q-74 -17 -147 -17q-62 0 -113 16t-87 58.5t-36 106.5q0 52 22 98t58 79t70 54.5t70 36.5h-590z" />
<glyph unicode="&#x119;" horiz-adv-x="1159" d="M123 467q0 172 82.5 318.5t231.5 234.5t331 88q225 0 341 -122.5t116 -348.5q0 -89 -29 -201h-676q4 -63 48 -97t118 -34q66 0 124.5 32t86.5 64l238 -188q-18 -27 -55 -63t-113 -82.5t-162 -69.5q-32 -11 -62 -42t-30 -71q0 -57 78 -57l-43 -258q-67 -19 -148 -19 q-62 0 -112.5 16t-86.5 58.5t-36 106.5q0 83 51 145.5t123 102.5q-198 24 -307 159t-109 328zM569 678h267q4 44 -24.5 80.5t-88.5 36.5q-63 0 -102.5 -38t-51.5 -79z" />
<glyph unicode="&#x11a;" horiz-adv-x="1019" d="M119 0l239 1434h803l-59 -357h-395l-29 -176h334l-60 -354h-334l-32 -191h411l-59 -356h-819zM424 1802h319l56 -125l96 125h332l-252 -309h-402z" />
<glyph unicode="&#x11b;" horiz-adv-x="1159" d="M123 467q0 172 82.5 318.5t231.5 234.5t331 88q225 0 341 -122.5t116 -348.5q0 -89 -29 -201h-676q4 -63 48 -97t118 -34q66 0 124.5 32t86.5 64l238 -188q-16 -25 -54 -60.5t-101 -78.5t-157.5 -72t-197.5 -29q-159 0 -274.5 67.5t-171.5 178t-56 248.5zM438 1485h320 l55 -125l96 125h332l-252 -309h-401zM569 678h267q4 44 -24.5 80.5t-88.5 36.5q-63 0 -102.5 -38t-51.5 -79z" />
<glyph unicode="&#x11c;" horiz-adv-x="1570" d="M156 608q0 171 69 327.5t187.5 272t287.5 184t359 68.5q118 0 217.5 -26.5t165.5 -69.5t106.5 -82.5t67.5 -81.5l-301 -262q-20 29 -40.5 50t-56 46.5t-86.5 39t-114 13.5q-182 0 -306 -123.5t-124 -301.5q0 -140 85.5 -228t233.5 -88q106 0 178.5 21t108.5 47l12 80 h-231l57 333h604l-106 -630q-79 -52 -134.5 -83t-144 -68t-194 -55t-230.5 -18q-202 0 -356 84.5t-234.5 228t-80.5 322.5zM680 1493l252 309h401l150 -309h-326l-55 125l-96 -125h-326z" />
<glyph unicode="&#x11d;" horiz-adv-x="1300" d="M121 451q0 138 45.5 259.5t126 209t195 138t247.5 50.5q93 0 158.5 -29t99.5 -65l13 67h397l-158 -944q-20 -118 -67 -210.5t-111 -152t-147.5 -97.5t-170.5 -54t-186 -16q-246 0 -418 88l152 299q153 -68 285 -68q101 0 171 27t81 88l4 22q-109 -81 -265 -81 q-207 0 -329.5 130t-122.5 339zM449 1176l251 309h402l149 -309h-325l-56 124l-96 -124h-325zM524 502q0 -81 44 -129.5t124 -48.5q109 0 174.5 78t65.5 186q0 84 -44.5 132t-121.5 48q-108 0 -175 -76.5t-67 -189.5z" />
<glyph unicode="&#x11e;" horiz-adv-x="1570" d="M156 608q0 171 69 327.5t187.5 272t287.5 184t359 68.5q118 0 217.5 -26.5t165.5 -69.5t106.5 -82.5t67.5 -81.5l-301 -262q-20 29 -40.5 50t-56 46.5t-86.5 39t-114 13.5q-182 0 -306 -123.5t-124 -301.5q0 -140 85.5 -228t233.5 -88q106 0 178.5 21t108.5 47l12 80 h-231l57 333h604l-106 -630q-79 -52 -134.5 -83t-144 -68t-194 -55t-230.5 -18q-202 0 -356 84.5t-234.5 228t-80.5 322.5zM776 1833h266q-7 -43 7.5 -75t60.5 -32q48 0 74 32t33 75h282q-25 -147 -137 -235.5t-281 -88.5q-168 0 -249 88.5t-56 235.5z" />
<glyph unicode="&#x11f;" horiz-adv-x="1300" d="M121 451q0 138 45.5 259.5t126 209t195 138t247.5 50.5q93 0 158.5 -29t99.5 -65l13 67h397l-158 -944q-20 -118 -67 -210.5t-111 -152t-147.5 -97.5t-170.5 -54t-186 -16q-246 0 -418 88l152 299q153 -68 285 -68q101 0 171 27t81 88l4 22q-109 -81 -265 -81 q-207 0 -329.5 130t-122.5 339zM524 502q0 -81 44 -129.5t124 -48.5q109 0 174.5 78t65.5 186q0 84 -44.5 132t-121.5 48q-108 0 -175 -76.5t-67 -189.5zM541 1503h266q-7 -43 7 -74.5t60 -31.5q48 0 74 31.5t33 74.5h283q-25 -147 -136.5 -235t-281.5 -88q-168 0 -249 88 t-56 235z" />
<glyph unicode="&#x120;" horiz-adv-x="1570" d="M156 608q0 171 69 327.5t187.5 272t287.5 184t359 68.5q118 0 217.5 -26.5t165.5 -69.5t106.5 -82.5t67.5 -81.5l-301 -262q-20 29 -40.5 50t-56 46.5t-86.5 39t-114 13.5q-182 0 -306 -123.5t-124 -301.5q0 -140 85.5 -228t233.5 -88q106 0 178.5 21t108.5 47l12 80 h-231l57 333h604l-106 -630q-79 -52 -134.5 -83t-144 -68t-194 -55t-230.5 -18q-202 0 -356 84.5t-234.5 228t-80.5 322.5zM946 1651q0 80 63 139t144 59q64 0 105.5 -42.5t41.5 -106.5q0 -81 -62.5 -140t-143.5 -59q-64 0 -106 43t-42 107z" />
<glyph unicode="&#x121;" horiz-adv-x="1300" d="M121 451q0 138 45.5 259.5t126 209t195 138t247.5 50.5q93 0 158.5 -29t99.5 -65l13 67h397l-158 -944q-20 -118 -67 -210.5t-111 -152t-147.5 -97.5t-170.5 -54t-186 -16q-246 0 -418 88l152 299q153 -68 285 -68q101 0 171 27t81 88l4 22q-109 -81 -265 -81 q-207 0 -329.5 130t-122.5 339zM524 502q0 -81 44 -129.5t124 -48.5q109 0 174.5 78t65.5 186q0 84 -44.5 132t-121.5 48q-108 0 -175 -76.5t-67 -189.5zM698 1317q0 81 63 140t144 59q64 0 106 -43t42 -107q0 -81 -63 -140t-144 -59q-64 0 -106 43t-42 107z" />
<glyph unicode="&#x122;" horiz-adv-x="1570" d="M156 608q0 171 69 327.5t187.5 272t287.5 184t359 68.5q118 0 217.5 -26.5t165.5 -69.5t106.5 -82.5t67.5 -81.5l-301 -262q-20 29 -40.5 50t-56 46.5t-86.5 39t-114 13.5q-182 0 -306 -123.5t-124 -301.5q0 -140 85.5 -228t233.5 -88q106 0 178.5 21t108.5 47l12 80 h-231l57 333h604l-106 -630q-79 -52 -134.5 -83t-144 -68t-194 -55t-230.5 -18q-202 0 -356 84.5t-234.5 228t-80.5 322.5zM567 -555q92 57 133 129q-59 14 -88.5 58t-29.5 100q0 88 70 152.5t161 64.5q80 0 127 -50t47 -135q0 -124 -91.5 -254.5t-225.5 -205.5z" />
<glyph unicode="&#x123;" horiz-adv-x="1300" d="M121 451q0 138 45.5 259.5t126 209t195 138t247.5 50.5q93 0 158.5 -29t99.5 -65l13 67h397l-158 -944q-20 -118 -67 -210.5t-111 -152t-147.5 -97.5t-170.5 -54t-186 -16q-246 0 -418 88l152 299q153 -68 285 -68q101 0 171 27t81 88l4 22q-109 -81 -265 -81 q-207 0 -329.5 130t-122.5 339zM524 502q0 -81 44 -129.5t124 -48.5q109 0 174.5 78t65.5 186q0 84 -44.5 132t-121.5 48q-108 0 -175 -76.5t-67 -189.5zM653 1341q0 124 92 255t226 206l102 -141q-92 -57 -133 -129q59 -14 89 -58t30 -100q0 -88 -70.5 -152.5t-161.5 -64.5 q-80 0 -127 49.5t-47 134.5z" />
<glyph unicode="&#x124;" horiz-adv-x="1507" d="M119 0l239 1434h408l-90 -539h454l91 539h407l-239 -1434h-408l90 537h-455l-90 -537h-407zM612 1493l252 309h402l149 -309h-325l-56 125l-96 -125h-326z" />
<glyph unicode="&#x125;" horiz-adv-x="1198" d="M90 0l248 1481h397l-82 -490q45 47 118 82t157 35q189 0 264 -108t43 -302l-117 -698h-397l106 637q10 59 -17 90t-79 31q-56 0 -91.5 -33t-43.5 -82l-109 -643h-397zM485 1532l252 309h402l149 -309h-325l-56 125l-96 -125h-326z" />
<glyph unicode="&#x126;" horiz-adv-x="1507" d="M119 0l174 1038h-113l43 260h113l22 136h408l-23 -136h455l23 136h407l-22 -136h112l-43 -260h-112l-174 -1038h-408l90 537h-455l-90 -537h-407zM676 895h454l25 143h-455z" />
<glyph unicode="&#x127;" horiz-adv-x="1214" d="M106 0l193 1155h-86l41 236h84l16 90h398l-17 -90h277l-41 -236h-275l-26 -164q45 47 117.5 82t156.5 35q189 0 264 -108t43 -302l-116 -698h-398l107 637q10 59 -17 90t-79 31q-56 0 -92 -33t-44 -82l-108 -643h-398z" />
<glyph unicode="&#x128;" horiz-adv-x="645" d="M119 0l239 1434h408l-240 -1434h-407zM164 1495q25 149 112.5 237.5t208.5 88.5q63 0 141.5 -31t102.5 -31q56 0 68 64h237q-25 -154 -109.5 -240t-205.5 -86q-63 0 -141.5 31t-102.5 31q-58 0 -67 -64h-244z" />
<glyph unicode="&#x129;" d="M76 1174q25 148 112.5 236.5t208.5 88.5q63 0 141.5 -30.5t102.5 -30.5q56 0 68 63h237q-24 -154 -109 -239.5t-206 -85.5q-63 0 -141.5 30.5t-102.5 30.5q-59 0 -68 -63h-243zM90 0l180 1081h398l-181 -1081h-397z" />
<glyph unicode="&#x12a;" horiz-adv-x="645" d="M119 0l239 1434h408l-240 -1434h-407zM276 1518l46 274h608l-45 -274h-609z" />
<glyph unicode="&#x12b;" d="M90 0l180 1081h398l-181 -1081h-397zM184 1190l45 274h609l-45 -274h-609z" />
<glyph unicode="&#x12c;" horiz-adv-x="645" d="M119 0l239 1434h408l-240 -1434h-407zM276 1833h267q-7 -43 7 -75t60 -32q48 0 74 32t33 75h282q-25 -147 -136.5 -235.5t-280.5 -88.5q-168 0 -249.5 88.5t-56.5 235.5z" />
<glyph unicode="&#x12d;" d="M90 0l180 1081h398l-181 -1081h-397zM184 1503h267q-7 -43 7 -74.5t60 -31.5q48 0 74 31.5t33 74.5h282q-25 -147 -136.5 -235t-281.5 -88q-168 0 -249 88t-56 235z" />
<glyph unicode="&#x12e;" horiz-adv-x="645" d="M78 -268q0 52 22 98t58 79t69.5 54.5t69.5 36.5h-178l239 1434h408l-240 -1434q-31 -8 -65.5 -40.5t-34.5 -74.5q0 -57 78 -57l-43 -260q-74 -17 -148 -17q-62 0 -112.5 16t-86.5 58.5t-36 106.5z" />
<glyph unicode="&#x12f;" d="M41 -268q0 52 22 98t58 79t69.5 54.5t69.5 36.5h-170l180 1081h398l-181 -1081q-30 -8 -64 -40.5t-34 -74.5q0 -57 78 -57l-43 -260q-74 -17 -148 -17q-62 0 -112.5 16t-86.5 58.5t-36 106.5zM285 1307q0 99 79 173t181 74q82 0 136 -55t54 -135q0 -97 -81 -171.5 t-183 -74.5q-82 0 -134 54.5t-52 134.5z" />
<glyph unicode="&#x130;" horiz-adv-x="645" d="M119 0l239 1434h408l-240 -1434h-407zM434 1651q0 80 63 139t144 59q64 0 105.5 -42.5t41.5 -106.5q0 -81 -62.5 -140t-143.5 -59q-64 0 -106 43t-42 107z" />
<glyph unicode="&#x131;" d="M90 0l180 1081h398l-181 -1081h-397z" />
<glyph unicode="&#x132;" horiz-adv-x="1482" d="M119 0l239 1434h408l-240 -1434h-407zM686 10l109 352q54 -8 104 -8q59 0 93.5 32.5t41.5 76.5l162 971h410l-176 -1049q-15 -89 -50.5 -158t-84 -113.5t-112 -73t-130.5 -40.5t-144 -12q-139 0 -223 22z" />
<glyph unicode="&#x133;" horiz-adv-x="1155" d="M90 0l180 1081h398l-181 -1081h-397zM299 1315q0 94 74.5 159.5t173.5 65.5q78 0 130 -48.5t52 -123.5q0 -93 -75 -158t-173 -65q-79 0 -130.5 48t-51.5 122zM426 -385l53 324q26 -2 51 -2q62 0 99 26.5t45 73.5l176 1044h397l-180 -1077q-66 -397 -559 -397q-42 0 -82 8 zM879 1315q0 94 73.5 159.5t171.5 65.5q80 0 131.5 -48.5t51.5 -123.5q0 -93 -74.5 -158t-173.5 -65q-78 0 -129 48t-51 122z" />
<glyph unicode="&#x134;" horiz-adv-x="837" d="M39 10l108 352q54 -8 105 -8q59 0 93.5 32.5t41.5 76.5l162 971h409l-176 -1049q-15 -89 -50.5 -158t-83.5 -113.5t-111.5 -73t-130.5 -40.5t-144 -12q-139 0 -223 22zM346 1493l252 309h401l150 -309h-326l-55 125l-96 -125h-326z" />
<glyph unicode="&#x135;" d="M-152 -385l54 324q26 -2 51 -2q62 0 98.5 26.5t44.5 73.5l176 1044h398l-181 -1077q-66 -397 -559 -397q-42 0 -82 8zM86 1176l252 309h401l150 -309h-326l-55 124l-96 -124h-326z" />
<glyph unicode="&#x136;" horiz-adv-x="1378" d="M119 0l239 1434h408l-96 -574l458 574h463l-592 -723l369 -711h-461l-282 586l-99 -586h-407zM449 -555q92 57 133 129q-59 14 -89 58t-30 100q0 88 70 152.5t161 64.5q80 0 127 -50t47 -135q0 -124 -91.5 -254.5t-225.5 -205.5z" />
<glyph unicode="&#x137;" horiz-adv-x="1210" d="M90 0l248 1481h397l-137 -819l320 419h448l-422 -528l270 -553h-438l-209 477l-80 -477h-397zM348 -555q92 57 133 129q-59 14 -89 58t-30 100q0 88 70.5 152.5t161.5 64.5q80 0 127 -50t47 -135q0 -124 -91.5 -254.5t-225.5 -205.5z" />
<glyph unicode="&#x138;" horiz-adv-x="1214" d="M90 0l180 1081h398l-70 -419l320 419h448l-422 -528l270 -553h-438l-209 477l-80 -477h-397z" />
<glyph unicode="&#x139;" horiz-adv-x="960" d="M119 0l239 1434h408l-180 -1078h411l-59 -356h-819zM406 1489l184 309h409l-276 -309h-317z" />
<glyph unicode="&#x13a;" d="M90 0l248 1481h397l-248 -1481h-397zM381 1526l184 309h410l-277 -309h-317z" />
<glyph unicode="&#x13b;" horiz-adv-x="960" d="M119 0l239 1434h408l-180 -1078h411l-59 -356h-819zM258 -555q92 57 133 129q-59 14 -89 58t-30 100q0 88 70.5 152.5t161.5 64.5q80 0 127 -50t47 -135q0 -124 -92 -254.5t-226 -205.5z" />
<glyph unicode="&#x13c;" d="M33 -555q92 57 133 129q-59 14 -89 58t-30 100q0 88 70.5 152.5t161.5 64.5q80 0 127 -50t47 -135q0 -124 -92 -254.5t-226 -205.5zM90 0l248 1481h397l-248 -1481h-397z" />
<glyph unicode="&#x13d;" horiz-adv-x="960" d="M119 0l239 1434h408l-180 -1078h411l-59 -356h-819zM831 1077l74 357h285l-162 -357h-197z" />
<glyph unicode="&#x13e;" d="M90 0l248 1481h397l-248 -1481h-397zM760 1124l74 357h284l-162 -357h-196z" />
<glyph unicode="&#x13f;" horiz-adv-x="1017" d="M119 0l239 1434h408l-180 -1078h411l-59 -356h-819zM723 723q0 105 81 182.5t191 77.5q88 0 142.5 -56t54.5 -141q0 -104 -81 -181t-191 -77q-87 0 -142 56.5t-55 138.5z" />
<glyph unicode="&#x140;" horiz-adv-x="1032" d="M90 0l248 1481h397l-248 -1481h-397zM717 745q0 105 81 183t191 78q88 0 142.5 -56t54.5 -141q0 -104 -81.5 -181t-191.5 -77q-87 0 -141.5 56t-54.5 138z" />
<glyph unicode="&#x141;" horiz-adv-x="985" d="M82 309l61 363l123 71l117 691h408l-82 -486l213 103l-64 -375l-211 -103l-37 -217h412l-59 -356h-820l62 375z" />
<glyph unicode="&#x142;" horiz-adv-x="665" d="M102 389l62 367l110 53l113 672h397l-73 -449l123 62l-64 -373l-123 -62l-110 -659h-398l74 442z" />
<glyph unicode="&#x143;" horiz-adv-x="1515" d="M119 0l239 1434h416l326 -813l135 813h401l-239 -1434h-406l-340 801l-133 -801h-399zM831 1489l185 309h409l-276 -309h-318z" />
<glyph unicode="&#x144;" horiz-adv-x="1193" d="M90 0l180 1081h387l-16 -102q44 49 123 89t170 40q186 0 257.5 -108.5t39.5 -303.5l-117 -696h-397l106 637q10 59 -16 90t-78 31q-56 0 -90.5 -33t-42.5 -82l-109 -643h-397zM621 1176l184 309h409l-276 -309h-317z" />
<glyph unicode="&#x145;" horiz-adv-x="1507" d="M119 0l239 1434h416l326 -813l135 813h401l-239 -1434h-406l-340 801l-133 -801h-399zM508 -555q92 57 133 129q-59 14 -89 58t-30 100q0 88 70.5 152.5t161.5 64.5q80 0 127 -50t47 -135q0 -124 -92 -254.5t-226 -205.5z" />
<glyph unicode="&#x146;" horiz-adv-x="1193" d="M90 0l180 1081h387l-16 -102q44 49 123 89t170 40q186 0 257.5 -108.5t39.5 -303.5l-117 -696h-397l106 637q10 59 -16 90t-78 31q-56 0 -90.5 -33t-42.5 -82l-109 -643h-397zM350 -555q92 57 133 129q-59 14 -88.5 58t-29.5 100q0 88 70 152.5t161 64.5q80 0 127 -50 t47 -135q0 -124 -91.5 -254.5t-225.5 -205.5z" />
<glyph unicode="&#x147;" horiz-adv-x="1515" d="M119 0l239 1434h416l326 -813l135 813h401l-239 -1434h-406l-340 801l-133 -801h-399zM676 1802h319l56 -125l96 125h332l-252 -309h-402z" />
<glyph unicode="&#x148;" horiz-adv-x="1193" d="M90 0l180 1081h387l-16 -102q44 49 123 89t170 40q186 0 257.5 -108.5t39.5 -303.5l-117 -696h-397l106 637q10 59 -16 90t-78 31q-56 0 -90.5 -33t-42.5 -82l-109 -643h-397zM436 1485h320l55 -125l96 125h332l-252 -309h-401z" />
<glyph unicode="&#x149;" horiz-adv-x="1433" d="M102 1010q93 58 134 129q-59 14 -89 58t-30 99q0 88 70 152.5t161 64.5q80 0 127 -49.5t47 -134.5q0 -124 -91.5 -255t-225.5 -206zM328 0l180 1081h387l-16 -102q44 50 122.5 89.5t169.5 39.5q186 0 257.5 -108.5t39.5 -303.5l-116 -696h-398l107 637q10 59 -16 90 t-78 31q-56 0 -90.5 -33t-42.5 -82l-109 -643h-397z" />
<glyph unicode="&#x14a;" horiz-adv-x="1507" d="M119 0l239 1434h416l326 -813l135 813h401l-243 -1452q-67 -398 -512 -398q-129 0 -217 23l106 342q62 -10 117 -10q51 0 77 15.5t33 53.5l-346 793l-133 -801h-399z" />
<glyph unicode="&#x14b;" horiz-adv-x="1193" d="M90 0l180 1081h387l-16 -102q44 49 123 89t170 40q186 0 257.5 -108.5t39.5 -303.5l-117 -696q-17 -105 -66.5 -182t-125 -122.5t-166 -67t-199.5 -21.5q-50 0 -82 8l53 324q27 -2 52 -2q62 0 98.5 26.5t44.5 73.5l100 600q10 59 -16 90t-78 31q-56 0 -90.5 -33 t-42.5 -82l-109 -643h-397z" />
<glyph unicode="&#x14c;" horiz-adv-x="1642" d="M156 606q0 173 68.5 329.5t187.5 272t289 184t364 68.5q155 0 281 -48.5t208.5 -133.5t127 -200t44.5 -249q0 -174 -68.5 -331.5t-187.5 -273t-289 -183.5t-364 -68q-154 0 -280 48.5t-208.5 133.5t-127.5 200.5t-45 250.5zM588 655q0 -137 78.5 -223t212.5 -86 q177 0 297 125.5t120 306.5q0 135 -78.5 222t-213.5 87q-176 0 -296 -125.5t-120 -306.5zM770 1518l45 274h608l-45 -274h-608z" />
<glyph unicode="&#x14d;" horiz-adv-x="1277" d="M119 461q0 179 96.5 328.5t258 234t349.5 84.5q229 0 372.5 -137t143.5 -350q0 -135 -57 -256t-152.5 -206.5t-225 -135.5t-269.5 -50q-229 0 -372.5 137t-143.5 351zM520 500q0 -85 47 -135t125 -50q103 0 174.5 75t71.5 192q0 84 -46.5 135t-123.5 51 q-103 0 -175.5 -76t-72.5 -192zM541 1190l45 274h608l-45 -274h-608z" />
<glyph unicode="&#x14e;" horiz-adv-x="1642" d="M156 606q0 173 68.5 329.5t187.5 272t289 184t364 68.5q155 0 281 -48.5t208.5 -133.5t127 -200t44.5 -249q0 -174 -68.5 -331.5t-187.5 -273t-289 -183.5t-364 -68q-154 0 -280 48.5t-208.5 133.5t-127.5 200.5t-45 250.5zM588 655q0 -137 78.5 -223t212.5 -86 q177 0 297 125.5t120 306.5q0 135 -78.5 222t-213.5 87q-176 0 -296 -125.5t-120 -306.5zM770 1833h266q-7 -43 7.5 -75t60.5 -32q47 0 73 32t33 75h283q-25 -147 -137 -235.5t-281 -88.5q-168 0 -249 88.5t-56 235.5z" />
<glyph unicode="&#x14f;" horiz-adv-x="1277" d="M119 461q0 179 96.5 328.5t258 234t349.5 84.5q229 0 372.5 -137t143.5 -350q0 -135 -57 -256t-152.5 -206.5t-225 -135.5t-269.5 -50q-229 0 -372.5 137t-143.5 351zM520 500q0 -85 47 -135t125 -50q103 0 174.5 75t71.5 192q0 84 -46.5 135t-123.5 51 q-103 0 -175.5 -76t-72.5 -192zM528 1503h267q-7 -43 7 -74.5t60 -31.5q48 0 74 31.5t33 74.5h282q-25 -147 -136.5 -235t-280.5 -88q-168 0 -249.5 88t-56.5 235z" />
<glyph unicode="&#x150;" horiz-adv-x="1642" d="M156 606q0 173 68.5 329.5t187.5 272t289 184t364 68.5q155 0 281 -48.5t208.5 -133.5t127 -200t44.5 -249q0 -174 -68.5 -331.5t-187.5 -273t-289 -183.5t-364 -68q-154 0 -280 48.5t-208.5 133.5t-127.5 200.5t-45 250.5zM588 655q0 -137 78.5 -223t212.5 -86 q177 0 297 125.5t120 306.5q0 135 -78.5 222t-213.5 87q-176 0 -296 -125.5t-120 -306.5zM655 1489l185 309h389l-277 -309h-297zM1104 1489l184 309h389l-276 -309h-297z" />
<glyph unicode="&#x151;" horiz-adv-x="1277" d="M119 461q0 179 96.5 328.5t258 234t349.5 84.5q229 0 372.5 -137t143.5 -350q0 -135 -57 -256t-152.5 -206.5t-225 -135.5t-269.5 -50q-229 0 -372.5 137t-143.5 351zM438 1176l185 309h389l-277 -309h-297zM520 500q0 -85 47 -135t125 -50q103 0 174.5 75t71.5 192 q0 84 -46.5 135t-123.5 51q-103 0 -175.5 -76t-72.5 -192zM887 1176l184 309h389l-276 -309h-297z" />
<glyph unicode="&#x152;" horiz-adv-x="2086" d="M156 606q0 173 68.5 329.5t187.5 272t289 184t364 68.5q115 0 217 -26h946l-59 -357h-479q30 -82 36 -176h353l-60 -354h-350q-46 -116 -100 -191h495l-59 -356h-963q-118 -27 -225 -27q-154 0 -280 48.5t-208.5 133.5t-127.5 200.5t-45 250.5zM588 655q0 -137 78.5 -223 t212.5 -86q177 0 297 125.5t120 306.5q0 135 -78.5 222t-213.5 87q-176 0 -296 -125.5t-120 -306.5z" />
<glyph unicode="&#x153;" horiz-adv-x="1964" d="M119 461q0 179 96.5 328.5t258 234t349.5 84.5q226 0 369 -127q165 127 379 127q226 0 342.5 -122.5t116.5 -348.5q0 -89 -29 -201h-676q4 -63 48 -97t118 -34q66 0 124.5 32t86.5 64l237 -188q-12 -19 -37 -45.5t-72 -61.5t-102.5 -64t-135 -49t-162.5 -20 q-223 0 -367 144q-178 -144 -428 -144q-229 0 -372.5 137t-143.5 351zM520 500q0 -85 47 -135t125 -50q103 0 174.5 75t71.5 192q0 84 -46.5 135t-123.5 51q-103 0 -175.5 -76t-72.5 -192zM1374 678h266q4 44 -24 80.5t-88 36.5q-63 0 -102.5 -38t-51.5 -79z" />
<glyph unicode="&#x154;" horiz-adv-x="1294" d="M119 0l239 1434h506q229 0 344 -97.5t115 -273.5q0 -143 -69.5 -267.5t-190.5 -193.5l227 -602h-448l-158 506h-74l-84 -506h-407zM635 1489l184 309h410l-277 -309h-317zM666 838h67q76 0 121 43t45 108q0 103 -123 103h-67z" />
<glyph unicode="&#x155;" horiz-adv-x="798" d="M90 0l180 1081h387l-22 -137q54 76 137.5 120t171.5 44l-65 -387q-28 8 -62 8q-99 0 -163 -59t-83 -166l-84 -504h-397zM408 1176l184 309h409l-276 -309h-317z" />
<glyph unicode="&#x156;" horiz-adv-x="1294" d="M119 0l239 1434h506q229 0 344 -97.5t115 -273.5q0 -143 -69.5 -267.5t-190.5 -193.5l227 -602h-448l-158 506h-74l-84 -506h-407zM408 -555q92 57 133 129q-59 14 -89 58t-30 100q0 88 70 152.5t161 64.5q80 0 127 -50t47 -135q0 -124 -91.5 -254.5t-225.5 -205.5z M666 838h67q76 0 121 43t45 108q0 103 -123 103h-67z" />
<glyph unicode="&#x157;" horiz-adv-x="798" d="M55 -555q92 57 133 129q-59 14 -88.5 58t-29.5 100q0 88 70 152.5t161 64.5q80 0 127 -50t47 -135q0 -124 -91.5 -254.5t-225.5 -205.5zM90 0l180 1081h387l-22 -137q54 76 137.5 120t171.5 44l-65 -387q-28 8 -62 8q-99 0 -163 -59t-83 -166l-84 -504h-397z" />
<glyph unicode="&#x158;" horiz-adv-x="1294" d="M119 0l239 1434h506q229 0 344 -97.5t115 -273.5q0 -143 -69.5 -267.5t-190.5 -193.5l227 -602h-448l-158 506h-74l-84 -506h-407zM485 1802h320l55 -125l96 125h332l-252 -309h-401zM666 838h67q76 0 121 43t45 108q0 103 -123 103h-67z" />
<glyph unicode="&#x159;" horiz-adv-x="798" d="M90 0l180 1081h387l-22 -137q54 76 137.5 120t171.5 44l-65 -387q-28 8 -62 8q-99 0 -163 -59t-83 -166l-84 -504h-397zM252 1485h319l56 -125l96 125h332l-252 -309h-402z" />
<glyph unicode="&#x15a;" horiz-adv-x="1118" d="M78 322l368 167q23 -59 70.5 -100t101.5 -41q51 0 77 20.5t26 51.5q0 26 -27 49.5t-70 45.5t-95.5 47.5t-105 60.5t-95.5 78t-70 108t-27 143q0 150 74 266t205 179t297 63q79 0 145 -17.5t110 -48t77 -65.5t53 -77t30.5 -74.5t16.5 -65.5l-365 -151q-9 30 -16 47 t-22.5 39.5t-40.5 33.5t-60 11q-40 0 -65 -21t-25 -53q0 -29 27.5 -54t71.5 -47t97 -46.5t106 -58t97 -74t71.5 -102t27.5 -136.5q0 -109 -41.5 -204.5t-116.5 -167.5t-189 -113.5t-251 -41.5q-96 0 -176 27t-129 66.5t-85.5 90t-53 90.5t-23.5 75zM635 1489l184 309h410 l-277 -309h-317z" />
<glyph unicode="&#x15b;" horiz-adv-x="942" d="M45 145l254 217q96 -75 219 -75q40 0 60 12t20 31q0 18 -31.5 33.5t-78 28t-101.5 36.5t-101.5 55.5t-78 89t-31.5 132.5q0 120 68 213t181.5 141.5t250.5 48.5q139 0 235.5 -51t149.5 -127l-289 -203q-70 70 -149 70q-33 0 -50.5 -12t-17.5 -29q0 -19 23.5 -35.5 t61.5 -30.5t83.5 -30t91 -40.5t83.5 -56t61.5 -81t23.5 -111.5q0 -190 -143 -294t-373 -104q-131 0 -246.5 51.5t-175.5 120.5zM502 1176l184 309h410l-277 -309h-317z" />
<glyph unicode="&#x15c;" horiz-adv-x="1118" d="M78 322l368 167q23 -59 70.5 -100t101.5 -41q51 0 77 20.5t26 51.5q0 26 -27 49.5t-70 45.5t-95.5 47.5t-105 60.5t-95.5 78t-70 108t-27 143q0 150 74 266t205 179t297 63q79 0 145 -17.5t110 -48t77 -65.5t53 -77t30.5 -74.5t16.5 -65.5l-365 -151q-9 30 -16 47 t-22.5 39.5t-40.5 33.5t-60 11q-40 0 -65 -21t-25 -53q0 -29 27.5 -54t71.5 -47t97 -46.5t106 -58t97 -74t71.5 -102t27.5 -136.5q0 -109 -41.5 -204.5t-116.5 -167.5t-189 -113.5t-251 -41.5q-96 0 -176 27t-129 66.5t-85.5 90t-53 90.5t-23.5 75zM420 1493l252 309h401 l150 -309h-326l-55 125l-97 -125h-325z" />
<glyph unicode="&#x15d;" horiz-adv-x="942" d="M45 145l254 217q96 -75 219 -75q40 0 60 12t20 31q0 18 -31.5 33.5t-78 28t-101.5 36.5t-101.5 55.5t-78 89t-31.5 132.5q0 120 68 213t181.5 141.5t250.5 48.5q139 0 235.5 -51t149.5 -127l-289 -203q-70 70 -149 70q-33 0 -50.5 -12t-17.5 -29q0 -19 23.5 -35.5 t61.5 -30.5t83.5 -30t91 -40.5t83.5 -56t61.5 -81t23.5 -111.5q0 -190 -143 -294t-373 -104q-131 0 -246.5 51.5t-175.5 120.5zM299 1176l252 309h401l150 -309h-326l-55 124l-96 -124h-326z" />
<glyph unicode="&#x15e;" horiz-adv-x="1118" d="M78 322l368 167q23 -59 70.5 -100t101.5 -41q51 0 77 20.5t26 51.5q0 26 -27 49.5t-70 45.5t-95.5 47.5t-105 60.5t-95.5 78t-70 108t-27 143q0 150 74 266t205 179t297 63q79 0 145 -17.5t110 -48t77 -65.5t53 -77t30.5 -74.5t16.5 -65.5l-365 -151q-9 30 -16 47 t-22.5 39.5t-40.5 33.5t-60 11q-40 0 -65 -21t-25 -53q0 -29 27.5 -54t71.5 -47t97 -46.5t106 -58t97 -74t71.5 -102t27.5 -136.5q0 -134 -59.5 -245.5t-176 -185t-272.5 -89.5l-14 -46q60 -18 95.5 -61t35.5 -106q0 -124 -89 -191.5t-227 -67.5q-42 0 -89.5 9.5t-70.5 19.5 l80 178q35 -10 70 -10q36 0 56 14t20 35q0 23 -24 35t-54 12l-41 -4l61 185q-74 12 -136 43.5t-100.5 68.5t-67.5 82t-42.5 80t-19.5 66z" />
<glyph unicode="&#x15f;" horiz-adv-x="942" d="M45 145l254 217q96 -75 219 -75q40 0 60 12t20 31q0 18 -31.5 33.5t-78 28t-101.5 36.5t-101.5 55.5t-78 89t-31.5 132.5q0 120 68 213t181.5 141.5t250.5 48.5q139 0 235.5 -51t149.5 -127l-289 -203q-70 70 -149 70q-33 0 -50.5 -12t-17.5 -29q0 -19 23.5 -35.5 t61.5 -30.5t83.5 -30t91 -40.5t83.5 -56t61.5 -81t23.5 -111.5q0 -190 -143 -294t-373 -104q-131 0 -246.5 51.5t-175.5 120.5zM199 -463l80 178q35 -10 69 -10q36 0 56 14t20 35q0 23 -24 35t-54 12l-41 -4l78 232h190l-30 -95q60 -18 95.5 -61t35.5 -106 q0 -124 -89 -191.5t-227 -67.5q-42 0 -89 9.5t-70 19.5z" />
<glyph unicode="&#x160;" horiz-adv-x="1118" d="M78 322l368 167q23 -59 70.5 -100t101.5 -41q51 0 77 20.5t26 51.5q0 26 -27 49.5t-70 45.5t-95.5 47.5t-105 60.5t-95.5 78t-70 108t-27 143q0 150 74 266t205 179t297 63q79 0 145 -17.5t110 -48t77 -65.5t53 -77t30.5 -74.5t16.5 -65.5l-365 -151q-9 30 -16 47 t-22.5 39.5t-40.5 33.5t-60 11q-40 0 -65 -21t-25 -53q0 -29 27.5 -54t71.5 -47t97 -46.5t106 -58t97 -74t71.5 -102t27.5 -136.5q0 -109 -41.5 -204.5t-116.5 -167.5t-189 -113.5t-251 -41.5q-96 0 -176 27t-129 66.5t-85.5 90t-53 90.5t-23.5 75zM467 1802h319l56 -125 l96 125h332l-252 -309h-402z" />
<glyph unicode="&#x161;" horiz-adv-x="942" d="M45 145l254 217q96 -75 219 -75q40 0 60 12t20 31q0 18 -31.5 33.5t-78 28t-101.5 36.5t-101.5 55.5t-78 89t-31.5 132.5q0 120 68 213t181.5 141.5t250.5 48.5q139 0 235.5 -51t149.5 -127l-289 -203q-70 70 -149 70q-33 0 -50.5 -12t-17.5 -29q0 -19 23.5 -35.5 t61.5 -30.5t83.5 -30t91 -40.5t83.5 -56t61.5 -81t23.5 -111.5q0 -190 -143 -294t-373 -104q-131 0 -246.5 51.5t-175.5 120.5zM352 1485h320l55 -125l96 125h332l-252 -309h-401z" />
<glyph unicode="&#x162;" horiz-adv-x="1067" d="M217 1077l59 357h998l-60 -357h-296l-181 -1077h-151l-21 -66q60 -18 95.5 -61t35.5 -106q0 -124 -88.5 -191.5t-226.5 -67.5q-42 0 -89.5 9.5t-70.5 19.5l80 178q35 -10 70 -10t55 14t20 35q0 23 -23.5 35t-53.5 12l-41 -4l67 203h-65l180 1077h-293z" />
<glyph unicode="&#x163;" horiz-adv-x="776" d="M127 -463l80 178q35 -10 69 -10q36 0 56 14t20 35q0 23 -24 35t-54 12l-41 -4l80 246q-156 101 -110 367l59 358h-102l53 313h113l36 228h388l-37 -228h174l-53 -313h-175l-59 -354q-4 -27 5.5 -45t31 -26.5t42.5 -11.5t48 -3l39 2l-55 -334q-48 -12 -146 -12 q-28 0 -78 4l-16 -54q60 -18 95.5 -61t35.5 -106q0 -124 -88.5 -191.5t-226.5 -67.5q-42 0 -89.5 9.5t-70.5 19.5z" />
<glyph unicode="&#x164;" horiz-adv-x="1067" d="M217 1077l59 357h998l-60 -357h-296l-181 -1077h-407l180 1077h-293zM442 1802h320l55 -125l96 125h332l-252 -309h-401z" />
<glyph unicode="&#x165;" horiz-adv-x="776" d="M160 768l53 313h113l36 228h388l-37 -228h174l-53 -313h-175l-59 -354q-4 -27 5.5 -45t31 -26.5t42.5 -11.5t48 -3l39 2l-55 -334q-48 -12 -146 -12q-434 0 -362 426l59 358h-102zM772 1124l74 357h284l-161 -357h-197z" />
<glyph unicode="&#x166;" horiz-adv-x="1067" d="M205 575l47 285h221l37 217h-293l59 357h998l-60 -357h-296l-37 -217h221l-47 -285h-221l-97 -575h-407l96 575h-221z" />
<glyph unicode="&#x167;" horiz-adv-x="776" d="M102 424l41 246h103l16 98h-102l53 313h111l36 228h390l-37 -228h174l-53 -313h-175l-16 -98h148l-41 -246h-148l-2 -10q-4 -22 2.5 -38t18.5 -25t31 -14.5t36.5 -7t38.5 -1.5l39 2l-55 -334q-48 -12 -146 -12q-425 0 -362 426l2 14h-103z" />
<glyph unicode="&#x168;" horiz-adv-x="1486" d="M213 561l145 873h408l-145 -875q-17 -100 31.5 -158.5t148.5 -58.5t168.5 58.5t85.5 158.5l145 875h408l-146 -873q-22 -132 -74.5 -238t-137.5 -185t-209.5 -122t-280.5 -43q-198 0 -332.5 75t-189 207.5t-25.5 305.5zM596 1495q25 148 113 237t209 89q63 0 141 -31 t102 -31q56 0 68 64h237q-25 -154 -109.5 -240t-205.5 -86q-63 0 -141.5 31t-102.5 31q-58 0 -67 -64h-244z" />
<glyph unicode="&#x169;" horiz-adv-x="1185" d="M145 385l117 696h397l-106 -637q-10 -59 16 -89.5t78 -30.5q56 0 91.5 32.5t43.5 81.5l109 643h395l-180 -1081h-387l16 102q-42 -49 -121 -89t-170 -40q-186 0 -258.5 108.5t-40.5 303.5zM385 1174q25 148 113 236.5t209 88.5q63 0 141 -30.5t102 -30.5q56 0 68 63h237 q-24 -154 -109 -239.5t-206 -85.5q-63 0 -141.5 30.5t-102.5 30.5q-58 0 -67 -63h-244z" />
<glyph unicode="&#x16a;" horiz-adv-x="1486" d="M213 561l145 873h408l-145 -875q-17 -100 31.5 -158.5t148.5 -58.5t168.5 58.5t85.5 158.5l145 875h408l-146 -873q-22 -132 -74.5 -238t-137.5 -185t-209.5 -122t-280.5 -43q-198 0 -332.5 75t-189 207.5t-25.5 305.5zM698 1518l45 274h609l-45 -274h-609z" />
<glyph unicode="&#x16b;" horiz-adv-x="1185" d="M145 385l117 696h397l-106 -637q-10 -59 16 -89.5t78 -30.5q56 0 91.5 32.5t43.5 81.5l109 643h395l-180 -1081h-387l16 102q-42 -49 -121 -89t-170 -40q-186 0 -258.5 108.5t-40.5 303.5zM498 1190l45 274h608l-45 -274h-608z" />
<glyph unicode="&#x16c;" horiz-adv-x="1486" d="M213 561l145 873h408l-145 -875q-17 -100 31.5 -158.5t148.5 -58.5t168.5 58.5t85.5 158.5l145 875h408l-146 -873q-22 -132 -74.5 -238t-137.5 -185t-209.5 -122t-280.5 -43q-198 0 -332.5 75t-189 207.5t-25.5 305.5zM707 1833h266q-7 -43 7 -75t60 -32q48 0 74 32 t33 75h283q-25 -147 -137 -235.5t-281 -88.5q-168 0 -249 88.5t-56 235.5z" />
<glyph unicode="&#x16d;" horiz-adv-x="1185" d="M145 385l117 696h397l-106 -637q-10 -59 16 -89.5t78 -30.5q56 0 91.5 32.5t43.5 81.5l109 643h395l-180 -1081h-387l16 102q-42 -49 -121 -89t-170 -40q-186 0 -258.5 108.5t-40.5 303.5zM494 1503h266q-7 -43 7 -74.5t60 -31.5q48 0 74 31.5t33 74.5h283 q-25 -147 -136.5 -235t-281.5 -88q-168 0 -249 88t-56 235z" />
<glyph unicode="&#x16e;" horiz-adv-x="1486" d="M213 561l145 873h408l-145 -875q-17 -100 31.5 -158.5t148.5 -58.5t168.5 58.5t85.5 158.5l145 875h408l-146 -873q-22 -132 -74.5 -238t-137.5 -185t-209.5 -122t-280.5 -43q-198 0 -332.5 75t-189 207.5t-25.5 305.5zM778 1679q0 111 87.5 184.5t207.5 73.5 q98 0 159.5 -54t61.5 -140q0 -111 -87.5 -184.5t-209.5 -73.5q-97 0 -158 54t-61 140zM965 1700q0 -29 15.5 -46.5t43.5 -17.5q37 0 61.5 25t24.5 63q0 28 -16 45t-45 17q-35 0 -59.5 -24.5t-24.5 -61.5z" />
<glyph unicode="&#x16f;" horiz-adv-x="1185" d="M145 385l117 696h397l-106 -637q-10 -59 16 -89.5t78 -30.5q56 0 91.5 32.5t43.5 81.5l109 643h395l-180 -1081h-387l16 102q-42 -49 -121 -89t-170 -40q-186 0 -258.5 108.5t-40.5 303.5zM575 1329q0 111 87.5 184.5t207.5 73.5q98 0 160 -54t62 -140 q0 -111 -87.5 -184.5t-209.5 -73.5q-97 0 -158.5 54t-61.5 140zM762 1350q0 -29 15.5 -46.5t43.5 -17.5q37 0 61.5 25t24.5 63q0 28 -16 45t-45 17q-35 0 -59.5 -24.5t-24.5 -61.5z" />
<glyph unicode="&#x170;" horiz-adv-x="1486" d="M213 561l145 873h408l-145 -875q-17 -100 31.5 -158.5t148.5 -58.5t168.5 58.5t85.5 158.5l145 875h408l-146 -873q-22 -132 -74.5 -238t-137.5 -185t-209.5 -122t-280.5 -43q-198 0 -332.5 75t-189 207.5t-25.5 305.5zM588 1489l184 309h389l-276 -309h-297zM1036 1489 l185 309h389l-277 -309h-297z" />
<glyph unicode="&#x171;" horiz-adv-x="1185" d="M145 385l117 696h397l-106 -637q-10 -59 16 -89.5t78 -30.5q56 0 91.5 32.5t43.5 81.5l109 643h395l-180 -1081h-387l16 102q-42 -49 -121 -89t-170 -40q-186 0 -258.5 108.5t-40.5 303.5zM383 1176l184 309h389l-276 -309h-297zM831 1176l185 309h389l-277 -309h-297z " />
<glyph unicode="&#x172;" horiz-adv-x="1486" d="M213 561l145 873h408l-145 -875q-17 -100 31.5 -158.5t148.5 -58.5t168.5 58.5t85.5 158.5l145 875h408l-146 -873q-37 -217 -154.5 -363t-320.5 -198q-31 -8 -65.5 -40.5t-34.5 -74.5q0 -57 78 -57l-43 -258q-67 -19 -148 -19q-62 0 -112.5 16t-86.5 58.5t-36 106.5 q0 82 49 143t119 100q-274 15 -405 174.5t-89 411.5z" />
<glyph unicode="&#x173;" horiz-adv-x="1185" d="M145 385l117 696h397l-106 -637q-10 -59 16 -89.5t78 -30.5q56 0 91.5 32.5t43.5 81.5l109 643h395l-180 -1081q-31 -8 -65.5 -40.5t-34.5 -74.5q0 -57 77 -57l-43 -258q-67 -19 -147 -19q-62 0 -113 16t-87 58.5t-36 106.5q0 52 22 98t58 79t70 54.5t70 36.5h-158 l16 102q-42 -49 -121 -89t-170 -40q-186 0 -258.5 108.5t-40.5 303.5z" />
<glyph unicode="&#x174;" horiz-adv-x="2105" d="M254 1434h436l31 -953l389 953h365l69 -953l350 953h437l-613 -1434h-461l-67 823l-342 -823h-463zM903 1493l252 309h401l150 -309h-326l-55 125l-96 -125h-326z" />
<glyph unicode="&#x175;" horiz-adv-x="1751" d="M195 1081h428l6 -659q3 9 243 659h369l21 -659l221 659h436l-473 -1081h-449l-32 545l-211 -545h-449zM672 1176l252 309h401l150 -309h-326l-55 124l-97 -124h-325z" />
<glyph unicode="&#x176;" horiz-adv-x="1318" d="M252 1434h446l119 -433l270 433h459l-577 -793l-107 -641h-405l106 641zM510 1493l252 309h401l150 -309h-326l-55 125l-96 -125h-326z" />
<glyph unicode="&#x177;" horiz-adv-x="1185" d="M193 1081h419l64 -559l258 559h420l-774 -1448h-373l213 408zM393 1176l252 309h402l149 -309h-326l-55 124l-96 -124h-326z" />
<glyph unicode="&#x178;" horiz-adv-x="1318" d="M252 1434h446l119 -433l270 433h459l-577 -793l-107 -641h-405l106 641zM528 1632q0 79 60.5 138t146.5 59q69 0 110.5 -42.5t41.5 -105.5q0 -80 -61 -138t-148 -58q-68 0 -109 42t-41 105zM991 1630q0 81 58.5 140t146.5 59q67 0 108.5 -42.5t41.5 -105.5 q0 -80 -60.5 -138t-146.5 -58q-68 0 -108 41.5t-40 103.5z" />
<glyph unicode="&#x179;" horiz-adv-x="1277" d="M63 0l41 250l730 831h-576l59 353h1127l-41 -248l-737 -834h604l-60 -352h-1147zM670 1489l184 309h410l-277 -309h-317z" />
<glyph unicode="&#x17a;" horiz-adv-x="987" d="M55 0l39 229l455 529h-361l54 323h870l-39 -231l-461 -526h375l-53 -324h-879zM496 1176l184 309h410l-277 -309h-317z" />
<glyph unicode="&#x17b;" horiz-adv-x="1277" d="M63 0l41 250l730 831h-576l59 353h1127l-41 -248l-737 -834h604l-60 -352h-1147zM741 1651q0 80 63 139t144 59q64 0 106 -43t42 -106q0 -81 -63 -140t-144 -59q-64 0 -106 43t-42 107z" />
<glyph unicode="&#x17c;" horiz-adv-x="987" d="M55 0l39 229l455 529h-361l54 323h870l-39 -231l-461 -526h375l-53 -324h-879zM557 1317q0 81 63 140t144 59q64 0 105.5 -43t41.5 -107q0 -81 -62.5 -140t-143.5 -59q-64 0 -106 43t-42 107z" />
<glyph unicode="&#x17d;" horiz-adv-x="1277" d="M63 0l41 250l730 831h-576l59 353h1127l-41 -248l-737 -834h604l-60 -352h-1147zM539 1802h319l55 -125l97 125h331l-251 -309h-402z" />
<glyph unicode="&#x17e;" horiz-adv-x="987" d="M55 0l39 229l455 529h-361l54 323h870l-39 -231l-461 -526h375l-53 -324h-879zM354 1485h320l55 -125l96 125h332l-252 -309h-401z" />
<glyph unicode="&#x192;" horiz-adv-x="1034" d="M-47 -381l55 322q28 -7 55 -7q77 0 105.5 33.5t46.5 134.5l86 508h-102l14 314h147l29 161q15 87 51 154t83 109.5t108 69.5t122 37.5t130 10.5t141 -12l-57 -319q-28 4 -62 4q-109 0 -127 -90l-22 -125h141l-14 -314h-189l-106 -641q-61 -362 -494 -362q-93 0 -141 12z " />
<glyph unicode="&#x1fa;" horiz-adv-x="1437" d="M8 0l723 1409q-14 32 -14 80q0 113 87.5 186.5t207.5 73.5q98 0 159.5 -54.5t61.5 -140.5q0 -75 -55 -147l252 -1407h-404l-41 274h-430l-131 -274h-416zM707 600h237l-49 412zM840 1798l184 309h410l-277 -309h-317zM903 1511q0 -29 16 -46t44 -17q37 0 61.5 25t24.5 63 q0 28 -16 44.5t-44 16.5q-37 0 -61.5 -24.5t-24.5 -61.5z" />
<glyph unicode="&#x1fb;" horiz-adv-x="1128" d="M82 279q0 186 138 301.5t358 115.5q114 0 184 -41l6 33q6 35 -28 60.5t-103 25.5q-121 0 -268 -61l-115 258q99 61 235 99t256 38q106 0 186.5 -24t128 -67t76.5 -101.5t31.5 -127.5t-8.5 -145l-108 -643h-357l-12 59q-99 -86 -270 -86q-140 0 -235 80.5t-95 225.5z M487 340q0 -35 30 -53.5t73 -18.5q50 0 89.5 25t39.5 67q0 36 -29.5 56t-73.5 20q-52 0 -90.5 -26t-38.5 -70zM551 1329q0 111 87.5 184.5t207.5 73.5q98 0 159.5 -54t61.5 -140q0 -111 -87.5 -184.5t-209.5 -73.5q-97 0 -158 54t-61 140zM657 1630l185 309h409l-276 -309 h-318zM737 1350q0 -29 16 -46.5t44 -17.5q37 0 61.5 25t24.5 63q0 28 -16.5 45t-45.5 17q-35 0 -59.5 -24.5t-24.5 -61.5z" />
<glyph unicode="&#x1fc;" horiz-adv-x="1880" d="M16 0l1012 1434h993l-59 -357h-395l-29 -176h334l-60 -354h-333l-33 -191h409l-59 -356h-817l45 274h-377l-188 -274h-443zM848 600h231l78 463zM1235 1489l184 309h410l-277 -309h-317z" />
<glyph unicode="&#x1fd;" horiz-adv-x="1763" d="M84 283q0 183 138 298t356 115q116 0 186 -41l6 33q7 36 -25 61t-102 25q-127 0 -274 -61l-105 258q95 61 228 99t253 38q208 0 316 -98q150 98 311 98q225 0 342 -123t117 -348q0 -81 -31 -201h-676q4 -63 48 -97t118 -34q67 0 126.5 32.5t84.5 63.5l240 -188 q-17 -26 -55 -61t-101.5 -78t-158 -72t-197.5 -29q-122 0 -217 40t-156 110q-143 -150 -401 -150q-158 0 -264.5 83t-106.5 227zM487 340q0 -35 30 -53.5t73 -18.5q51 0 90 24t39 68q0 36 -29.5 56t-73.5 20q-52 0 -90.5 -26t-38.5 -70zM874 1176l185 309h409l-276 -309 h-318zM1176 678h266q4 43 -25.5 80t-89.5 37q-63 0 -102 -38t-49 -79z" />
<glyph unicode="&#x1fe;" horiz-adv-x="1617" d="M156 604q0 173 68.5 330.5t187.5 273t289 184t364 68.5q208 0 360 -82l113 115l178 -160l-106 -108q57 -74 88 -178.5t31 -217.5q0 -174 -69 -331.5t-188.5 -273t-290 -183.5t-364.5 -68q-205 0 -362 80l-109 -110l-178 159l104 105q-56 74 -86 178.5t-30 218.5zM586 653 q0 -58 14 -112l518 526q-58 20 -114 20q-176 0 -297 -126t-121 -308zM762 365q55 -19 117 -19q177 0 297 125t120 305q0 59 -14 117zM883 1489l184 309h410l-277 -309h-317z" />
<glyph unicode="&#x1ff;" horiz-adv-x="1288" d="M123 459q0 180 97 330t259 234.5t350 84.5q146 0 267 -59l96 98l151 -133l-92 -94q92 -119 92 -299q0 -135 -57 -256t-152.5 -206.5t-225 -135.5t-269.5 -50q-137 0 -258 54l-105 -107l-151 133l94 99q-46 57 -71 138t-25 169zM524 502q0 -29 2 -39l291 299q-21 6 -45 6 q-103 0 -175.5 -75.5t-72.5 -190.5zM643 1176l184 309h410l-276 -309h-318zM664 317q10 -2 32 -2q90 0 157.5 62t84.5 164q7 38 4 61z" />
<glyph unicode="&#x218;" horiz-adv-x="1118" d="M78 322l368 167q23 -59 70.5 -100t101.5 -41q51 0 77 20.5t26 51.5q0 26 -27 49.5t-70 45.5t-95.5 47.5t-105 60.5t-95.5 78t-70 108t-27 143q0 150 74 266t205 179t297 63q79 0 145 -17.5t110 -48t77 -65.5t53 -77t30.5 -74.5t16.5 -65.5l-365 -151q-9 30 -16 47 t-22.5 39.5t-40.5 33.5t-60 11q-40 0 -65 -21t-25 -53q0 -29 27.5 -54t71.5 -47t97 -46.5t106 -58t97 -74t71.5 -102t27.5 -136.5q0 -109 -41.5 -204.5t-116.5 -167.5t-189 -113.5t-251 -41.5q-96 0 -176 27t-129 66.5t-85.5 90t-53 90.5t-23.5 75zM295 -555q92 57 133 129 q-59 14 -89 58t-30 100q0 88 70.5 152.5t161.5 64.5q80 0 127 -50t47 -135q0 -124 -92 -254.5t-226 -205.5z" />
<glyph unicode="&#x219;" horiz-adv-x="942" d="M45 145l254 217q96 -75 219 -75q40 0 60 12t20 31q0 18 -31.5 33.5t-78 28t-101.5 36.5t-101.5 55.5t-78 89t-31.5 132.5q0 120 68 213t181.5 141.5t250.5 48.5q139 0 235.5 -51t149.5 -127l-289 -203q-70 70 -149 70q-33 0 -50.5 -12t-17.5 -29q0 -19 23.5 -35.5 t61.5 -30.5t83.5 -30t91 -40.5t83.5 -56t61.5 -81t23.5 -111.5q0 -190 -143 -294t-373 -104q-131 0 -246.5 51.5t-175.5 120.5zM229 -555q92 57 133 129q-59 14 -88.5 58t-29.5 100q0 88 70 152.5t161 64.5q80 0 127 -50t47 -135q0 -124 -91.5 -254.5t-225.5 -205.5z" />
<glyph unicode="&#x21a;" horiz-adv-x="1067" d="M217 1077l59 357h998l-60 -357h-296l-181 -1077h-407l180 1077h-293zM256 -555q92 57 133 129q-59 14 -89 58t-30 100q0 88 70.5 152.5t161.5 64.5q80 0 127 -50t47 -135q0 -124 -92 -254.5t-226 -205.5z" />
<glyph unicode="&#x21b;" horiz-adv-x="776" d="M160 768l53 313h113l36 228h388l-37 -228h174l-53 -313h-175l-59 -354q-4 -27 5.5 -45t31 -26.5t42.5 -11.5t48 -3l39 2l-55 -334q-48 -12 -146 -12q-434 0 -362 426l59 358h-102zM178 -555q92 57 133 129q-59 14 -88.5 58t-29.5 100q0 88 70 152.5t161 64.5 q80 0 127 -50t47 -135q0 -124 -91.5 -254.5t-225.5 -205.5z" />
<glyph unicode="&#x237;" d="M-152 -385l54 324q26 -2 51 -2q62 0 98.5 26.5t44.5 73.5l176 1044h398l-181 -1077q-66 -397 -559 -397q-42 0 -82 8z" />
<glyph unicode="&#x2c6;" horiz-adv-x="921" d="M256 1176l252 309h401l150 -309h-326l-55 124l-96 -124h-326z" />
<glyph unicode="&#x2c7;" horiz-adv-x="921" d="M307 1485h320l55 -125l96 125h332l-252 -309h-401z" />
<glyph unicode="&#x2d8;" horiz-adv-x="917" d="M348 1503h266q-7 -43 7.5 -74.5t60.5 -31.5q48 0 73.5 31.5t32.5 74.5h283q-25 -147 -136.5 -235t-281.5 -88q-168 0 -249 88t-56 235z" />
<glyph unicode="&#x2d9;" horiz-adv-x="917" d="M506 1317q0 81 63 140t144 59q64 0 105.5 -43t41.5 -107q0 -81 -63 -140t-144 -59q-64 0 -105.5 43t-41.5 107z" />
<glyph unicode="&#x2da;" horiz-adv-x="917" d="M428 1329q0 111 87.5 184.5t207.5 73.5q98 0 159.5 -54t61.5 -140q0 -111 -87.5 -184.5t-209.5 -73.5q-97 0 -158 54t-61 140zM614 1350q0 -29 16 -46.5t44 -17.5q37 0 61.5 25t24.5 63q0 28 -16.5 45t-45.5 17q-35 0 -59.5 -24.5t-24.5 -61.5z" />
<glyph unicode="&#x2db;" horiz-adv-x="921" d="M211 -268q0 52 22 98t58 79t69.5 54.5t69.5 36.5h229q-31 -8 -65.5 -40.5t-34.5 -74.5q0 -57 78 -57l-43 -258q-67 -19 -148 -19q-62 0 -112.5 16t-86.5 58.5t-36 106.5z" />
<glyph unicode="&#x2dc;" horiz-adv-x="919" d="M246 1174q25 148 112.5 236.5t208.5 88.5q63 0 141.5 -30.5t102.5 -30.5q56 0 68 63h237q-24 -154 -109 -239.5t-206 -85.5q-63 0 -141.5 30.5t-102.5 30.5q-59 0 -68 -63h-243z" />
<glyph unicode="&#x2dd;" horiz-adv-x="1042" d="M231 1176l185 309h389l-277 -309h-297zM680 1176l184 309h389l-276 -309h-297z" />
<glyph unicode="&#x1e80;" horiz-adv-x="2101" d="M254 1434h436l31 -953l389 953h365l69 -953l350 953h437l-613 -1434h-461l-67 823l-342 -823h-463zM981 1798h403l82 -309h-301z" />
<glyph unicode="&#x1e81;" horiz-adv-x="1751" d="M195 1081h428l6 -659q3 9 243 659h369l21 -659l221 659h436l-473 -1081h-449l-32 545l-211 -545h-449zM760 1485h403l82 -309h-301z" />
<glyph unicode="&#x1e82;" horiz-adv-x="2097" d="M254 1434h436l31 -953l389 953h365l69 -953l350 953h437l-613 -1434h-461l-67 823l-342 -823h-463zM1122 1489l185 309h409l-276 -309h-318z" />
<glyph unicode="&#x1e83;" horiz-adv-x="1751" d="M195 1081h428l6 -659q3 9 243 659h369l21 -659l221 659h436l-473 -1081h-449l-32 545l-211 -545h-449zM883 1176l184 309h410l-277 -309h-317z" />
<glyph unicode="&#x1e84;" horiz-adv-x="2103" d="M254 1434h436l31 -953l389 953h365l69 -953l350 953h437l-613 -1434h-461l-67 823l-342 -823h-463zM922 1638q0 79 60 138t146 59q69 0 110.5 -42t41.5 -105q0 -80 -61 -138.5t-148 -58.5q-67 0 -108 42t-41 105zM1384 1636q0 81 58.5 140t146.5 59q68 0 109 -42t41 -105 q0 -80 -60.5 -138.5t-146.5 -58.5q-68 0 -108 41.5t-40 103.5z" />
<glyph unicode="&#x1e85;" horiz-adv-x="1751" d="M195 1081h428l6 -659q3 9 243 659h369l21 -659l221 659h436l-473 -1081h-449l-32 545l-211 -545h-449zM690 1313q0 79 60 137.5t147 58.5q69 0 110.5 -42t41.5 -105q0 -80 -61 -138.5t-148 -58.5q-67 0 -108.5 42.5t-41.5 105.5zM1153 1311q0 81 58.5 139.5t146.5 58.5 q67 0 108 -42t41 -105q0 -80 -60.5 -138.5t-146.5 -58.5q-68 0 -107.5 42t-39.5 104z" />
<glyph unicode="&#x1ef2;" horiz-adv-x="1318" d="M252 1434h446l119 -433l270 433h459l-577 -793l-107 -641h-405l106 641zM594 1798h403l82 -309h-301z" />
<glyph unicode="&#x1ef3;" horiz-adv-x="1185" d="M193 1081h419l64 -559l258 559h420l-774 -1448h-373l213 408zM496 1485h403l82 -309h-301z" />
<glyph unicode="&#x2000;" horiz-adv-x="1053" />
<glyph unicode="&#x2001;" horiz-adv-x="2107" />
<glyph unicode="&#x2002;" horiz-adv-x="1053" />
<glyph unicode="&#x2003;" horiz-adv-x="2107" />
<glyph unicode="&#x2004;" horiz-adv-x="702" />
<glyph unicode="&#x2005;" horiz-adv-x="526" />
<glyph unicode="&#x2006;" horiz-adv-x="351" />
<glyph unicode="&#x2007;" horiz-adv-x="351" />
<glyph unicode="&#x2008;" horiz-adv-x="263" />
<glyph unicode="&#x2009;" horiz-adv-x="421" />
<glyph unicode="&#x200a;" horiz-adv-x="117" />
<glyph unicode="&#x2010;" horiz-adv-x="829" d="M176 455l57 348h627l-57 -348h-627z" />
<glyph unicode="&#x2011;" horiz-adv-x="829" d="M176 455l57 348h627l-57 -348h-627z" />
<glyph unicode="&#x2012;" horiz-adv-x="829" d="M176 455l57 348h627l-57 -348h-627z" />
<glyph unicode="&#x2013;" horiz-adv-x="1443" d="M180 483l53 318h1244l-54 -318h-1243z" />
<glyph unicode="&#x2014;" horiz-adv-x="2017" d="M182 483l54 318h1812l-53 -318h-1813z" />
<glyph unicode="&#x2018;" horiz-adv-x="544" d="M197 930q0 162 110 329.5t283 268.5l123 -168q-57 -32 -113.5 -85t-77.5 -97q71 -18 108.5 -71.5t37.5 -119.5q0 -105 -82 -182.5t-191 -77.5q-88 0 -143 53t-55 150z" />
<glyph unicode="&#x2019;" horiz-adv-x="544" d="M209 895q56 33 112.5 85.5t77.5 96.5q-71 18 -108 71.5t-37 119.5q0 105 81.5 182.5t190.5 77.5q88 0 143.5 -53t55.5 -150q0 -162 -110 -329.5t-283 -268.5z" />
<glyph unicode="&#x201a;" horiz-adv-x="571" d="M39 -205q56 33 112.5 85.5t77.5 96.5q-71 18 -109 71.5t-38 119.5q0 105 82.5 182.5t191.5 77.5q88 0 143.5 -53t55.5 -150q0 -162 -110 -329.5t-283 -268.5z" />
<glyph unicode="&#x201c;" horiz-adv-x="1060" d="M197 930q0 162 110 329.5t283 268.5l123 -168q-57 -32 -113.5 -85t-77.5 -97q71 -18 108.5 -71.5t37.5 -119.5q0 -105 -82 -182.5t-191 -77.5q-88 0 -143 53t-55 150zM711 930q0 162 110 329.5t283 268.5l123 -168q-57 -32 -113.5 -85t-77.5 -97q71 -18 108.5 -71.5 t37.5 -119.5q0 -105 -82 -182.5t-191 -77.5q-88 0 -143 53t-55 150z" />
<glyph unicode="&#x201d;" horiz-adv-x="1060" d="M209 895q56 33 112.5 85.5t77.5 96.5q-71 18 -108 71.5t-37 119.5q0 105 81.5 182.5t190.5 77.5q88 0 143.5 -53t55.5 -150q0 -162 -110 -329.5t-283 -268.5zM723 895q56 33 112.5 85.5t77.5 96.5q-71 18 -108 71.5t-37 119.5q0 105 81.5 182.5t190.5 77.5 q88 0 143.5 -53t55.5 -150q0 -162 -110 -329.5t-283 -268.5z" />
<glyph unicode="&#x201e;" horiz-adv-x="1085" d="M39 -205q56 33 112.5 85.5t77.5 96.5q-71 18 -109 71.5t-38 119.5q0 105 82.5 182.5t191.5 77.5q88 0 143.5 -53t55.5 -150q0 -162 -110 -329.5t-283 -268.5zM553 -205q56 33 112.5 85.5t77.5 96.5q-71 18 -109 71.5t-38 119.5q0 105 82.5 182.5t191.5 77.5 q87 0 143 -53.5t56 -149.5q0 -162 -110 -329.5t-283 -268.5z" />
<glyph unicode="&#x2020;" horiz-adv-x="976" d="M174 778l57 338h250l54 318h391l-54 -318h248l-57 -338h-248l-131 -778h-391l131 778h-250z" />
<glyph unicode="&#x2021;" horiz-adv-x="974" d="M96 317l56 336h249l23 125h-250l55 338h250l53 318h392l-54 -318h248l-55 -338h-248l-22 -125h247l-55 -336h-248l-53 -317h-391l53 317h-250z" />
<glyph unicode="&#x2022;" horiz-adv-x="831" d="M164 584q0 164 123.5 283.5t292.5 119.5q133 0 216 -86.5t83 -214.5q0 -164 -123.5 -283.5t-292.5 -119.5q-134 0 -216.5 86t-82.5 215z" />
<glyph unicode="&#x202f;" horiz-adv-x="421" />
<glyph unicode="&#x2030;" horiz-adv-x="2623" d="M145 0l1340 1434h379l-1340 -1434h-379zM213 1042q0 171 133.5 294.5t315.5 123.5q151 0 242 -89t91 -224q0 -173 -132 -293.5t-320 -120.5q-149 0 -239.5 87t-90.5 222zM508 1083q0 -35 23 -58.5t57 -23.5q51 0 81.5 32t30.5 77q0 33 -21.5 55.5t-57.5 22.5 q-48 0 -80.5 -32t-32.5 -73zM1010 285q0 170 133.5 292.5t316.5 122.5q150 0 242 -89.5t92 -225.5q0 -111 -61.5 -206.5t-166 -150.5t-225.5 -55q-150 0 -240.5 88t-90.5 224zM1307 324q0 -34 21 -57t56 -23q48 0 81.5 32t33.5 74q0 34 -23 57t-59 23q-48 0 -79 -31.5 t-31 -74.5zM1866 285q0 170 133.5 292.5t316.5 122.5q150 0 242 -89.5t92 -225.5q0 -111 -61.5 -206.5t-165.5 -150.5t-225 -55q-150 0 -241 88t-91 224zM2163 324q0 -34 22 -57t56 -23q51 0 82.5 31.5t31.5 74.5q0 34 -23 57t-59 23q-46 0 -78 -32t-32 -74z" />
<glyph unicode="&#x2039;" horiz-adv-x="692" d="M150 606l309 393h352l-324 -411l193 -375h-340z" />
<glyph unicode="&#x203a;" horiz-adv-x="692" d="M84 213l324 412l-193 374h338l192 -385l-311 -401h-350z" />
<glyph unicode="&#x2044;" horiz-adv-x="1036" d="M-39 -84l1022 1602h334l-1024 -1602h-332z" />
<glyph unicode="&#x205f;" horiz-adv-x="526" />
<glyph unicode="&#x20ac;" horiz-adv-x="1380" d="M119 440l41 244h96l12 74h-96l41 243h147q109 203 307.5 331t440.5 128q245 0 393 -94l-219 -326q-34 21 -96.5 38.5t-118.5 17.5q-159 0 -262 -95h358l-65 -243h-406q-10 -36 -10 -74h393l-63 -244h-285q26 -45 97.5 -70.5t146.5 -25.5q123 0 229 59l96 -321 q-52 -44 -158.5 -76.5t-230.5 -32.5q-268 0 -435 125.5t-208 341.5h-145z" />
<glyph unicode="&#x2116;" horiz-adv-x="2318" d="M119 0l239 1434h416l326 -813l135 813h401l-239 -1434h-406l-340 801l-133 -801h-399zM1561 342l49 299h700l-49 -299h-700zM1653 1034q0 172 131.5 299t312.5 127q146 0 235 -91t89 -228q0 -172 -131 -296t-316 -124q-145 0 -233 89t-88 224zM1942 1075q0 -34 20 -57 t57 -23q53 0 83 33t30 78q0 33 -20.5 56.5t-59.5 23.5q-50 0 -80 -34t-30 -77z" />
<glyph unicode="&#x2122;" horiz-adv-x="1714" d="M274 1206l39 228h609l-39 -228h-172l-86 -512h-265l86 512h-172zM856 694l125 740h338l49 -365l176 365h338l-125 -740h-254l58 338l-123 -258h-234l-37 258l-57 -338h-254z" />
<glyph unicode="&#x2212;" horiz-adv-x="1150" d="M152 485l51 308h1009l-51 -308h-1009z" />
<glyph unicode="&#x25fc;" horiz-adv-x="1085" d="M0 0v1085h1085v-1085h-1085z" />
<glyph unicode="&#xf6c3;" horiz-adv-x="727" d="M102 -555q93 58 134 129q-59 14 -89 58t-30 100q0 88 70 152.5t161 64.5q80 0 127 -50t47 -135q0 -124 -91.5 -254.5t-225.5 -205.5z" />
<glyph horiz-adv-x="829" d="M190 537l58 348h626l-57 -348h-627z" />
<glyph horiz-adv-x="1443" d="M193 549l53 317h1243l-53 -317h-1243z" />
<glyph horiz-adv-x="2017" d="M195 549l53 317h1812l-53 -317h-1812z" />
<glyph horiz-adv-x="1140" d="M170 731l309 393h352l-323 -411l192 -375h-340zM618 723l312 401h350l-324 -411l193 -375h-338z" />
<glyph horiz-adv-x="1140" d="M104 338l324 412l-192 374h337l193 -385l-311 -401h-351zM553 338l324 412l-193 374h340l190 -393l-309 -393h-352z" />
<glyph horiz-adv-x="692" d="M170 731l309 393h352l-323 -411l192 -375h-340z" />
<glyph horiz-adv-x="692" d="M104 338l324 412l-192 374h337l193 -385l-311 -401h-351z" />
<glyph horiz-adv-x="753" d="M82 162l184 1100q40 246 218 375.5t448 129.5l-58 -335q-188 0 -217 -170l-184 -1100q-26 -170 162 -170l-57 -336q-263 0 -399.5 130.5t-96.5 375.5z" />
<glyph horiz-adv-x="755" d="M61 -344l56 336q191 0 217 170l184 1100q29 170 -160 170l58 335q263 0 398 -130t95 -375l-184 -1100q-27 -164 -121 -279.5t-232.5 -171t-310.5 -55.5z" />
<glyph horiz-adv-x="753" d="M-2 -344l354 2111h580l-58 -335h-188l-242 -1440h189l-55 -336h-580z" />
<glyph horiz-adv-x="751" d="M61 -344l56 336h188l242 1440h-189l58 335h579l-354 -2111h-580z" />
<glyph horiz-adv-x="897" d="M133 524l62 373q75 0 120.5 37.5t65.5 152.5l29 175q20 123 79 220t147 159t199 94t240 32l-57 -335q-188 0 -217 -170l-45 -269q-11 -65 -43 -118.5t-73 -86t-79 -51.5t-72 -26q31 -7 63 -26t62.5 -51.5t44.5 -86.5t3 -119l-46 -266q-29 -170 160 -170l-55 -336 q-263 0 -399.5 130.5t-96.5 375.5l29 172q11 50 6.5 84.5t-12.5 55t-28 32t-39.5 15t-47.5 3.5z" />
<glyph horiz-adv-x="645" d="M61 -436l385 2300h375l-385 -2300h-375z" />
<glyph horiz-adv-x="897" d="M61 -344l56 336q188 0 217 170l45 266q11 65 43 119t73 86.5t79 51.5t71 26q-31 7 -62.5 26t-62 51.5t-44.5 86t-3 118.5l45 269q29 170 -160 170l58 335q263 0 398 -130t95 -375l-28 -175q-11 -50 -6.5 -84.5t12 -55t27.5 -32t39.5 -15t47.5 -3.5l-61 -373 q-75 0 -120.5 -37.5t-65.5 -152.5l-29 -172q-27 -164 -121 -279.5t-232.5 -171t-310.5 -55.5z" />
<glyph horiz-adv-x="997" d="M-8 -166l909 1757h342l-909 -1757h-342z" />
<glyph horiz-adv-x="997" d="M287 1591h342l319 -1757h-342z" />
<glyph horiz-adv-x="671" d="M125 0l192 969h361l-131 -969h-422zM307 1202q0 104 82 181t191 77q88 0 142 -56t54 -138q0 -105 -81 -182.5t-191 -77.5q-88 0 -142.5 55.5t-54.5 140.5z" />
<glyph horiz-adv-x="1036" d="M98 326q0 68 21.5 126.5t56.5 101t78 79.5t87 69t81.5 62.5t64.5 66.5t33 74l10 64h383l-14 -90q-11 -67 -44.5 -125.5t-76 -96t-90 -74t-86.5 -63t-64.5 -58.5t-25.5 -65t22.5 -56.5t71.5 -23.5q89 0 148 103l299 -137q-21 -40 -48.5 -78t-74.5 -82t-102 -75.5 t-134.5 -53t-169.5 -21.5q-186 0 -306 100.5t-120 252.5zM535 1202q0 104 81 181t191 77q87 0 142 -56t55 -138q0 -104 -81.5 -182t-191.5 -78q-88 0 -142 55.5t-54 140.5z" />
<glyph horiz-adv-x="569" d="M170 682q0 105 81 182.5t191 77.5q88 0 142.5 -56t54.5 -141q0 -104 -81 -181t-191 -77q-87 0 -142 56.5t-55 138.5z" />
<glyph horiz-adv-x="831" d="M180 674q0 107 57 200.5t153 148t206 54.5q134 0 216.5 -86t82.5 -215q0 -164 -123.5 -283.5t-292.5 -119.5q-134 0 -216.5 86t-82.5 215z" />
<glyph horiz-adv-x="1245" d="M209 717q59 380 216.5 561.5t432.5 181.5q274 0 374.5 -181.5t41.5 -561.5q-62 -381 -219.5 -562.5t-431.5 -181.5q-276 0 -376 181.5t-38 562.5zM600.5 428q13.5 -82 81.5 -82t107 81t73 290q22 141 23 220t-19 114.5t-67 35.5q-67 0 -106.5 -81.5t-71.5 -288.5 q-34 -207 -20.5 -289z" />
<glyph horiz-adv-x="1245" d="M139 0l58 346h331l117 698l-285 -75l-36 331l456 134h334l-182 -1088h262l-57 -346h-998z" />
<glyph horiz-adv-x="1245" d="M115 0l22 131q15 88 56.5 170.5t96.5 145.5t121.5 123t132.5 106t128 92t109.5 83.5t76.5 78.5t29 78q0 38 -29.5 62t-75.5 24q-55 0 -97.5 -32.5t-68.5 -86.5l-335 102q18 51 48.5 101.5t80 102.5t110.5 91t146.5 63.5t181.5 24.5q199 0 330 -104.5t131 -278.5 q0 -80 -29.5 -153.5t-79 -131t-109.5 -109.5t-126.5 -97t-124.5 -84.5t-108 -81t-73 -78.5h543l-57 -342h-1030z" />
<glyph horiz-adv-x="1245" d="M164 362l368 101q9 -55 44 -89t90 -34q65 0 104 39t39 94q0 42 -30 71t-89 29h-217l51 301l262 213h-438l60 347h907l-58 -342l-266 -209q104 -25 172 -112t68 -218q0 -171 -79 -304t-216 -204.5t-307 -71.5q-98 0 -178 25.5t-131 65t-86 92.5t-51 104t-19 102z" />
<glyph horiz-adv-x="1245" d="M102 307l48 281l659 846h487l-133 -791h137l-55 -336h-137l-51 -307h-398l52 307h-609zM569 643h197l63 373z" />
<glyph horiz-adv-x="1245" d="M152 362l368 101q4 -60 41 -91.5t94 -31.5q67 0 119.5 46.5t52.5 119.5q0 50 -34 85.5t-93 35.5q-83 0 -145 -70l-317 61l165 816h897l-59 -347h-534l-35 -159q86 33 178 33q169 0 282 -116t113 -290q0 -160 -81.5 -294t-221 -211t-305.5 -77q-99 0 -181 25.5t-136 65.5 t-92 92.5t-55.5 103.5t-20.5 102z" />
<glyph horiz-adv-x="1245" d="M174 455q0 83 9 168.5t34 186.5t63 191t102 175.5t145 147t197.5 99t254.5 37.5q206 0 342 -86l-205 -327q-74 38 -180 38q-108 0 -175 -52t-95 -124q105 54 223 54q160 0 261 -95.5t101 -275.5q0 -131 -45.5 -246t-125 -196.5t-191 -129t-238.5 -47.5 q-244 0 -360.5 126.5t-116.5 355.5zM579 451q3 -33 14.5 -55t36.5 -36t64 -14q76 0 112 46t36 116q0 54 -28 85.5t-81 31.5q-71 0 -141 -37q-8 -41 -12 -72.5t-1 -64.5z" />
<glyph horiz-adv-x="1245" d="M236 0l634 1087h-589l57 347h1046l-47 -279l-657 -1155h-444z" />
<glyph horiz-adv-x="1245" d="M145 365q0 131 61.5 234t158.5 159q-38 33 -61 92t-23 129q0 97 41.5 184.5t116 153.5t185.5 104.5t242 38.5q212 0 328.5 -102.5t116.5 -265.5q0 -109 -50.5 -195t-125.5 -139q51 -37 80.5 -105.5t29.5 -152.5q0 -236 -171.5 -381.5t-455.5 -145.5q-225 0 -349 104 t-124 288zM569 428q0 -43 28.5 -67.5t80.5 -24.5q68 0 107.5 35t39.5 94q0 41 -26 69.5t-82 28.5q-71 0 -109.5 -41t-38.5 -94zM680 985q0 -80 94 -80q127 0 127 117q0 38 -24 60t-70 22q-61 0 -94 -33t-33 -86z" />
<glyph horiz-adv-x="1245" d="M164 59l205 328q76 -39 180 -39q108 0 175 52t95 124q-103 -53 -223 -53q-160 0 -261.5 95.5t-101.5 275.5q0 131 46 245.5t125.5 196.5t191 129t238.5 47q244 0 360.5 -126t116.5 -355q0 -83 -9 -169t-34 -187t-63 -191t-102 -175.5t-145 -147t-197.5 -99t-254.5 -37.5 q-206 0 -342 86zM643 926q0 -54 28 -85.5t81 -31.5q71 0 141 37q8 41 12 72t1 64.5t-14.5 55t-36.5 35.5t-64 14q-76 0 -112 -45.5t-36 -115.5z" />
</font>
</defs>
</svg>
